<?xml version="1.0" standalone="no"?>
<!DOCTYPE svg PUBLIC "-//W3C//DTD SVG 1.1//EN" "http://www.w3.org/Graphics/SVG/1.1/DTD/svg11.dtd" >
<svg xmlns="http://www.w3.org/2000/svg" xmlns:xlink="http://www.w3.org/1999/xlink" version="1.1">
<metadata>
Created by FontForge 20190801 at Wed Jan 30 14:32:27 2019
 By Jimmy Wärting
Copyright (c) 2018 by Fahd Al Fraikh. All Rights Reserved.
</metadata>
<defs>
<font id="FFShamelFamilySemiRoundBold-S" horiz-adv-x="0" >
  <font-face 
    font-family="FFShamelFamily-SemiRoundBold Sem"
    font-weight="400"
    font-stretch="normal"
    units-per-em="1000"
    panose-1="0 0 5 0 0 0 0 0 0 0"
    ascent="800"
    descent="-200"
    bbox="-329 -523 1564 980"
    underline-thickness="50"
    underline-position="-100"
    unicode-range="U+000D-FEFC"
  />
<missing-glyph horiz-adv-x="500" 
d="M0 -200v1000h500v-1000h-500zM429 -150l-179 390l-179 -390h358zM250 360l179 390h-358zM222 300l-172 376v-752zM450 676l-172 -376l172 -376v752z" />
    <glyph glyph-name="uniFEFB" unicode="&#xfedf;&#xfe8e;" horiz-adv-x="764" arabic-form="isolated" 
d="M233 148l-41 439q-2 24 12 37t38 13h56q24 0 36 -13t14 -37l44 -439h118q50 0 50 50v486q0 50 50 50h51q50 0 50 -50v-486q0 -61 -8 -99.5t-30 -60.5t-61.5 -30t-101.5 -8h-407q-50 0 -50 50v48q0 50 50 50h130z" />
    <glyph glyph-name="uniFEFC" unicode="&#xfee0;&#xfe8e;" horiz-adv-x="865" arabic-form="final" 
d="M865 0q-82 0 -134.5 22t-80.5 66q-35 -42 -89.5 -65t-125.5 -23h-332q-50 0 -50 50v48q0 50 50 50h130l-41 439q-2 24 12 37t38 13h56q24 0 36 -13t14 -37l44 -439h43q66 0 95.5 30t29.5 98v408q0 50 50 50h51q50 0 50 -50v-408q0 -37 12 -61.5t32 -39.5t48.5 -21
t61.5 -6v-148z" />
    <glyph glyph-name="uniFEF7" unicode="&#xfedf;&#xfe84;" horiz-adv-x="764" arabic-form="isolated" 
d="M703 99q-8 -39 -30 -61t-61.5 -30t-101.5 -8h-407q-50 0 -50 50v48q0 50 50 50h130l-41 439q-2 24 12 37t38 13h56q24 0 36 -13t14 -37l44 -439h118q50 0 50 50v486q0 50 50 50h51q50 0 50 -50v-486q0 -61 -8 -99zM337 896q0 -2 -2 -8l-8 -24q-4 -13 -17 -13q-6 0 -9 1
q-16 6 -31 6q-22 0 -35 -13t-13 -33q0 -23 16 -36t39 -13h60q20 0 20 -20v-23q0 -20 -20 -20h-168q-20 0 -20 20v23q0 20 20 20h3q-23 21 -23 59q0 23 9.5 42t25.5 33t37 21.5t45 7.5q6 0 18 -1.5t24 -4.5t20.5 -9t8.5 -15z" />
    <glyph glyph-name="uniFEF8" unicode="&#xfee0;&#xfe84;" horiz-adv-x="864" arabic-form="final" 
d="M711 276q0 -37 12 -61.5t32 -39.5t48.5 -21t61.5 -6v-148q-82 0 -134.5 22t-80.5 66q-35 -42 -89.5 -65t-125.5 -23h-332q-50 0 -50 50v48q0 50 50 50h130l-41 439q-2 24 12 37t38 13h56q24 0 36 -13t14 -37l44 -439h43q66 0 95.5 30t29.5 98v408q0 50 50 50h51
q50 0 50 -50v-408zM338 896q0 -2 -2 -8l-8 -24q-4 -13 -17 -13q-6 0 -9 1q-16 6 -31 6q-22 0 -35 -13t-13 -33q0 -23 16 -36t39 -13h60q20 0 20 -20v-23q0 -20 -20 -20h-168q-20 0 -20 20v23q0 20 20 20h3q-23 21 -23 59q0 23 9.5 42t25.5 33t37 21.5t45 7.5q6 0 18 -1.5
t24 -4.5t20.5 -9t8.5 -15z" />
    <glyph glyph-name="uniFEF9" unicode="&#xfedf;&#xfe88;" horiz-adv-x="764" arabic-form="isolated" 
d="M703 99q-8 -39 -30 -61t-61.5 -30t-101.5 -8h-407q-50 0 -50 50v48q0 50 50 50h130l-41 439q-2 24 12 37t38 13h56q24 0 36 -13t14 -37l44 -439h118q50 0 50 50v486q0 50 50 50h51q50 0 50 -50v-486q0 -61 -8 -99zM327 -107q0 -2 -2 -8l-8 -24q-4 -13 -17 -13q-6 0 -9 1
q-16 6 -31 6q-22 0 -35 -13t-13 -33q0 -23 16 -36t39 -13h60q20 0 20 -20v-23q0 -20 -20 -20h-168q-20 0 -20 20v23q0 20 20 20h3q-23 21 -23 59q0 23 9.5 42t25.5 33t37 21.5t45 7.5q6 0 18 -1.5t24 -4.5t20.5 -9t8.5 -15z" />
    <glyph glyph-name="uniFEFA" unicode="&#xfee0;&#xfe88;" horiz-adv-x="864" arabic-form="final" 
d="M711 276q0 -37 12 -61.5t32 -39.5t48.5 -21t61.5 -6v-148q-82 0 -134.5 22t-80.5 66q-35 -42 -89.5 -65t-125.5 -23h-332q-50 0 -50 50v48q0 50 50 50h130l-41 439q-2 24 12 37t38 13h56q24 0 36 -13t14 -37l44 -439h43q66 0 95.5 30t29.5 98v408q0 50 50 50h51
q50 0 50 -50v-408zM327 -107q0 -2 -2 -8l-8 -24q-4 -13 -17 -13q-6 0 -9 1q-16 6 -31 6q-22 0 -35 -13t-13 -33q0 -23 16 -36t39 -13h60q20 0 20 -20v-23q0 -20 -20 -20h-168q-20 0 -20 20v23q0 20 20 20h3q-23 21 -23 59q0 23 9.5 42t25.5 33t37 21.5t45 7.5q6 0 18 -1.5
t24 -4.5t20.5 -9t8.5 -15z" />
    <glyph glyph-name="uniFEF5" unicode="&#xfedf;&#xfe82;" horiz-adv-x="764" arabic-form="isolated" 
d="M612 8q-40 -8 -102 -8h-407q-50 0 -50 50v48q0 50 50 50h130l-41 439q-2 24 12 37t38 13h56q24 0 36 -13t14 -37l44 -439h118q50 0 50 50v486q0 50 50 50h51q50 0 50 -50v-486q0 -61 -8 -99.5t-30 -60.5t-61 -30zM326 828q4 4 10 4h34q6 0 10.5 -4.5t4.5 -10.5v-18
q0 -46 -23.5 -72.5t-64.5 -26.5q-34 0 -58 14t-41 25t-27 18.5t-19 7.5q-12 0 -16 -10t-4 -23v-17q0 -6 -4.5 -10.5t-10.5 -4.5h-35q-6 0 -10.5 4.5t-4.5 10.5v17q0 45 21.5 71t59.5 26q29 0 49 -13t37 -25t31 -19t32 -7q13 0 18.5 7t5.5 27v18q0 6 5 11z" />
    <glyph glyph-name="uniFEF6" unicode="&#xfee0;&#xfe82;" horiz-adv-x="864" arabic-form="final" 
d="M561 23q-55 -23 -126 -23h-332q-50 0 -50 50v48q0 50 50 50h130l-41 439q-2 24 12 37t38 13h56q24 0 36 -13t14 -37l44 -439h43q66 0 95.5 30t29.5 98v408q0 50 50 50h51q50 0 50 -50v-408q0 -37 12 -61.5t32 -39.5t48.5 -21t61.5 -6v-148q-82 0 -134.5 22t-80.5 66
q-35 -42 -89 -65zM326 828q4 4 10 4h34q6 0 10.5 -4.5t4.5 -10.5v-18q0 -46 -23.5 -72.5t-64.5 -26.5q-34 0 -58 14t-41 25t-27 18.5t-19 7.5q-12 0 -16 -10t-4 -23v-17q0 -6 -4.5 -10.5t-10.5 -4.5h-35q-6 0 -10.5 4.5t-4.5 10.5v17q0 45 21.5 71t59.5 26q29 0 49 -13
t37 -25t31 -19t32 -7q13 0 18.5 7t5.5 27v18q0 6 5 11z" />
    <glyph glyph-name="uniFE8E" unicode="&#x627;" horiz-adv-x="328" arabic-form="final" 
d="M254 0q-62 0 -101.5 8t-61.5 30t-30 60.5t-8 99.5v486q0 50 50 50h51q50 0 50 -50v-486q0 -50 50 -50h74v-148h-74z" />
    <glyph glyph-name="uniFE84" unicode="&#x623;" horiz-adv-x="328" arabic-form="final" 
d="M204 198q0 -50 50 -50h74v-148h-74q-62 0 -101.5 8t-61.5 30t-30 60.5t-8 99.5v426q0 50 50 50h51q50 0 50 -50v-426zM200 918q-4 -13 -17 -13q-6 0 -9 1q-16 6 -31 6q-22 0 -35 -13t-13 -33q0 -23 16 -36t39 -13h60q20 0 20 -20v-23q0 -20 -20 -20h-168q-20 0 -20 20v23
q0 20 20 20h3q-23 21 -23 59q0 23 9.5 42t25.5 33t37 21.5t45 7.5q6 0 18 -1.5t24 -4.5t20.5 -9t8.5 -15q0 -2 -2 -8z" />
    <glyph glyph-name="uniFE88" unicode="&#x625;" horiz-adv-x="328" arabic-form="final" 
d="M254 0q-62 0 -101.5 8t-61.5 30t-30 60.5t-8 99.5v486q0 50 50 50h51q50 0 50 -50v-486q0 -50 50 -50h74v-148h-74zM219 -116q0 -2 -2 -8l-8 -24q-4 -13 -17 -13q-6 0 -9 1q-16 6 -31 6q-22 0 -35 -13t-13 -33q0 -23 16 -36t39 -13h60q20 0 20 -20v-23q0 -20 -20 -20
h-168q-20 0 -20 20v23q0 20 20 20h3q-23 21 -23 59q0 23 9.5 42t25.5 33t37 21.5t45 7.5q6 0 18 -1.5t24 -4.5t20.5 -9t8.5 -15z" />
    <glyph glyph-name="uniFE82" unicode="&#x622;" horiz-adv-x="328" arabic-form="final" 
d="M328 0h-74q-62 0 -101.5 8t-61.5 30t-30 60.5t-8 99.5v486q0 50 50 50h51q50 0 50 -50v-486q0 -50 50 -50h74v-148zM240 952q0 6 4.5 10.5t10.5 4.5h34q6 0 10.5 -4.5t4.5 -10.5v-18q0 -46 -23.5 -72.5t-64.5 -26.5q-34 0 -58 14t-41 25t-27 18.5t-19 7.5q-12 0 -16 -10
t-4 -23v-17q0 -6 -4.5 -10.5t-10.5 -4.5h-35q-6 0 -10.5 4.5t-4.5 10.5v17q0 45 21.5 71t59.5 26q29 0 49 -13t37 -25t31 -19t32 -7q13 0 18.5 7t5.5 27v18z" />
    <glyph glyph-name="uni066E.init" unicode="&#x66e;" horiz-adv-x="329" 
d="M238 38q-22 -22 -61.5 -30t-101.5 -8h-75q-34 0 -57 22t-23 54t22 52t58 20h75q50 0 50 50v232q0 50 50 50h51q50 0 50 -50v-232q0 -61 -8 -99.5t-30 -60.5z" />
    <glyph glyph-name="uni066E.medi" unicode="&#x66e;" horiz-adv-x="430" 
d="M0 0q-34 0 -57 22t-23 54t22 52t58 20q26 0 48.5 7.5t39.5 23t27 39.5t10 58v154q0 50 50 50h51q50 0 50 -50v-154q0 -37 12 -61.5t32 -39.5t48.5 -21t61.5 -6v-148q-82 0 -134.5 22t-80.5 66q-35 -42 -89.5 -65t-125.5 -23z" />
    <glyph glyph-name="uni066E.fina" unicode="&#x66e;" horiz-adv-x="1099" 
d="M989 175q20 -15 48.5 -21t61.5 -6v-148q-82 0 -134 22t-80 66q-37 -43 -91.5 -65.5t-124.5 -22.5h-266q-69 0 -132 14.5t-111 49t-76 91t-28 140.5q0 41 14 94q12 41 56 41h41q45 0 45 -40q0 -9 -1 -14q-6 -28 -6 -55q0 -55 12.5 -89t37.5 -52.5t62 -25t86 -6.5h266
q65 0 95 30t30 98v154q0 50 50 50h51q50 0 50 -50v-154q0 -37 12 -61.5t32 -39.5z" />
    <glyph glyph-name="uniFE90" unicode="&#x628;" horiz-adv-x="1099" arabic-form="final" 
d="M945 276q0 -37 12 -61.5t32 -39.5t48.5 -21t61.5 -6v-148q-82 0 -134 22t-80 66q-37 -43 -91.5 -65.5t-124.5 -22.5h-266q-69 0 -132 14.5t-111 49t-76 91t-28 140.5q0 41 14 94q12 41 56 41h41q45 0 45 -40q0 -9 -1 -14q-6 -28 -6 -55q0 -55 12.5 -89t37.5 -52.5t62 -25
t86 -6.5h266q65 0 95 30t30 98v154q0 50 50 50h51q50 0 50 -50v-154zM417 -150q0 46 45 46h64q45 0 45 -46v-64q0 -45 -45 -45h-64q-45 0 -45 45v64z" />
    <glyph glyph-name="uniFE92" unicode="&#x628;" horiz-adv-x="430" arabic-form="medial" 
d="M369 154q28 -6 61 -6v-148q-82 0 -134.5 22t-80.5 66q-35 -42 -89.5 -65t-125.5 -23q-34 0 -57 22t-23 54t22 52t58 20q26 0 48.5 7.5t39.5 23t27 39.5t10 58v154q0 50 50 50h51q50 0 50 -50v-154q0 -37 12 -61.5t32 -39.5t49 -21zM236 -103q45 0 45 -46v-64
q0 -45 -45 -45h-64q-45 0 -45 45v64q0 46 45 46h64z" />
    <glyph glyph-name="uniFE91" unicode="&#x628;" horiz-adv-x="329" arabic-form="initial" 
d="M-57 22q-23 22 -23 54t22 52t58 20h75q50 0 50 50v232q0 50 50 50h51q50 0 50 -50v-232q0 -61 -8 -99.5t-30 -60.5t-61.5 -30t-101.5 -8h-75q-34 0 -57 22zM77 -150q0 46 45 46h64q45 0 45 -46v-64q0 -45 -45 -45h-64q-45 0 -45 45v64z" />
    <glyph glyph-name="uniFB57" unicode="&#x67e;" horiz-adv-x="1099" arabic-form="final" 
d="M945 276q0 -37 12 -61.5t32 -39.5t48.5 -21t61.5 -6v-148q-82 0 -134 22t-80 66q-37 -43 -91.5 -65.5t-124.5 -22.5h-266q-69 0 -132 14.5t-111 49t-76 91t-28 140.5q0 41 14 94q12 41 56 41h41q45 0 45 -40q0 -9 -1 -14q-6 -28 -6 -55q0 -55 12.5 -89t37.5 -52.5t62 -25
t86 -6.5h266q65 0 95 30t30 98v154q0 50 50 50h51q50 0 50 -50v-154zM467 -415q-45 0 -45 46v64q0 45 45 45h64q45 0 45 -45v-64q0 -46 -45 -46h-64zM323 -135q0 45 45 45h64q45 0 45 -45v-64q0 -46 -45 -46h-64q-45 0 -45 46v64zM631 -90q45 0 45 -45v-64q0 -46 -45 -46
h-64q-45 0 -45 46v64q0 45 45 45h64z" />
    <glyph glyph-name="uniFB59" unicode="&#x67e;" horiz-adv-x="430" arabic-form="medial" 
d="M276 276q0 -37 12 -61.5t32 -39.5t48.5 -21t61.5 -6v-148q-82 0 -134.5 22t-80.5 66q-35 -42 -89.5 -65t-125.5 -23q-34 0 -57 22t-23 54t22 52t58 20q26 0 48.5 7.5t39.5 23t27 39.5t10 58v154q0 50 50 50h51q50 0 50 -50v-154zM25 -135q0 45 45 45h64q45 0 45 -45v-64
q0 -46 -45 -46h-64q-45 0 -45 46v64zM278 -369q0 -46 -45 -46h-64q-45 0 -45 46v64q0 45 45 45h64q45 0 45 -45v-64zM333 -90q45 0 45 -45v-64q0 -46 -45 -46h-64q-45 0 -45 46v64q0 45 45 45h64z" />
    <glyph glyph-name="uniFB58" unicode="&#x67e;" horiz-adv-x="398" arabic-form="initial" 
d="M268 99q-8 -39 -30 -61t-61.5 -30t-101.5 -8h-75q-34 0 -57 22t-23 54t22 52t58 20h75q50 0 50 50v232q0 50 50 50h51q50 0 50 -50v-232q0 -61 -8 -99zM25 -133q0 45 45 45h64q45 0 45 -45v-64q0 -46 -45 -46h-64q-45 0 -45 46v64zM278 -367q0 -46 -45 -46h-64
q-45 0 -45 46v64q0 45 45 45h64q45 0 45 -45v-64zM333 -88q45 0 45 -45v-64q0 -46 -45 -46h-64q-45 0 -45 46v64q0 45 45 45h64z" />
    <glyph glyph-name="uniFE96" unicode="&#x62a;" horiz-adv-x="1099" arabic-form="final" 
d="M403 0q-69 0 -132 14.5t-111 49t-76 91t-28 140.5q0 41 14 94q12 41 56 41h41q45 0 45 -40q0 -9 -1 -14q-6 -28 -6 -55q0 -55 12.5 -89t37.5 -52.5t62 -25t86 -6.5h266q65 0 95 30t30 98v154q0 50 50 50h51q50 0 50 -50v-154q0 -37 12 -61.5t32 -39.5t48.5 -21t61.5 -6
v-148q-82 0 -134 22t-80 66q-37 -43 -91.5 -65.5t-124.5 -22.5h-266zM432 705q45 0 45 -46v-64q0 -45 -45 -45h-64q-45 0 -45 45v64q0 46 45 46h64zM676 595q0 -45 -45 -45h-64q-45 0 -45 45v64q0 46 45 46h64q45 0 45 -46v-64z" />
    <glyph glyph-name="uniFE98" unicode="&#x62a;" horiz-adv-x="430" arabic-form="medial" 
d="M369 154q28 -6 61 -6v-148q-82 0 -134.5 22t-80.5 66q-35 -42 -89.5 -65t-125.5 -23q-34 0 -57 22t-23 54t22 52t58 20q26 0 48.5 7.5t39.5 23t27 39.5t10 58v154q0 50 50 50h51q50 0 50 -50v-154q0 -37 12 -61.5t32 -39.5t49 -21zM24 679q0 46 45 46h64q45 0 45 -46v-64
q0 -45 -45 -45h-64q-45 0 -45 45v64zM268 570q-45 0 -45 45v64q0 46 45 46h64q45 0 45 -46v-64q0 -45 -45 -45h-64z" />
    <glyph glyph-name="uniFE97" unicode="&#x62a;" horiz-adv-x="395" arabic-form="initial" 
d="M268 99q-8 -39 -30 -61t-61.5 -30t-101.5 -8h-75q-34 0 -57 22t-23 54t22 52t58 20h75q50 0 50 50v232q0 50 50 50h51q50 0 50 -50v-232q0 -61 -8 -99zM22 679q0 46 45 46h64q45 0 45 -46v-64q0 -45 -45 -45h-64q-45 0 -45 45v64zM375 615q0 -45 -45 -45h-64
q-45 0 -45 45v64q0 46 45 46h64q45 0 45 -46v-64z" />
    <glyph glyph-name="uniFE9A" unicode="&#x62b;" horiz-adv-x="1099" arabic-form="final" 
d="M945 276q0 -37 12 -61.5t32 -39.5t48.5 -21t61.5 -6v-148q-82 0 -134 22t-80 66q-37 -43 -91.5 -65.5t-124.5 -22.5h-266q-69 0 -132 14.5t-111 49t-76 91t-28 140.5q0 41 14 94q12 41 56 41h41q45 0 45 -40q0 -9 -1 -14q-6 -28 -6 -55q0 -55 12.5 -89t37.5 -52.5t62 -25
t86 -6.5h266q65 0 95 30t30 98v154q0 50 50 50h51q50 0 50 -50v-154zM576 764q0 -45 -45 -45h-64q-45 0 -45 45v64q0 46 45 46h64q45 0 45 -46v-64zM631 704q45 0 45 -46v-64q0 -45 -45 -45h-64q-45 0 -45 45v64q0 46 45 46h64zM323 658q0 46 45 46h64q45 0 45 -46v-64
q0 -45 -45 -45h-64q-45 0 -45 45v64z" />
    <glyph glyph-name="uniFE9C" unicode="&#x62b;" horiz-adv-x="430" arabic-form="medial" 
d="M276 276q0 -37 12 -61.5t32 -39.5t48.5 -21t61.5 -6v-148q-82 0 -134.5 22t-80.5 66q-35 -42 -89.5 -65t-125.5 -23q-34 0 -57 22t-23 54t22 52t58 20q26 0 48.5 7.5t39.5 23t27 39.5t10 58v154q0 50 50 50h51q50 0 50 -50v-154zM281 784q0 -45 -45 -45h-64q-45 0 -45 45
v64q0 46 45 46h64q45 0 45 -46v-64zM137 724q45 0 45 -46v-64q0 -45 -45 -45h-64q-45 0 -45 45v64q0 46 45 46h64zM336 724q45 0 45 -46v-64q0 -45 -45 -45h-64q-45 0 -45 45v64q0 46 45 46h64z" />
    <glyph glyph-name="uniFE9B" unicode="&#x62b;" horiz-adv-x="398" arabic-form="initial" 
d="M268 99q-8 -39 -30 -61t-61.5 -30t-101.5 -8h-75q-34 0 -57 22t-23 54t22 52t58 20h75q50 0 50 50v232q0 50 50 50h51q50 0 50 -50v-232q0 -61 -8 -99zM278 784q0 -45 -45 -45h-64q-45 0 -45 45v64q0 46 45 46h64q45 0 45 -46v-64zM25 678q0 46 45 46h64q45 0 45 -46v-64
q0 -45 -45 -45h-64q-45 0 -45 45v64zM333 724q45 0 45 -46v-64q0 -45 -45 -45h-64q-45 0 -45 45v64q0 46 45 46h64z" />
    <glyph glyph-name="uniFE9E" unicode="&#x62c;" horiz-adv-x="788" arabic-form="final" 
d="M520 264q-11 28 -27 52.5t-41 41.5q-37 26 -81.5 37t-90.5 11q-16 0 -31 -1.5t-30 -3.5q-5 -1 -13 -1q-40 0 -44 42l-5 40q0 3 -0.5 5.5t-0.5 5.5q0 40 41 46q24 5 50 7.5t52 2.5q60 0 121.5 -15.5t118.5 -53.5q61 -41 97.5 -111t55.5 -176q4 -20 12 -32.5t22 -12.5h62
v-148h-412q-83 0 -117.5 -26t-34.5 -72t34.5 -72.5t117.5 -26.5q50 0 50 -50v-47q0 -50 -50 -50q-146 0 -224.5 64t-78.5 182t78.5 182t224.5 64h170q-4 28 -10 58t-16 58zM628 -105q45 0 45 -46v-64q0 -45 -45 -45h-64q-45 0 -45 45v64q0 46 45 46h64z" />
    <glyph glyph-name="uniFEA0" unicode="&#x62c;" horiz-adv-x="694" arabic-form="medial" 
d="M532 369q36 -70 55 -176q4 -20 12.5 -32.5t22.5 -12.5h72v-148h-693q-42 0 -63 23t-21 51t21 51t63 23h440q-4 28 -10 58t-16.5 58t-26.5 52.5t-41 41.5q-37 26 -81 37t-90 11q-16 0 -31.5 -1.5t-30.5 -3.5q-5 -1 -13 -1q-40 0 -44 42l-5 40q0 3 -0.5 5.5t-0.5 5.5
q0 40 41 46q25 5 51 7.5t53 2.5q60 0 120.5 -15.5t117.5 -53.5q61 -41 98 -111zM252 -150q0 46 45 46h64q45 0 45 -46v-64q0 -45 -45 -45h-64q-45 0 -45 45v64z" />
    <glyph glyph-name="uniFE9F" unicode="&#x62c;" horiz-adv-x="724" arabic-form="initial" 
d="M532 369q36 -70 55 -176q4 -20 12.5 -32.5t22.5 -12.5q49 0 49 -48v-50q0 -50 -50 -50h-620q-42 0 -63 23t-21 51t21 51t63 23h440q-4 28 -10 58t-16.5 58t-26.5 52.5t-41 41.5q-37 26 -81 37t-90 11q-16 0 -31.5 -1.5t-30.5 -3.5q-5 -1 -13 -1q-40 0 -44 42l-5 40
q0 3 -0.5 5.5t-0.5 5.5q0 40 41 46q25 5 51 7.5t53 2.5q60 0 120.5 -15.5t117.5 -53.5q61 -41 98 -111zM345 -105q45 0 45 -46v-64q0 -45 -45 -45h-64q-45 0 -45 45v64q0 46 45 46h64z" />
    <glyph glyph-name="uniFB7B" unicode="&#x686;" horiz-adv-x="788" arabic-form="final" 
d="M692 193q4 -20 12 -32.5t22 -12.5h62v-148h-412q-83 0 -117.5 -26t-34.5 -72t34.5 -72.5t117.5 -26.5h1q50 0 50 -50v-47q0 -50 -50 -50h-1q-146 0 -224.5 64t-78.5 182t78.5 182t224.5 64h170q-4 28 -10 58t-16.5 58t-26.5 52.5t-41 41.5q-37 26 -81.5 37t-90.5 11
q-16 0 -31 -1.5t-30 -3.5q-5 -1 -13 -1q-40 0 -44 42l-5 40q0 3 -0.5 5.5t-0.5 5.5q0 40 41 46q24 5 50 7.5t52 2.5q60 0 121.5 -15.5t118.5 -53.5q61 -41 97.5 -111t55.5 -176zM616 -124q0 37 37 37h53q37 0 37 -37v-53q0 -38 -37 -38h-53q-37 0 -37 38v53zM571 -355
q-37 0 -37 38v53q0 37 37 37h53q37 0 37 -37v-53q0 -38 -37 -38h-53zM579 -177q0 -38 -37 -38h-53q-37 0 -37 38v53q0 37 37 37h53q37 0 37 -37v-53z" />
    <glyph glyph-name="uniFB7D" unicode="&#x686;" horiz-adv-x="694" arabic-form="medial" 
d="M587 193q4 -20 12.5 -32.5t22.5 -12.5h72v-148h-693q-42 0 -63 23t-21 51t21 51t63 23h440q-4 28 -10 58t-16.5 58t-26.5 52.5t-41 41.5q-37 26 -81 37t-90 11q-16 0 -31.5 -1.5t-30.5 -3.5q-5 -1 -13 -1q-40 0 -44 42l-5 40q0 3 -0.5 5.5t-0.5 5.5q0 40 41 46
q25 5 51 7.5t53 2.5q60 0 120.5 -15.5t117.5 -53.5q61 -41 97.5 -111t55.5 -176zM511 -216q0 -46 -45 -46h-64q-45 0 -45 46v64q0 45 45 45h64q45 0 45 -45v-64zM267 -107q45 0 45 -45v-64q0 -46 -45 -46h-64q-45 0 -45 46v64q0 45 45 45h64zM302 -432q-45 0 -45 46v64
q0 45 45 45h64q45 0 45 -45v-64q0 -46 -45 -46h-64z" />
    <glyph glyph-name="uniFB7C" unicode="&#x686;" horiz-adv-x="724" arabic-form="initial" 
d="M587 193q4 -20 12.5 -32.5t22.5 -12.5q49 0 49 -48v-50q0 -50 -50 -50h-620q-42 0 -63 23t-21 51t21 51t63 23h440q-4 28 -10 58t-16.5 58t-26.5 52.5t-41 41.5q-37 26 -81 37t-90 11q-16 0 -31.5 -1.5t-30.5 -3.5q-5 -1 -13 -1q-40 0 -44 42l-5 40q0 3 -0.5 5.5
t-0.5 5.5q0 40 41 46q25 5 51 7.5t53 2.5q60 0 120.5 -15.5t117.5 -53.5q61 -41 97.5 -111t55.5 -176zM289 -434q-45 0 -45 46v64q0 45 45 45h64q45 0 45 -45v-64q0 -46 -45 -46h-64zM145 -154q0 45 45 45h64q45 0 45 -45v-64q0 -46 -45 -46h-64q-45 0 -45 46v64zM498 -218
q0 -46 -45 -46h-64q-45 0 -45 46v64q0 45 45 45h64q45 0 45 -45v-64z" />
    <glyph glyph-name="uniFEA2" unicode="&#x62d;" horiz-adv-x="788" arabic-form="final" 
d="M536 206q-6 30 -16.5 58t-26.5 52.5t-41 41.5q-37 26 -81.5 37t-90.5 11q-16 0 -31 -1.5t-30 -3.5q-5 -1 -13 -1q-40 0 -44 42l-5 40q0 3 -0.5 5.5t-0.5 5.5q0 40 41 46q24 5 50 7.5t52 2.5q60 0 121.5 -15.5t118.5 -53.5q61 -41 97.5 -111t55.5 -176q4 -20 12 -32.5
t22 -12.5h62v-148h-412q-83 0 -117.5 -26t-34.5 -72t34.5 -72.5t117.5 -26.5h91q50 0 50 -50v-47q0 -50 -50 -50h-91q-146 0 -224.5 64t-78.5 182t78.5 182t224.5 64h170q-4 28 -10 58z" />
    <glyph glyph-name="uniFEA4" unicode="&#x62d;" horiz-adv-x="694" arabic-form="medial" 
d="M694 148v-148h-693q-42 0 -63 23t-21 51t21 51t63 23h440q-4 28 -10 58t-16.5 58t-26.5 52.5t-41 41.5q-37 26 -81 37t-90 11q-16 0 -31.5 -1.5t-30.5 -3.5q-5 -1 -13 -1q-40 0 -44 42l-5 40q0 3 -0.5 5.5t-0.5 5.5q0 40 41 46q25 5 51 7.5t53 2.5q60 0 120.5 -15.5
t117.5 -53.5q61 -41 97.5 -111t55.5 -176q4 -20 12.5 -32.5t22.5 -12.5h72z" />
    <glyph glyph-name="uniFEA3" unicode="&#x62d;" horiz-adv-x="724" arabic-form="initial" 
d="M622 148q49 0 49 -48v-50q0 -50 -50 -50h-620q-42 0 -63 23t-21 51t21 51t63 23h440q-4 28 -10 58t-16.5 58t-26.5 52.5t-41 41.5q-37 26 -81 37t-90 11q-16 0 -31.5 -1.5t-30.5 -3.5q-5 -1 -13 -1q-40 0 -44 42l-5 40q0 3 -0.5 5.5t-0.5 5.5q0 40 41 46q25 5 51 7.5
t53 2.5q60 0 120.5 -15.5t117.5 -53.5q61 -41 97.5 -111t55.5 -176q4 -20 12.5 -32.5t22.5 -12.5z" />
    <glyph glyph-name="uniFEA6" unicode="&#x62e;" horiz-adv-x="788" arabic-form="final" 
d="M452 358q-37 26 -81.5 37t-90.5 11q-16 0 -31 -1.5t-30 -3.5q-5 -1 -13 -1q-40 0 -44 42l-5 40q0 3 -0.5 5.5t-0.5 5.5q0 40 41 46q24 5 50 7.5t52 2.5q60 0 121.5 -15.5t118.5 -53.5q61 -41 97.5 -111t55.5 -176q4 -20 12 -32.5t22 -12.5h62v-148h-412q-83 0 -117.5 -26
t-34.5 -72t34.5 -72.5t117.5 -26.5h91q50 0 50 -50v-47q0 -50 -50 -50h-91q-146 0 -224.5 64t-78.5 182t78.5 182t224.5 64h170q-4 28 -10 58t-16.5 58t-26.5 52.5t-41 41.5zM376 618q-45 0 -45 45v64q0 46 45 46h64q45 0 45 -46v-64q0 -45 -45 -45h-64z" />
    <glyph glyph-name="uniFEA8" unicode="&#x62e;" horiz-adv-x="694" arabic-form="medial" 
d="M532 369q36 -70 55 -176q4 -20 12.5 -32.5t22.5 -12.5h72v-148h-693q-42 0 -63 23t-21 51t21 51t63 23h440q-4 28 -10 58t-16.5 58t-26.5 52.5t-41 41.5q-37 26 -81 37t-90 11q-16 0 -31.5 -1.5t-30.5 -3.5q-5 -1 -13 -1q-40 0 -44 42l-5 40q0 3 -0.5 5.5t-0.5 5.5
q0 40 41 46q25 5 51 7.5t53 2.5q60 0 120.5 -15.5t117.5 -53.5q61 -41 98 -111zM361 773q45 0 45 -46v-64q0 -45 -45 -45h-64q-45 0 -45 45v64q0 46 45 46h64z" />
    <glyph glyph-name="uniFEA7" unicode="&#x62e;" horiz-adv-x="724" arabic-form="initial" 
d="M532 369q36 -70 55 -176q4 -20 12.5 -32.5t22.5 -12.5q49 0 49 -48v-50q0 -50 -50 -50h-620q-42 0 -63 23t-21 51t21 51t63 23h440q-4 28 -10 58t-16.5 58t-26.5 52.5t-41 41.5q-37 26 -81 37t-90 11q-16 0 -31.5 -1.5t-30.5 -3.5q-5 -1 -13 -1q-40 0 -44 42l-5 40
q0 3 -0.5 5.5t-0.5 5.5q0 40 41 46q25 5 51 7.5t53 2.5q60 0 120.5 -15.5t117.5 -53.5q61 -41 98 -111zM219 727q0 46 45 46h64q45 0 45 -46v-64q0 -45 -45 -45h-64q-45 0 -45 45v64z" />
    <glyph glyph-name="uniFEAA" unicode="&#x62f;" horiz-adv-x="660" arabic-form="final" 
d="M109 499q0 50 50 50h25q86 0 155 -21.5t118 -64.5t75.5 -107.5t26.5 -150.5v-57h101v-148h-557q-50 0 -50 50v48q0 50 50 50h305v57q0 54 -13 91t-40 59.5t-70 32.5t-103 10h-23q-50 0 -50 50v51z" />
    <glyph glyph-name="uniFEAC" unicode="&#x630;" horiz-adv-x="660" arabic-form="final" 
d="M660 0h-557q-50 0 -50 50v48q0 50 50 50h305v57q0 54 -13 91t-40 59.5t-70 32.5t-103 10h-23q-50 0 -50 50v51q0 50 50 50h25q86 0 155 -21.5t118 -64.5t75.5 -107.5t26.5 -150.5v-57h101v-148zM239 727q0 46 45 46h64q45 0 45 -46v-64q0 -45 -45 -45h-64q-45 0 -45 45
v64z" />
    <glyph glyph-name="uniFEAE" unicode="&#x631;" horiz-adv-x="415" arabic-form="final" 
d="M48 -208q-40 9 -40 45q0 4 0.5 7.5t1.5 8.5l8 34q9 39 47 39h7q3 0 7 -1q6 -1 11.5 -1.5t10.5 -0.5q29 0 44 17t15 60v430q0 50 50 50h51q50 0 50 -50v-282h104v-148h-104q0 -109 -48.5 -163t-136.5 -54q-36 0 -78 9z" />
    <glyph glyph-name="uniFEB0" unicode="&#x632;" horiz-adv-x="415" arabic-form="final" 
d="M415 148v-148h-104q0 -109 -48.5 -163t-136.5 -54q-36 0 -78 9q-40 9 -40 45q0 4 0.5 7.5t1.5 8.5l8 34q9 39 47 39h7q3 0 7 -1q6 -1 11.5 -1.5t10.5 -0.5q29 0 44 17t15 60v430q0 50 50 50h51q50 0 50 -50v-282h104zM265 723q45 0 45 -46v-64q0 -45 -45 -45h-64
q-45 0 -45 45v64q0 46 45 46h64z" />
    <glyph glyph-name="uniFEB2" unicode="&#x633;" horiz-adv-x="1564" arabic-form="final" 
d="M1454 175q20 -15 48.5 -21t61.5 -6v-148q-80 0 -131.5 21t-80.5 62q-31 -40 -76 -61.5t-102 -21.5q-109 0 -153 82q-32 -39 -79 -60.5t-108 -21.5h-97q-29 -120 -114 -183.5t-221 -63.5q-67 0 -130 18t-112 56t-78 98.5t-29 146.5q0 67 19 144q10 43 56 43h40
q46 0 46 -40q0 -5 -2 -15q-12 -58 -12 -107q0 -45 11 -81.5t35.5 -62t63 -39.5t92.5 -14q102 0 149.5 53.5t47.5 168.5v344q0 50 50 50h51q50 0 50 -50v-318h84q48 0 71.5 29.5t23.5 98.5v190q0 50 50 50h51q50 0 50 -50v-190q0 -66 24.5 -97t69.5 -31q40 0 62.5 30t22.5 98
v223q0 50 50 50h51q50 0 50 -50v-223q0 -37 12 -61.5t32 -39.5z" />
    <glyph glyph-name="uniFEB4" unicode="&#x633;" horiz-adv-x="1090" arabic-form="medial" 
d="M763 178q22 30 22 98v223q0 50 50 50h51q50 0 50 -50v-223q0 -37 12 -61.5t32 -39.5t48.5 -21t61.5 -6v-148q-80 0 -131.5 21t-80.5 62q-31 -40 -76 -61.5t-102 -21.5q-56 0 -93 20.5t-60 60.5q-31 -39 -75.5 -60t-101.5 -21q-58 0 -96 22t-60 65q-36 -42 -90 -64.5
t-124 -22.5q-35 0 -57.5 21t-22.5 53t22.5 53t57.5 21q26 0 48.5 7.5t39.5 23t27 39.5t10 58v190q0 50 50 50h51q50 0 50 -50v-190q0 -66 24.5 -97t69.5 -31q41 0 63 29.5t22 98.5v190q0 50 50 50h51q50 0 50 -50v-190q0 -66 24.5 -97t69.5 -31q40 0 63 30z" />
    <glyph glyph-name="uniFEB3" unicode="&#x633;" horiz-adv-x="989" arabic-form="initial" 
d="M735 148q50 0 50 50v301q0 50 50 50h51q50 0 50 -50v-298q0 -62 -8 -101.5t-30 -61.5t-61.5 -30t-101.5 -8h-25q-60 0 -99.5 20.5t-62.5 61.5q-31 -39 -76 -60.5t-102 -21.5q-58 0 -96 22t-60 65q-36 -42 -90 -64.5t-124 -22.5q-35 0 -57.5 21t-22.5 53t22.5 53t57.5 21
q26 0 48.5 7.5t39.5 23t27 39.5t10 58v190q0 50 50 50h51q50 0 50 -50v-190q0 -66 24.5 -97t69.5 -31q41 0 63 29.5t22 98.5v190q0 50 50 50h51q50 0 50 -50v-190q0 -66 25.5 -97t78.5 -31h25z" />
    <glyph glyph-name="uniFEB6" unicode="&#x634;" horiz-adv-x="1564" arabic-form="final" 
d="M160 -173q-49 38 -78 98.5t-29 146.5q0 67 19 144q10 43 56 43h40q46 0 46 -40q0 -5 -2 -15q-12 -58 -12 -107q0 -45 11 -81.5t35.5 -62t63 -39.5t92.5 -14q102 0 149.5 53.5t47.5 168.5v344q0 50 50 50h51q50 0 50 -50v-318h84q48 0 71.5 29.5t23.5 98.5v190q0 50 50 50
h51q50 0 50 -50v-190q0 -66 24.5 -97t69.5 -31q40 0 62.5 30t22.5 98v223q0 50 50 50h51q50 0 50 -50v-223q0 -37 12 -61.5t32 -39.5t48.5 -21t61.5 -6v-148q-80 0 -131.5 21t-80.5 62q-31 -40 -76 -61.5t-102 -21.5q-109 0 -153 82q-32 -39 -79 -60.5t-108 -21.5h-97
q-29 -120 -114 -183.5t-221 -63.5q-67 0 -130 18t-112 56zM1076 728q0 46 45 46h64q45 0 45 -46v-64q0 -45 -45 -45h-64q-45 0 -45 45v64zM926 893q0 46 45 46h64q45 0 45 -46v-64q0 -45 -45 -45h-64q-45 0 -45 45v64zM931 664q0 -45 -45 -45h-64q-45 0 -45 45v64
q0 46 45 46h64q45 0 45 -46v-64z" />
    <glyph glyph-name="uniFEB8" unicode="&#x634;" horiz-adv-x="1090" arabic-form="medial" 
d="M556 516q50 0 50 -50v-190q0 -66 24.5 -97t69.5 -31q40 0 62.5 30t22.5 98v223q0 50 50 50h51q50 0 50 -50v-223q0 -37 12 -61.5t32 -39.5t48.5 -21t61.5 -6v-148q-80 0 -131.5 21t-80.5 62q-31 -40 -76 -61.5t-102 -21.5q-56 0 -93 20.5t-60 60.5q-31 -39 -75.5 -60
t-101.5 -21q-58 0 -96 22t-60 65q-36 -42 -90 -64.5t-124 -22.5q-35 0 -57.5 21t-22.5 53t22.5 53t57.5 21q26 0 48.5 7.5t39.5 23t27 39.5t10 58v190q0 50 50 50h51q50 0 50 -50v-190q0 -66 24.5 -97t69.5 -31q41 0 63 29.5t22 98.5v190q0 50 50 50h51zM608 829
q0 -45 -45 -45h-64q-45 0 -45 45v64q0 46 45 46h64q45 0 45 -46v-64zM713 774q45 0 45 -46v-64q0 -45 -45 -45h-64q-45 0 -45 45v64q0 46 45 46h64zM459 664q0 -45 -45 -45h-64q-45 0 -45 45v64q0 46 45 46h64q45 0 45 -46v-64z" />
    <glyph glyph-name="uniFEB7" unicode="&#x634;" horiz-adv-x="989" arabic-form="initial" 
d="M226 516q50 0 50 -50v-190q0 -66 24.5 -97t69.5 -31q41 0 63 29.5t22 98.5v190q0 50 50 50h51q50 0 50 -50v-190q0 -66 25.5 -97t78.5 -31h25q50 0 50 50v301q0 50 50 50h51q50 0 50 -50v-298q0 -62 -8 -101.5t-30 -61.5t-61.5 -30t-101.5 -8h-25q-60 0 -99.5 20.5
t-62.5 61.5q-31 -39 -76 -60.5t-102 -21.5q-58 0 -96 22t-60 65q-36 -42 -90 -64.5t-124 -22.5q-35 0 -57.5 21t-22.5 53t22.5 53t57.5 21q26 0 48.5 7.5t39.5 23t27 39.5t10 58v190q0 50 50 50h51zM493 784q-45 0 -45 45v64q0 46 45 46h64q45 0 45 -46v-64q0 -45 -45 -45
h-64zM598 728q0 46 45 46h64q45 0 45 -46v-64q0 -45 -45 -45h-64q-45 0 -45 45v64zM408 774q45 0 45 -46v-64q0 -45 -45 -45h-64q-45 0 -45 45v64q0 46 45 46h64z" />
    <glyph glyph-name="uniFEBA" unicode="&#x635;" horiz-adv-x="1527" arabic-form="final" 
d="M552 -47q47 54 47 169v372q0 50 50 50h51q50 0 50 -50v-93q85 147 289 147q71 0 132 -23t107 -63.5t72 -95.5t26 -120v-2q6 -29 20.5 -48t34.5 -29.5t45 -14.5t51 -4v-148q-80 0 -131.5 21t-80.5 62q-36 -39 -91 -61t-124 -22h-363q-29 -120 -114 -183.5t-221 -63.5
q-67 0 -130 18t-112 56t-78 98.5t-29 146.5q0 67 19 144q10 43 56 43h40q46 0 46 -40q0 -5 -2 -15q-12 -58 -12 -107q0 -45 11 -81.5t35.5 -62t63 -39.5t92.5 -14q102 0 150 53zM1225 246q0 68 -49 109.5t-137 41.5q-58 0 -110.5 -18.5t-92 -51.5t-63 -78.5t-23.5 -100.5
h350q125 0 125 98z" />
    <glyph glyph-name="uniFEBC" unicode="&#x635;" horiz-adv-x="979" arabic-form="medial" 
d="M827 250q5 -31 19 -51t34 -31t45.5 -15.5t53.5 -4.5v-148q-81 0 -132 21t-80 63q-36 -40 -91.5 -62t-124.5 -22h-551q-35 0 -57.5 21t-22.5 53t22.5 53t57.5 21h52v351q0 50 50 50h50q50 0 50 -50v-97q85 146 288 146q70 0 131 -22.5t106.5 -62.5t72 -94.5t27.5 -118.5z
M201 148h350q125 0 125 98q0 68 -49 109.5t-137 41.5q-55 0 -106 -17t-91 -48t-65 -75t-27 -99v-10z" />
    <glyph glyph-name="uniFEBB" unicode="&#x635;" horiz-adv-x="880" arabic-form="initial" 
d="M789 38q-22 -22 -61.5 -30t-101.5 -8h-626q-35 0 -57.5 21t-22.5 53t22.5 53t57.5 21h52v351q0 50 50 50h50q50 0 50 -50v-97q85 146 288 146q71 0 132 -23t107 -63.5t72 -95.5t26 -120v-48q0 -61 -8 -99.5t-30 -60.5zM201 148h425q50 0 50 50v48q0 68 -49 109.5
t-137 41.5q-55 0 -106 -17t-91 -48t-65 -75t-27 -99v-10z" />
    <glyph glyph-name="uniFEBE" unicode="&#x636;" horiz-adv-x="1527" arabic-form="final" 
d="M1397 196q14 -19 34 -29.5t45 -14.5t51 -4v-148q-80 0 -131.5 21t-80.5 62q-36 -39 -91 -61t-124 -22h-363q-29 -120 -114 -183.5t-221 -63.5q-67 0 -130 18t-112 56t-78 98.5t-29 146.5q0 67 19 144q10 43 56 43h40q46 0 46 -40q0 -5 -2 -15q-12 -58 -12 -107
q0 -45 11 -81.5t35.5 -62t63 -39.5t92.5 -14q102 0 149.5 53.5t47.5 168.5v372q0 50 50 50h51q50 0 50 -50v-93q85 147 289 147q71 0 132 -23t107 -63.5t72 -95.5t26 -120v-2q6 -29 21 -48zM929 379q-53 -19 -92.5 -52t-63 -78.5t-23.5 -100.5h350q125 0 125 98
q0 68 -49 109.5t-137 41.5q-58 0 -110 -18zM1022 787q45 0 45 -46v-64q0 -45 -45 -45h-64q-45 0 -45 45v64q0 46 45 46h64z" />
    <glyph glyph-name="uniFEC0" unicode="&#x636;" horiz-adv-x="979" arabic-form="medial" 
d="M676 22q-56 -22 -125 -22h-551q-35 0 -57.5 21t-22.5 53t22.5 53t57.5 21h52v351q0 50 50 50h50q50 0 50 -50v-97q85 146 288 146q70 0 131 -22.5t106.5 -62.5t72 -94.5t27.5 -118.5q5 -31 19 -51t34 -31t45.5 -15.5t53.5 -4.5v-148q-81 0 -132 21t-80 63
q-36 -40 -91 -62zM201 148h350q125 0 125 98q0 68 -49 109.5t-137 41.5q-55 0 -106 -17t-91 -48t-65 -75t-27 -99v-10zM368 740q0 46 45 46h64q45 0 45 -46v-64q0 -45 -45 -45h-64q-45 0 -45 45v64z" />
    <glyph glyph-name="uniFEBF" unicode="&#x636;" horiz-adv-x="880" arabic-form="initial" 
d="M728 8q-40 -8 -102 -8h-626q-35 0 -57.5 21t-22.5 53t22.5 53t57.5 21h52v351q0 50 50 50h50q50 0 50 -50v-97q85 146 288 146q71 0 132 -23t107 -63.5t72 -95.5t26 -120v-48q0 -61 -8 -99.5t-30 -60.5t-61 -30zM676 246q0 68 -49 109.5t-137 41.5q-55 0 -106 -17
t-91 -48t-65 -75t-27 -99v-10h425q50 0 50 50v48zM368 740q0 46 45 46h64q45 0 45 -46v-64q0 -45 -45 -45h-64q-45 0 -45 45v64z" />
    <glyph glyph-name="uniFEC2" unicode="&#x637;" horiz-adv-x="1112" arabic-form="final" 
d="M979 199q14 -20 34 -31t45.5 -15.5t53.5 -4.5v-148q-81 0 -132 21t-80 63q-36 -40 -91.5 -62t-124.5 -22h-581q-50 0 -50 50v48q0 50 50 50h82v536q0 50 50 50h50q50 0 50 -50v-283q85 147 288 147q70 0 131 -22.5t106.5 -62.5t72 -94.5t27.5 -118.5q5 -31 19 -51z
M334 148h350q125 0 125 98q0 69 -49.5 110t-136.5 41q-55 0 -106.5 -17t-91.5 -48.5t-64.5 -76t-26.5 -99.5v-8z" />
    <glyph glyph-name="uniFEC4" unicode="&#x637;" horiz-adv-x="979" arabic-form="medial" 
d="M827 250q5 -31 19 -51t34 -31t45.5 -15.5t53.5 -4.5v-148q-81 0 -132 21t-80 63q-36 -40 -91.5 -62t-124.5 -22h-551q-35 0 -57.5 21t-22.5 53t22.5 53t57.5 21h52v536q0 50 50 50h50q50 0 50 -50v-283q85 147 288 147q70 0 131 -22.5t106.5 -62.5t72 -94.5t27.5 -118.5z
M201 148h350q125 0 125 98q0 68 -49 109.5t-137 41.5q-55 0 -106 -17t-91 -48.5t-65 -76t-27 -99.5v-8z" />
    <glyph glyph-name="uniFEC3" unicode="&#x637;" horiz-adv-x="880" arabic-form="initial" 
d="M789 38q-22 -22 -61.5 -30t-101.5 -8h-626q-35 0 -57.5 21t-22.5 53t22.5 53t57.5 21h52v536q0 50 50 50h50q50 0 50 -50v-283q85 147 288 147q71 0 132 -23t107 -63.5t72 -95.5t26 -120v-48q0 -61 -8 -99.5t-30 -60.5zM201 148h425q50 0 50 50v48q0 68 -49 109.5
t-137 41.5q-55 0 -106 -17t-91 -48.5t-65 -76t-27 -99.5v-8z" />
    <glyph glyph-name="uniFEC6" unicode="&#x638;" horiz-adv-x="1112" arabic-form="final" 
d="M933 369q26 -55 27 -119q5 -31 19 -51t34 -31t45.5 -15.5t53.5 -4.5v-148q-81 0 -132 21t-80 63q-36 -40 -91.5 -62t-124.5 -22h-581q-50 0 -50 50v48q0 50 50 50h82v536q0 50 50 50h50q50 0 50 -50v-283q85 147 288 147q70 0 131 -22.5t106.5 -62.5t72.5 -94zM684 148
q125 0 125 98q0 69 -49.5 110t-136.5 41q-55 0 -106.5 -17t-91.5 -48.5t-64.5 -76t-26.5 -99.5v-8h350zM500 741q0 46 45 46h64q45 0 45 -46v-64q0 -45 -45 -45h-64q-45 0 -45 45v64z" />
    <glyph glyph-name="uniFEC8" unicode="&#x638;" horiz-adv-x="979" arabic-form="medial" 
d="M676 22q-56 -22 -125 -22h-551q-35 0 -57.5 21t-22.5 53t22.5 53t57.5 21h52v536q0 50 50 50h50q50 0 50 -50v-283q85 147 288 147q70 0 131 -22.5t106.5 -62.5t72 -94.5t27.5 -118.5q5 -31 19 -51t34 -31t45.5 -15.5t53.5 -4.5v-148q-81 0 -132 21t-80 63
q-36 -40 -91 -62zM201 148h350q125 0 125 98q0 68 -49 109.5t-137 41.5q-55 0 -106 -17t-91 -48.5t-65 -76t-27 -99.5v-8zM377 741q0 46 45 46h64q45 0 45 -46v-64q0 -45 -45 -45h-64q-45 0 -45 45v64z" />
    <glyph glyph-name="uniFEC7" unicode="&#x638;" horiz-adv-x="880" arabic-form="initial" 
d="M728 8q-40 -8 -102 -8h-626q-35 0 -57.5 21t-22.5 53t22.5 53t57.5 21h52v536q0 50 50 50h50q50 0 50 -50v-283q85 147 288 147q71 0 132 -23t107 -63.5t72 -95.5t26 -120v-48q0 -61 -8 -99.5t-30 -60.5t-61 -30zM676 246q0 68 -49 109.5t-137 41.5q-55 0 -106 -17
t-91 -48.5t-65 -76t-27 -99.5v-8h425q50 0 50 50v48zM377 741q0 46 45 46h64q45 0 45 -46v-64q0 -45 -45 -45h-64q-45 0 -45 45v64z" />
    <glyph glyph-name="uniFECA" unicode="&#x639;" horiz-adv-x="802" arabic-form="final" 
d="M480 25q-13 10 -22 22.5t-16 24.5q-7 -12 -16 -24.5t-21.5 -23t-28.5 -17.5t-36 -7q-72 0 -104 -26.5t-32 -71.5q0 -46 34.5 -72.5t117.5 -26.5h91q50 0 50 -50v-47q0 -50 -50 -50h-91q-146 0 -224.5 64t-78.5 182q0 97 52.5 157t152.5 80l-89 90q-14 14 -20 28.5
t-4 34.5q7 56 32 103t64.5 81t91 53.5t109.5 19.5q59 0 110.5 -19.5t91 -53.5t64.5 -81t32 -103q2 -20 -4 -34.5t-20 -28.5l-81 -81h167v-148h-258q-20 0 -36 7t-28 18zM591 299q-2 16 -14 33.5t-31.5 32t-46 24t-57.5 9.5t-57.5 -9.5t-46 -24t-31.5 -32t-14 -33.5l149 -153
z" />
    <glyph glyph-name="uniFECC" unicode="&#x639;" horiz-adv-x="720" arabic-form="medial" 
d="M562 476q39 -34 64 -81t32 -103q2 -20 -4 -34.5t-20 -28.5l-81 -81h167v-148h-258q-20 0 -36 7t-28.5 17.5t-21.5 23t-16 24.5q-7 -12 -16 -24.5t-21.5 -23t-28.5 -17.5t-36 -7h-258q-34 0 -57 22t-23 54t22 52t58 20h168l-81 81q-14 14 -20 28.5t-4 34.5q7 56 32 103
t64.5 81t91 53.5t109.5 19.5q59 0 110.5 -19.5t91.5 -53.5zM495 333q-12 17 -31.5 31.5t-46 24t-57.5 9.5t-57.5 -9.5t-46 -24t-31.5 -32t-14 -33.5l149 -153l149 153q-2 16 -14 34z" />
    <glyph glyph-name="uniFECB" unicode="&#x639;" horiz-adv-x="618" arabic-form="initial" 
d="M516 411q-12 -33 -43 -33q-11 0 -22 4q-67 21 -116 21q-35 0 -65.5 -9t-53 -26.5t-35 -42t-12.5 -55.5q0 -55 39 -88.5t126 -33.5h181q50 0 50 -50v-48q0 -50 -50 -50h-515q-33 0 -56.5 21.5t-23.5 52.5t23.5 52.5t56.5 21.5h69q-51 45 -51 127q0 62 24 112.5t66.5 86.5
t100 55.5t123.5 19.5q36 0 79.5 -7.5t91.5 -23.5q34 -12 34 -41q0 -6 -1.5 -11.5t-3.5 -12.5z" />
    <glyph glyph-name="uniFECE" unicode="&#x63a;" horiz-adv-x="802" arabic-form="final" 
d="M802 148v-148h-258q-20 0 -36 7t-28.5 17.5t-21.5 23t-16 24.5q-7 -12 -16 -24.5t-21.5 -23t-28.5 -17.5t-36 -7q-72 0 -104 -26.5t-32 -71.5q0 -46 34.5 -72.5t117.5 -26.5h91q50 0 50 -50v-47q0 -50 -50 -50h-91q-146 0 -224.5 64t-78.5 182q0 97 52.5 157t152.5 80
l-89 90q-14 14 -20 28.5t-4 34.5q7 56 32 103t64.5 81t91 53.5t109.5 19.5q59 0 110.5 -19.5t91 -53.5t64.5 -81t32 -103q2 -20 -4 -34.5t-20 -28.5l-81 -81h167zM577 333q-12 17 -31.5 31.5t-46 24t-57.5 9.5t-57.5 -9.5t-46 -24t-31.5 -32t-14 -33.5l149 -153l149 153
q-2 16 -14 34zM520 663q0 -45 -45 -45h-64q-45 0 -45 45v64q0 46 45 46h64q45 0 45 -46v-64z" />
    <glyph glyph-name="uniFED0" unicode="&#x63a;" horiz-adv-x="720" arabic-form="medial" 
d="M462 0q-20 0 -36 7t-28.5 17.5t-21.5 23t-16 24.5q-7 -12 -16 -24.5t-21.5 -23t-28.5 -17.5t-36 -7h-258q-34 0 -57 22t-23 54t22 52t58 20h168l-81 81q-14 14 -20 28.5t-4 34.5q7 56 32 103t64.5 81t91 53.5t109.5 19.5q59 0 110.5 -19.5t91 -53.5t64.5 -81t32 -103
q2 -20 -4 -34.5t-20 -28.5l-81 -81h167v-148h-258zM418 389q-27 9 -58 9t-57.5 -9.5t-46 -24t-31.5 -32t-14 -33.5l149 -153l149 153q-2 16 -14 33.5t-31.5 32t-45.5 24.5zM436 663q0 -45 -45 -45h-64q-45 0 -45 45v64q0 46 45 46h64q45 0 45 -46v-64z" />
    <glyph glyph-name="uniFECF" unicode="&#x63a;" horiz-adv-x="618" arabic-form="initial" 
d="M0 0q-33 0 -56.5 21.5t-23.5 52.5t23.5 52.5t56.5 21.5h69q-51 45 -51 127q0 62 24 112.5t66.5 86.5t100 55.5t123.5 19.5q36 0 79.5 -7.5t91.5 -23.5q34 -12 34 -41q0 -6 -1.5 -11.5t-3.5 -12.5l-16 -42q-12 -33 -43 -33q-11 0 -22 4q-67 21 -116 21q-35 0 -65.5 -9
t-53 -26.5t-35 -42t-12.5 -55.5q0 -55 39 -88.5t126 -33.5h181q50 0 50 -50v-48q0 -50 -50 -50h-515zM236 727q0 46 45 46h64q45 0 45 -46v-64q0 -45 -45 -45h-64q-45 0 -45 45v64z" />
    <glyph glyph-name="uniFED2" unicode="&#x641;" horiz-adv-x="1177" arabic-form="final" 
d="M1177 0h-775q-67 0 -130 12t-112 43.5t-78 86t-29 140.5q0 47 17 107q12 41 56 41h41q45 0 45 -40q0 -9 -1 -14q-6 -28 -6 -55q0 -55 12.5 -89t37.5 -52.5t61.5 -25t85.5 -6.5h174q-15 29 -22 60t-7 63q0 52 18.5 102t59.5 89t107 63t160 24h3q63 0 102 -8t61.5 -30.5
t30.5 -62t8 -102.5v-174q0 -13 -1 -24h81v-148zM796 387q-37 -11 -59.5 -28.5t-31.5 -40t-9 -46.5q0 -23 9 -45.5t31.5 -40t60 -28t95.5 -10.5h33q20 0 20 20v210q0 20 -20 20h-35q-57 0 -94 -11zM852 773q45 0 45 -46v-64q0 -45 -45 -45h-64q-45 0 -45 45v64q0 46 45 46h64
z" />
    <glyph glyph-name="uniFED4" unicode="&#x641;" horiz-adv-x="681" arabic-form="medial" 
d="M558 511q22 -23 30 -62.5t8 -102.5v-174q0 -13 -1 -24h86v-148h-681q-35 0 -57.5 20.5t-22.5 52.5q0 34 22 54.5t58 20.5h75q-15 29 -22 60t-7 63q0 52 18.5 102t60 89t107 63t159.5 24h3q63 0 102 -8t62 -30zM389 398q-57 0 -94 -11t-59.5 -28.5t-31.5 -40t-9 -46.5
q0 -23 9 -45.5t31.5 -40t60 -28t95.5 -10.5h33q20 0 20 20v210q0 20 -20 20h-35zM256 727q0 46 45 46h64q45 0 45 -46v-64q0 -45 -45 -45h-64q-45 0 -45 45v64z" />
    <glyph glyph-name="uniFED3" unicode="&#x641;" horiz-adv-x="659" arabic-form="initial" 
d="M558 511q22 -23 30 -62.5t8 -102.5v-148q0 -61 -8 -99.5t-30.5 -60.5t-61.5 -30t-102 -8h-394q-35 0 -57.5 20.5t-22.5 52.5q0 34 22 54.5t58 20.5h75q-15 29 -22 60t-7 63q0 52 18.5 102t60 89t107 63t159.5 24h3q63 0 102 -8t62 -30zM389 398q-57 0 -94 -11
t-59.5 -28.5t-31.5 -40t-9 -46.5q0 -23 9 -45.5t31.5 -40t60 -28t95.5 -10.5h33q20 0 20 20v210q0 20 -20 20h-35zM411 663q0 -45 -45 -45h-64q-45 0 -45 45v64q0 46 45 46h64q45 0 45 -46v-64z" />
    <glyph glyph-name="uniFB6B" unicode="&#x6a4;" horiz-adv-x="1177" arabic-form="final" 
d="M272 12q-63 12 -112 43.5t-78 86t-29 140.5q0 47 17 107q12 41 56 41h41q45 0 45 -40q0 -9 -1 -14q-6 -28 -6 -55q0 -55 12.5 -89t37.5 -52.5t61.5 -25t85.5 -6.5h174q-15 29 -22 60t-7 63q0 52 18.5 102t59.5 89t107 63t160 24h3q63 0 102 -8t61.5 -30.5t30.5 -62
t8 -102.5v-174q0 -13 -1 -24h81v-148h-775q-67 0 -130 12zM925 148q20 0 20 20v210q0 20 -20 20h-35q-57 0 -94 -11t-59.5 -28.5t-31.5 -40t-9 -46.5q0 -23 9 -45.5t31.5 -40t60 -28t95.5 -10.5h33zM841 729q0 46 45 46h64q45 0 45 -46v-64q0 -45 -45 -45h-64q-45 0 -45 45
v64zM642 729q0 46 45 46h64q45 0 45 -46v-64q0 -45 -45 -45h-64q-45 0 -45 45v64zM895 835q0 -45 -45 -45h-64q-45 0 -45 45v64q0 46 45 46h64q45 0 45 -46v-64z" />
    <glyph glyph-name="uniFB6D" unicode="&#x6a4;" horiz-adv-x="681" arabic-form="medial" 
d="M558 511q22 -23 30 -62.5t8 -102.5v-174q0 -13 -1 -24h86v-148h-681q-35 0 -57.5 20.5t-22.5 52.5q0 34 22 54.5t58 20.5h75q-15 29 -22 60t-7 63q0 52 18.5 102t60 89t107 63t159.5 24h3q63 0 102 -8t62 -30zM204 227q9 -23 31.5 -40.5t60 -28t95.5 -10.5h33q20 0 20 20
v210q0 20 -20 20h-35q-57 0 -94 -11t-59.5 -28.5t-31.5 -40t-9 -46.5q0 -23 9 -45zM510 663q0 -45 -45 -45h-64q-45 0 -45 45v64q0 46 45 46h64q45 0 45 -46v-64zM311 663q0 -45 -45 -45h-64q-45 0 -45 45v64q0 46 45 46h64q45 0 45 -46v-64zM301 788q-45 0 -45 45v64
q0 46 45 46h64q45 0 45 -46v-64q0 -45 -45 -45h-64z" />
    <glyph glyph-name="uniFB6C" unicode="&#x6a4;" horiz-adv-x="659" arabic-form="initial" 
d="M496 8q-39 -8 -102 -8h-394q-35 0 -57.5 20.5t-22.5 52.5q0 34 22 54.5t58 20.5h75q-15 29 -22 60t-7 63q0 52 18.5 102t60 89t107 63t159.5 24h3q63 0 102 -8t61.5 -30.5t30.5 -62t8 -102.5v-148q0 -61 -8 -99.5t-30.5 -60.5t-61.5 -30zM444 378q0 20 -20 20h-35
q-57 0 -94 -11t-59.5 -28.5t-31.5 -40t-9 -46.5q0 -23 9 -45.5t31.5 -40t60 -28t95.5 -10.5h33q20 0 20 20v210zM315 662q0 -45 -45 -45h-64q-45 0 -45 45v64q0 46 45 46h64q45 0 45 -46v-64zM405 617q-45 0 -45 45v64q0 46 45 46h64q45 0 45 -46v-64q0 -45 -45 -45h-64z
M305 787q-45 0 -45 45v64q0 46 45 46h64q45 0 45 -46v-64q0 -45 -45 -45h-64z" />
    <glyph glyph-name="uni06A1.init" unicode="&#x6a1;" horiz-adv-x="649" 
d="M496 8q-39 -8 -102 -8h-394q-35 0 -57.5 20.5t-22.5 52.5q0 34 22 54.5t58 20.5h75q-15 29 -22 60t-7 63q0 52 18.5 102t60 89t107 63t159.5 24h3q63 0 102 -8t61.5 -30.5t30.5 -62t8 -102.5v-148q0 -61 -8 -99.5t-30.5 -60.5t-61.5 -30zM444 378q0 20 -20 20h-35
q-57 0 -94 -11t-59.5 -28.5t-31.5 -40t-9 -46.5q0 -23 9 -45.5t31.5 -40t60 -28t95.5 -10.5h33q20 0 20 20v210z" />
    <glyph glyph-name="uni06A1.medi" unicode="&#x6a1;" horiz-adv-x="681" 
d="M558 511q22 -23 30 -62.5t8 -102.5v-174q0 -13 -1 -24h86v-148h-681q-35 0 -57.5 20.5t-22.5 52.5q0 34 22 54.5t58 20.5h75q-15 29 -22 60t-7 63q0 52 18.5 102t60 89t107 63t159.5 24h3q63 0 102 -8t62 -30zM195 272q0 -23 9 -45.5t31.5 -40t60 -28t95.5 -10.5h33
q20 0 20 20v210q0 20 -20 20h-35q-57 0 -94 -11t-59.5 -28.5t-31.5 -40t-9 -46.5z" />
    <glyph glyph-name="uni06A1.fina" unicode="&#x6a1;" horiz-adv-x="1177" 
d="M997 541q39 -8 61.5 -30.5t30.5 -62t8 -102.5v-174q0 -13 -1 -24h81v-148h-775q-67 0 -130 12t-112 43.5t-78 86t-29 140.5q0 47 17 107q12 41 56 41h41q45 0 45 -40q0 -9 -1 -14q-6 -28 -6 -55q0 -55 12.5 -89t37.5 -52.5t61.5 -25t85.5 -6.5h174q-15 29 -22 60t-7 63
q0 52 18.5 102t59.5 89t107 63t160 24h3q63 0 102 -8zM925 148q20 0 20 20v210q0 20 -20 20h-35q-57 0 -94 -11t-59.5 -28.5t-31.5 -40t-9 -46.5q0 -23 9 -45.5t31.5 -40t60 -28t95.5 -10.5h33z" />
    <glyph glyph-name="uniFED6" unicode="&#x642;" horiz-adv-x="960" arabic-form="final" 
d="M658 0q-93 0 -158 23t-105.5 61t-59 86t-18.5 99q0 52 19 101.5t60 88.5t106 63t158 24q62 0 100.5 -8t60.5 -30t30 -61.5t8 -101.5v-197h101v-148h-103q-15 -147 -116 -222t-280 -75q-84 0 -157.5 19.5t-129 59.5t-87.5 101t-32 145q0 20 2 42t6 45q9 44 55 44h42
q51 0 46 -49q-3 -25 -3 -49q0 -106 64 -156.5t194 -50.5q59 0 102.5 8t73.5 25.5t47 45t23 67.5h-49zM658 395q-56 0 -93.5 -10.5t-60 -28t-32 -40t-9.5 -45.5t9.5 -45t32 -39.5t60.5 -28t95 -10.5h50v227q0 20 -20 20h-32zM565 663q0 -45 -45 -45h-64q-45 0 -45 45v64
q0 46 45 46h64q45 0 45 -46v-64zM655 618q-45 0 -45 45v64q0 46 45 46h64q45 0 45 -46v-64q0 -45 -45 -45h-64z" />
    <glyph glyph-name="uniFED8" unicode="&#x642;" horiz-adv-x="681" arabic-form="medial" 
d="M596 172q0 -13 -1 -24h86v-148h-681q-35 0 -57.5 20.5t-22.5 52.5q0 34 22 54.5t58 20.5h75q-15 29 -22 60t-7 63q0 52 18.5 102t60 89t107 63t159.5 24h3q63 0 102 -8t61.5 -30.5t30.5 -62t8 -102.5v-174zM424 148q20 0 20 20v210q0 20 -20 20h-35q-57 0 -94 -11
t-59.5 -28.5t-31.5 -40t-9 -46.5q0 -23 9 -45.5t31.5 -40t60 -28t95.5 -10.5h33zM400 618q-45 0 -45 45v64q0 46 45 46h64q45 0 45 -46v-64q0 -45 -45 -45h-64zM156 727q0 46 45 46h64q45 0 45 -46v-64q0 -45 -45 -45h-64q-45 0 -45 45v64z" />
    <glyph glyph-name="uniFED7" unicode="&#x642;" horiz-adv-x="659" arabic-form="initial" 
d="M588 99q-8 -39 -30.5 -61t-61.5 -30t-102 -8h-394q-35 0 -57.5 20.5t-22.5 52.5q0 34 22 54.5t58 20.5h75q-15 29 -22 60t-7 63q0 52 18.5 102t60 89t107 63t159.5 24h3q63 0 102 -8t61.5 -30.5t30.5 -62t8 -102.5v-148q0 -61 -8 -99zM424 148q20 0 20 20v210
q0 20 -20 20h-35q-57 0 -94 -11t-59.5 -28.5t-31.5 -40t-9 -46.5q0 -23 9 -45.5t31.5 -40t60 -28t95.5 -10.5h33zM464 773q45 0 45 -46v-64q0 -45 -45 -45h-64q-45 0 -45 45v64q0 46 45 46h64zM265 773q45 0 45 -46v-64q0 -45 -45 -45h-64q-45 0 -45 45v64q0 46 45 46h64z
" />
    <glyph glyph-name="uniFEDA" unicode="&#x643;" horiz-adv-x="1100" arabic-form="final" 
d="M795 684q0 50 50 50h51q50 0 50 -50v-408q0 -37 12 -61.5t32 -39.5t48.5 -21t61.5 -6v-148q-82 0 -134.5 22t-80.5 66q-35 -42 -89.5 -65t-125.5 -23h-268q-67 0 -130 12t-112 43.5t-78 86t-29 140.5q0 47 17 107q12 41 56 41h41q45 0 45 -40q0 -9 -1 -14q-6 -28 -6 -55
q0 -55 12.5 -89t37.5 -52.5t61.5 -25t85.5 -6.5h268q66 0 95.5 30t29.5 98v408zM573 697q16 -5 27.5 -13t11.5 -20q0 -2 -1 -5l-13 -38q-6 -17 -22 -17q-8 0 -12 1q-11 5 -22 6.5t-20 1.5q-29 0 -46 -17t-17 -44q0 -30 20.5 -47.5t52.5 -17.5h80q26 0 26 -27v-30
q0 -27 -26 -27h-224q-27 0 -27 27v30q0 27 27 27h4q-31 28 -31 78q0 31 12.5 56.5t34 44t50 28.5t59.5 10q8 0 24 -1.5t32 -5.5z" />
    <glyph glyph-name="uniFEDC" unicode="&#x643;" horiz-adv-x="688" arabic-form="medial" 
d="M486 85q-73 -85 -241 -85h-245q-38 0 -56.5 23t-18.5 51t18.5 51t56.5 23h245q41 0 67.5 4t43 14.5t23 27.5t6.5 42q0 62 -73.5 100t-200.5 45q-47 2 -54 46l-17 103q-1 5 -1 13q0 32 28 51q43 30 88 54t95 43t106 34t121 27q4 1 8 1h6q38 0 44 -42l7 -48q1 -4 1 -12
q0 -39 -43 -45q-80 -14 -154 -39.5t-131 -58.5q148 -21 233 -90t88 -175q8 -51 48 -73t104 -22v-148q-73 0 -122.5 21.5t-79.5 63.5z" />
    <glyph glyph-name="uniFEDB" unicode="&#x643;" horiz-adv-x="603" arabic-form="initial" 
d="M542 663q1 -4 1 -12q0 -39 -43 -45q-80 -14 -154 -39.5t-132 -58.5q151 -22 236.5 -100t85.5 -212q0 -60 -8 -98.5t-30 -60t-61.5 -29.5t-101.5 -8h-335q-38 0 -56.5 23t-18.5 51t18.5 51t56.5 23h335q50 0 50 48q0 44 -19 77.5t-54.5 56t-86.5 35.5t-114 16
q-47 2 -54 46l-17 103q-1 5 -1 13q0 32 28 51q43 30 88 54t95 43t106 34t121 27q4 1 8 1h6q38 0 44 -42z" />
    <glyph glyph-name="uniFEDE" unicode="&#x644;" horiz-adv-x="853" arabic-form="final" 
d="M71 216q12 43 56 43h40q46 0 46 -40q0 -5 -2 -15q-12 -58 -12 -107q0 -45 11 -81.5t35.5 -62t63 -39t92.5 -13.5q102 0 149.5 53.5t47.5 168.5v561q0 50 50 50h51q50 0 50 -50v-536h104v-148h-117q-29 -119 -114 -182.5t-221 -63.5q-67 0 -130 18t-112 56t-78 98.5
t-29 145.5q0 67 19 144z" />
    <glyph glyph-name="uniFEE0" unicode="&#x644;" horiz-adv-x="430" arabic-form="medial" 
d="M0 0q-35 0 -57.5 21t-22.5 53t22.5 53t57.5 21q26 0 48.5 7.5t39.5 23t27 39.5t10 58v408q0 50 50 50h51q50 0 50 -50v-408q0 -37 12 -61.5t32 -39.5t48.5 -21t61.5 -6v-148q-82 0 -134.5 22t-80.5 66q-35 -42 -89.5 -65t-125.5 -23z" />
    <glyph glyph-name="uniFEDF" unicode="&#x644;" horiz-adv-x="329" arabic-form="initial" 
d="M238 38q-22 -22 -61.5 -30t-101.5 -8h-75q-35 0 -57.5 21t-22.5 53t22.5 53t57.5 21h75q50 0 50 50v486q0 50 50 50h51q50 0 50 -50v-486q0 -61 -8 -99.5t-30 -60.5z" />
    <glyph glyph-name="uniFEE2" unicode="&#x645;" horiz-adv-x="923" arabic-form="final" 
d="M694 468q36 -39 56 -92t20 -114v-4q3 -33 16.5 -54.5t34 -33.5t46.5 -17t56 -5v-148q-81 0 -132.5 21.5t-79.5 63.5q-36 -42 -86 -63.5t-107 -21.5q-35 0 -71 8.5t-71 26.5q-3 -140 -57.5 -210.5t-168.5 -70.5q-25 0 -51 3q-23 3 -34.5 17t-11.5 37v46q0 47 33 47
q2 0 4 -0.5t4 -0.5q11 -2 21.5 -3t19.5 -1q54 0 72.5 36t18.5 111v186q0 70 19.5 128.5t55 101t86 66t112.5 23.5q59 0 109 -22t86 -61zM619 262q0 60 -31 99t-87 39q-63 0 -94 -45t-30 -123v-58q28 -18 57.5 -27t57.5 -9q26 0 49 7.5t40.5 23t27.5 39t10 54.5z" />
    <glyph glyph-name="uniFEE4" unicode="&#x645;" horiz-adv-x="788" arabic-form="medial" 
d="M615 375q20 -52 20 -112v-5q3 -33 16.5 -54.5t34 -33.5t46.5 -17t56 -5v-148q-81 0 -132.5 21.5t-80.5 63.5q-36 -42 -87 -63.5t-108 -21.5q-53 0 -105.5 19t-98.5 57q-30 -37 -75 -56.5t-101 -19.5q-34 0 -57 22t-23 54t22 52t58 20q31 0 47.5 10.5t25.5 31t15 50.5
t17 69q31 113 96.5 176.5t162.5 63.5q59 0 108.5 -22.5t85.5 -61t57 -90.5zM292 150q33 -12 65 -12q26 0 49 8t40.5 23.5t27.5 39t10 54.5q0 29 -8.5 53.5t-24 42.5t-38 28.5t-49.5 10.5q-43 0 -68 -29t-44 -86q-10 -30 -13.5 -52t-10.5 -47q30 -23 64 -34z" />
    <glyph glyph-name="uniFEE3" unicode="&#x645;" horiz-adv-x="688" arabic-form="initial" 
d="M558 466q36 -39 56.5 -91t20.5 -112q0 -64 -21 -113t-56 -82.5t-81.5 -50.5t-96.5 -17q-53 0 -105.5 19t-98.5 57q-30 -37 -75 -56.5t-101 -19.5q-34 0 -57 22t-23 54t22 52t58 20q31 0 47.5 10.5t25.5 31t15 50.5t17 69q31 113 96.5 176.5t162.5 63.5q59 0 108.5 -22.5
t85.5 -60.5zM452 359q-16 18 -38.5 28.5t-49.5 10.5q-43 0 -68 -29t-44 -86q-10 -30 -13.5 -52t-10.5 -47q30 -23 63.5 -34.5t65.5 -11.5q26 0 49 8t40.5 23.5t27.5 39t10 54.5q0 29 -8.5 53.5t-23.5 42.5z" />
    <glyph glyph-name="uniFEE6" unicode="&#x646;" horiz-adv-x="853" arabic-form="final" 
d="M622 -183q-85 -63 -221 -63q-67 0 -130 18t-112 56t-78 98.5t-29 145.5q0 67 19 144q12 43 56 43h40q46 0 46 -40q0 -5 -2 -15q-12 -58 -12 -107q0 -45 11 -81.5t35.5 -62t63 -39t92.5 -13.5q102 0 149.5 53.5t47.5 168.5v257q0 50 50 50h51q50 0 50 -50v-232h104v-148
h-117q-29 -119 -114 -183zM324 488q0 46 45 46h64q45 0 45 -46v-64q0 -45 -45 -45h-64q-45 0 -45 45v64z" />
    <glyph glyph-name="uniFEE8" unicode="&#x646;" horiz-adv-x="430" arabic-form="medial" 
d="M369 154q28 -6 61 -6v-148q-82 0 -134.5 22t-80.5 66q-35 -42 -89.5 -65t-125.5 -23q-34 0 -57 22t-23 54t22 52t58 20q26 0 48.5 7.5t39.5 23t27 39.5t10 58v154q0 50 50 50h51q50 0 50 -50v-154q0 -37 12 -61.5t32 -39.5t49 -21zM120 679q0 46 45 46h64q45 0 45 -46
v-64q0 -45 -45 -45h-64q-45 0 -45 45v64z" />
    <glyph glyph-name="uniFEE7" unicode="&#x646;" horiz-adv-x="335" arabic-form="initial" 
d="M-57 22q-23 22 -23 54t22 52t58 20h75q50 0 50 50v232q0 50 50 50h51q50 0 50 -50v-232q0 -61 -8 -99.5t-30 -60.5t-61.5 -30t-101.5 -8h-75q-34 0 -57 22zM120 679q0 46 45 46h64q45 0 45 -46v-64q0 -45 -45 -45h-64q-45 0 -45 45v64z" />
    <glyph glyph-name="uniFEEA" unicode="&#x647;" horiz-adv-x="722" arabic-form="final" 
d="M597 198q0 -50 50 -50h75v-148h-75q-49 0 -83.5 5t-57.5 17t-35.5 33.5t-18.5 54.5q-58 -90 -179 -90q-43 0 -83 17.5t-70.5 49t-48.5 76.5t-18 99q0 67 25 120.5t69 91t104.5 58t130.5 20.5q16 0 31.5 -1t32.5 -3q3 46 50 46h51q50 0 50 -50v-346zM234 191
q31 -25 79 -25q56 0 91.5 38.5t41.5 107.5v93q-15 2 -29.5 3.5t-28.5 1.5q-39 0 -73 -10t-59 -28.5t-39.5 -45.5t-14.5 -62q0 -49 32 -73z" />
    <glyph glyph-name="uniFEEC" unicode="&#x647;" horiz-adv-x="898" arabic-form="medial" 
d="M744 273q1 -36 13 -60.5t32.5 -38.5t48 -20t60.5 -6v-148q-88 0 -142 25.5t-80 74.5q-41 -48 -101 -74t-138 -26h-437q-31 0 -53.5 22.5t-22.5 53.5q0 30 21 50t53 22h55q-8 32 -8 61q0 41 14 79.5t41.5 69.5t69 49.5t95.5 18.5q55 0 96 -18t68.5 -48t41.5 -68.5
t14 -78.5v-60q110 24 110 162q0 44 -21.5 81.5t-60.5 66t-92.5 44.5t-118.5 16q-40 0 -83.5 -7t-89.5 -22q-6 -2 -11 -3t-10 -1q-32 0 -44 35l-16 46q-2 5 -3 10.5t-1 10.5q0 32 36 42q61 20 118 28.5t111 8.5q97 0 177.5 -27t138 -75t89.5 -113t32 -141q0 -11 -0.5 -21
t-1.5 -21zM336 210q0 25 -19 46.5t-54 21.5t-52 -20t-17 -45q0 -24 17.5 -44.5t53.5 -20.5h71v62z" />
    <glyph glyph-name="uniFEEB" unicode="&#x647;" horiz-adv-x="799" arabic-form="initial" 
d="M746 198q0 -61 -8 -99.5t-30 -60.5t-61.5 -30t-101.5 -8h-545q-31 0 -53.5 22.5t-22.5 53.5q0 30 21 50t53 22h55q-8 32 -8 61q0 41 14 79.5t41.5 69.5t69 49.5t95.5 18.5q55 0 96 -18t68.5 -48t41.5 -68.5t14 -78.5v-65h60q50 0 50 50v77q0 59 -21.5 105t-60.5 77.5
t-92.5 48.5t-118.5 17q-40 0 -83.5 -7t-89.5 -22q-6 -2 -11 -3t-10 -1q-32 0 -44 35l-16 46q-2 5 -3 10.5t-1 10.5q0 32 36 42q61 20 118 28.5t111 8.5q97 0 177.5 -27.5t138 -79t89.5 -124t32 -162.5v-80zM336 210q0 25 -19 46.5t-54 21.5t-52 -20t-17 -45
q0 -24 17.5 -44.5t53.5 -20.5h71v62z" />
    <glyph glyph-name="uniFE94" unicode="&#x629;" horiz-adv-x="722" arabic-form="final" 
d="M722 0h-75q-49 0 -83.5 5t-57.5 17t-35.5 33.5t-18.5 54.5q-58 -90 -179 -90q-43 0 -83 17.5t-70.5 49t-48.5 76.5t-18 99q0 67 25 120.5t69 91t104.5 58t130.5 20.5q16 0 31.5 -1t32.5 -3q3 46 50 46h51q50 0 50 -50v-346q0 -50 50 -50h75v-148zM446 405
q-15 2 -29.5 3.5t-28.5 1.5q-39 0 -73 -10t-59 -28.5t-39.5 -45.5t-14.5 -62q0 -49 31.5 -73.5t79.5 -24.5q56 0 91.5 38.5t41.5 107.5v93zM192 761q0 46 45 46h64q45 0 45 -46v-64q0 -45 -45 -45h-64q-45 0 -45 45v64zM500 807q45 0 45 -46v-64q0 -45 -45 -45h-64
q-45 0 -45 45v64q0 46 45 46h64z" />
    <glyph glyph-name="uniFEEE" unicode="&#x648;" horiz-adv-x="696" arabic-form="final" 
d="M498 -185q-75 -62 -205 -62q-41 0 -89 6q-46 6 -46 53v47q0 28 14 37.5t39 9.5q33 -3 60 -3q69 0 109.5 23t55.5 74h-42q-93 0 -158 23t-105.5 61t-59 86t-18.5 99q0 52 19 101.5t60 88.5t106 63t158 24q62 0 100.5 -8t60.5 -30t30 -61.5t8 -101.5v-197h101v-148h-106
q-18 -122 -92 -185zM209 226q9 -22 31.5 -39.5t60.5 -28t95 -10.5h50v227q0 20 -20 20h-32q-56 0 -93.5 -10.5t-60 -28t-32 -40t-9.5 -45.5t10 -45z" />
    <glyph glyph-name="uniFE86" unicode="&#x624;" horiz-adv-x="696" arabic-form="final" 
d="M394 0q-93 0 -158 23t-105.5 61t-59 86t-18.5 99q0 52 19 101.5t60 88.5t106 63t158 24q62 0 100.5 -8t60.5 -30t30 -61.5t8 -101.5v-197h101v-148h-106q-18 -122 -92.5 -184.5t-204.5 -62.5q-41 0 -89 6q-46 6 -46 53v47q0 28 14 37.5t39 9.5q33 -3 60 -3q69 0 109.5 23
t55.5 74h-42zM394 395q-56 0 -93.5 -10.5t-60 -28t-32 -40t-9.5 -45.5t9.5 -45t32 -39.5t60.5 -28t95 -10.5h50v227q0 20 -20 20h-32zM362 769q-6 0 -9 1q-16 6 -31 6q-22 0 -35 -13t-13 -33q0 -23 16 -36t39 -13h60q20 0 20 -20v-23q0 -20 -20 -20h-168q-20 0 -20 20v23
q0 20 20 20h3q-23 21 -23 59q0 23 9.5 42t25.5 33t37 21.5t45 7.5q6 0 18 -1.5t24 -4.5t20.5 -9t8.5 -15q0 -2 -2 -8l-8 -24q-4 -13 -17 -13z" />
    <glyph glyph-name="uniFEF0" unicode="&#x649;" horiz-adv-x="885" arabic-form="final" 
d="M714 -96q9 20 9 50q0 23 -13.5 42.5t-61.5 32.5q-7 2 -15.5 4t-21 5t-29.5 6.5t-42 9.5q-44 11 -44 46q0 4 2 14l9 40q9 40 45 40q4 0 7.5 -0.5t8.5 -1.5q62 -13 105.5 -21.5t78.5 -13.5t66 -7t67 -2v-148h-15q4 -20 4 -46q0 -128 -89.5 -188.5t-277.5 -60.5h-59
q-81 0 -152.5 18.5t-125 58.5t-85 102t-31.5 148q0 30 4 63.5t13 70.5q10 43 56 43h41q45 0 45 -41v-6q0 -4 -1 -8q-10 -47 -10 -91q0 -101 58.5 -156t187.5 -55h59q65 0 106.5 5t66 16.5t34.5 30.5z" />
    <glyph glyph-name="uniFEF2" unicode="&#x64a;" horiz-adv-x="885" arabic-form="final" 
d="M714 -96q9 20 9 50q0 23 -13.5 42.5t-61.5 32.5q-7 2 -15.5 4t-21 5t-29.5 6.5t-42 9.5q-44 11 -44 46q0 4 2 14l9 40q9 40 45 40q4 0 7.5 -0.5t8.5 -1.5q62 -13 105.5 -21.5t78.5 -13.5t66 -7t67 -2v-148h-15q4 -20 4 -46q0 -128 -89.5 -188.5t-277.5 -60.5h-59
q-81 0 -152.5 18.5t-125 58.5t-85 102t-31.5 148q0 30 4 63.5t13 70.5q10 43 56 43h41q45 0 45 -41v-6q0 -4 -1 -8q-10 -47 -10 -91q0 -101 58.5 -156t187.5 -55h59q65 0 106.5 5t66 16.5t34.5 30.5zM402 -368q45 0 45 -46v-64q0 -45 -45 -45h-64q-45 0 -45 45v64
q0 46 45 46h64zM537 -523q-45 0 -45 45v64q0 46 45 46h64q45 0 45 -46v-64q0 -45 -45 -45h-64z" />
    <glyph glyph-name="uniFEF4" unicode="&#x64a;" horiz-adv-x="430" arabic-form="medial" 
d="M369 154q28 -6 61 -6v-148q-82 0 -134.5 22t-80.5 66q-35 -42 -89.5 -65t-125.5 -23q-34 0 -57 22t-23 54t22 52t58 20q26 0 48.5 7.5t39.5 23t27 39.5t10 58v154q0 50 50 50h51q50 0 50 -50v-154q0 -37 12 -61.5t32 -39.5t49 -21zM376 -214q0 -45 -45 -45h-64
q-45 0 -45 45v64q0 46 45 46h64q45 0 45 -46v-64zM23 -150q0 46 45 46h64q45 0 45 -46v-64q0 -45 -45 -45h-64q-45 0 -45 45v64z" />
    <glyph glyph-name="uniFEF3" unicode="&#x64a;" horiz-adv-x="395" arabic-form="initial" 
d="M268 99q-8 -39 -30 -61t-61.5 -30t-101.5 -8h-75q-34 0 -57 22t-23 54t22 52t58 20h75q50 0 50 50v232q0 50 50 50h51q50 0 50 -50v-232q0 -61 -8 -99zM375 -213q0 -45 -45 -45h-64q-45 0 -45 45v64q0 46 45 46h64q45 0 45 -46v-64zM22 -149q0 46 45 46h64q45 0 45 -46
v-64q0 -45 -45 -45h-64q-45 0 -45 45v64z" />
    <glyph glyph-name="uniFE8A" unicode="&#x626;" horiz-adv-x="885" arabic-form="final" 
d="M507 -148q65 0 106.5 5t66 16.5t34 31t9.5 49.5q0 23 -13.5 42.5t-61.5 32.5q-7 2 -15.5 4t-21 5t-29.5 6.5t-42 9.5q-44 11 -44 46q0 4 2 14l9 40q9 40 45 40q4 0 7.5 -0.5t8.5 -1.5q62 -13 105.5 -21.5t78.5 -13.5t66 -7t67 -2v-148h-15q4 -20 4 -46
q0 -128 -89.5 -188.5t-277.5 -60.5h-59q-81 0 -152.5 18.5t-125 58.5t-85 102t-31.5 148q0 30 4 63.5t13 70.5q10 43 56 43h41q45 0 45 -41v-6q0 -4 -1 -8q-10 -47 -10 -91q0 -101 58.5 -156t187.5 -55h59zM132 547q21 7 45 7q6 0 18 -1.5t24 -4.5t20.5 -9t8.5 -15
q0 -2 -2 -8l-8 -24q-4 -13 -17 -13q-6 0 -9 1q-16 6 -31 6q-22 0 -35 -13t-13 -33q0 -23 16 -36t39 -13h60q20 0 20 -20v-23q0 -20 -20 -20h-168q-20 0 -20 20v23q0 20 20 20h3q-23 21 -23 59q0 23 9.5 42t25.5 33t37 22z" />
    <glyph glyph-name="uniFE8C" unicode="&#x626;" horiz-adv-x="430" arabic-form="medial" 
d="M430 0q-82 0 -134.5 22t-80.5 66q-35 -42 -89.5 -65t-125.5 -23q-34 0 -57 22t-23 54t22 52t58 20q26 0 48.5 7.5t39.5 23t27 39.5t10 58v154q0 50 50 50h51q50 0 50 -50v-154q0 -37 12 -61.5t32 -39.5t48.5 -21t61.5 -6v-148zM107 613q-23 21 -23 59q0 23 9.5 42
t25.5 33t37 21.5t45 7.5q6 0 18 -1.5t24 -4.5t20.5 -9t8.5 -15q0 -2 -2 -8l-8 -24q-4 -13 -17 -13q-6 0 -9 1q-16 6 -31 6q-22 0 -35 -13t-13 -33q0 -23 16 -36t39 -13h60q20 0 20 -20v-23q0 -20 -20 -20h-168q-20 0 -20 20v23q0 20 20 20h3z" />
    <glyph glyph-name="uniFE8B" unicode="&#x626;" horiz-adv-x="312" arabic-form="initial" 
d="M238 38q-22 -22 -61.5 -30t-101.5 -8h-75q-34 0 -57 22t-23 54t22 52t58 20h75q50 0 50 50v232q0 50 50 50h51q50 0 50 -50v-232q0 -61 -8 -99.5t-30 -60.5zM264 761q8 -6 8 -15q0 -2 -2 -8l-8 -24q-4 -13 -17 -13q-6 0 -9 1q-16 6 -31 6q-22 0 -35 -13t-13 -33
q0 -23 16 -36t39 -13h60q20 0 20 -20v-23q0 -20 -20 -20h-168q-20 0 -20 20v23q0 20 20 20h3q-23 21 -23 59q0 23 9.5 42t25.5 33t37 21.5t45 7.5q6 0 18 -1.5t24 -4.5t21 -9z" />
    <glyph glyph-name=".notdef" horiz-adv-x="500" 
d="M0 -200v1000h500v-1000h-500zM429 -150l-179 390l-179 -390h358zM250 360l179 390h-358zM222 300l-172 376v-752zM450 676l-172 -376l172 -376v752z" />
    <glyph glyph-name="uni0000" 
 />
    <glyph glyph-name="uni0000" 
 />
    <glyph glyph-name="uni000D" horiz-adv-x="250" 
 />
    <glyph glyph-name="space" unicode=" " horiz-adv-x="200" 
 />
    <glyph glyph-name="uni0000" 
 />
    <glyph glyph-name="uni000D" unicode="&#xd;" horiz-adv-x="250" 
 />
    <glyph glyph-name="uni0621" unicode="&#x621;" horiz-adv-x="596" 
d="M392 336q-10 0 -22 3q-25 7 -52 7q-54 0 -91.5 -31t-37.5 -88q0 -27 10 -45t26.5 -29t39 -15.5t46.5 -4.5h6q3 0 11 1q42 5 82.5 6t82.5 1q49 -3 49 -52v-35q0 -49 -48 -49q-42 0 -81.5 -2.5t-79.5 -9.5t-82.5 -18t-91.5 -27q-11 -4 -22 -4q-29 0 -42 36l-10 33
q-3 11 -3 20q0 31 33 44l22 9q-84 46 -84 160q0 56 22 100.5t58.5 76t85 48t102.5 16.5q14 0 36.5 -2.5t44.5 -9t38 -18.5t16 -31q0 -12 -6 -26l-15 -34q-14 -30 -43 -30z" />
    <glyph glyph-name="uni0627" unicode="&#x627;" horiz-adv-x="257" 
d="M53 684q0 50 50 50h51q50 0 50 -50v-634q0 -50 -50 -50h-51q-50 0 -50 50v634z" />
    <glyph glyph-name="uni0623" unicode="&#x623;" horiz-adv-x="261" 
d="M206 50q0 -50 -50 -50h-51q-50 0 -50 50v574q0 50 50 50h51q50 0 50 -50v-574zM186 905q-6 0 -9 1q-16 6 -31 6q-22 0 -35 -13t-13 -33q0 -23 16 -36t39 -13h60q20 0 20 -20v-23q0 -20 -20 -20h-168q-20 0 -20 20v23q0 20 20 20h3q-23 21 -23 59q0 23 9.5 42t25.5 33
t37 21.5t45 7.5q6 0 18 -1.5t24 -4.5t20.5 -9t8.5 -15q0 -2 -2 -8l-8 -24q-4 -13 -17 -13z" />
    <glyph glyph-name="uni0625" unicode="&#x625;" horiz-adv-x="257" 
d="M204 50q0 -50 -50 -50h-51q-50 0 -50 50v634q0 50 50 50h51q50 0 50 -50v-634zM189 -162q-6 0 -9 1q-16 6 -31 6q-22 0 -35 -13t-13 -33q0 -23 16 -36t39 -13h60q20 0 20 -20v-23q0 -20 -20 -20h-168q-20 0 -20 20v23q0 20 20 20h3q-23 21 -23 59q0 23 9.5 42t25.5 33
t37 21.5t45 7.5q6 0 18 -1.5t24 -4.5t20.5 -9t8.5 -15q0 -2 -2 -8l-8 -24q-4 -13 -17 -13z" />
    <glyph glyph-name="uni0622" unicode="&#x622;" horiz-adv-x="268" 
d="M154 734q50 0 50 -50v-634q0 -50 -50 -50h-51q-50 0 -50 50v634q0 50 50 50h51zM278 967q6 0 10.5 -4.5t4.5 -10.5v-18q0 -46 -23.5 -72.5t-64.5 -26.5q-34 0 -58 14t-41 25t-27 18.5t-19 7.5q-12 0 -16 -10t-4 -23v-17q0 -6 -4.5 -10.5t-10.5 -4.5h-35q-6 0 -10.5 4.5
t-4.5 10.5v17q0 45 21.5 71t59.5 26q29 0 49 -13t37 -25t31 -19t32 -7q13 0 18.5 7t5.5 27v18q0 6 4.5 10.5t10.5 4.5h34z" />
    <glyph glyph-name="uni066E" unicode="&#x66e;" horiz-adv-x="998" 
d="M70 389q12 41 56 41h41q45 0 45 -40q0 -9 -1 -14q-6 -28 -6 -55q0 -55 12.5 -89t37.5 -52.5t62 -25t86 -6.5h341q50 0 50 50v232q0 50 50 50h51q50 0 50 -50v-232q0 -61 -8 -99.5t-30 -60.5t-61.5 -30t-101.5 -8h-341q-69 0 -132 14.5t-111 49t-76 91t-28 140.5
q0 41 14 94z" />
    <glyph glyph-name="uni0628" unicode="&#x628;" horiz-adv-x="998" 
d="M794 430q0 50 50 50h51q50 0 50 -50v-232q0 -61 -8 -99.5t-30 -60.5t-61.5 -30t-101.5 -8h-341q-69 0 -132 14.5t-111 49t-76 91t-28 140.5q0 41 14 94q12 41 56 41h41q45 0 45 -40q0 -9 -1 -14q-6 -28 -6 -55q0 -55 12.5 -89t37.5 -52.5t62 -25t86 -6.5h341q50 0 50 50
v232zM422 -150q0 46 45 46h64q45 0 45 -46v-64q0 -45 -45 -45h-64q-45 0 -45 45v64z" />
    <glyph glyph-name="uni067E" unicode="&#x67e;" horiz-adv-x="998" 
d="M937 99q-8 -39 -30 -61t-61.5 -30t-101.5 -8h-341q-69 0 -132 14.5t-111 49t-76 91t-28 140.5q0 41 14 94q12 41 56 41h41q45 0 45 -40q0 -9 -1 -14q-6 -28 -6 -55q0 -55 12.5 -89t37.5 -52.5t62 -25t86 -6.5h341q50 0 50 50v232q0 50 50 50h51q50 0 50 -50v-232
q0 -61 -8 -99zM467 -415q-45 0 -45 46v64q0 45 45 45h64q45 0 45 -45v-64q0 -46 -45 -46h-64zM323 -135q0 45 45 45h64q45 0 45 -45v-64q0 -46 -45 -46h-64q-45 0 -45 46v64zM567 -245q-45 0 -45 46v64q0 45 45 45h64q45 0 45 -45v-64q0 -46 -45 -46h-64z" />
    <glyph glyph-name="uni062A" unicode="&#x62a;" horiz-adv-x="998" 
d="M403 0q-69 0 -132 14.5t-111 49t-76 91t-28 140.5q0 41 14 94q12 41 56 41h41q45 0 45 -40q0 -9 -1 -14q-6 -28 -6 -55q0 -55 12.5 -89t37.5 -52.5t62 -25t86 -6.5h341q50 0 50 50v232q0 50 50 50h51q50 0 50 -50v-232q0 -61 -8 -99.5t-30 -60.5t-61.5 -30t-101.5 -8
h-341zM432 705q45 0 45 -46v-64q0 -45 -45 -45h-64q-45 0 -45 45v64q0 46 45 46h64zM631 705q45 0 45 -46v-64q0 -45 -45 -45h-64q-45 0 -45 45v64q0 46 45 46h64z" />
    <glyph glyph-name="uni062B" unicode="&#x62b;" horiz-adv-x="998" 
d="M937 99q-8 -39 -30 -61t-61.5 -30t-101.5 -8h-341q-69 0 -132 14.5t-111 49t-76 91t-28 140.5q0 41 14 94q12 41 56 41h41q45 0 45 -40q0 -9 -1 -14q-6 -28 -6 -55q0 -55 12.5 -89t37.5 -52.5t62 -25t86 -6.5h341q50 0 50 50v232q0 50 50 50h51q50 0 50 -50v-232
q0 -61 -8 -99zM467 719q-45 0 -45 45v64q0 46 45 46h64q45 0 45 -46v-64q0 -45 -45 -45h-64zM567 549q-45 0 -45 45v64q0 46 45 46h64q45 0 45 -46v-64q0 -45 -45 -45h-64zM323 658q0 46 45 46h64q45 0 45 -46v-64q0 -45 -45 -45h-64q-45 0 -45 45v64z" />
    <glyph glyph-name="uni062C" unicode="&#x62c;" horiz-adv-x="829" 
d="M776 50q0 -50 -50 -50h-350q-83 0 -117.5 -26t-34.5 -72t34.5 -72.5t117.5 -26.5q50 0 50 -50v-47q0 -50 -50 -50q-146 0 -224.5 64t-78.5 182t78.5 182t224.5 64h170q-4 28 -10 58t-16.5 58t-26.5 52.5t-41 41.5q-37 26 -81.5 37t-90.5 11q-16 0 -31 -1.5t-30 -3.5
q-5 -1 -13 -1q-40 0 -44 42l-5 40q0 3 -0.5 5.5t-0.5 5.5q0 40 41 46q24 5 50 7.5t52 2.5q60 0 121.5 -15.5t118.5 -53.5q61 -41 97.5 -111t55.5 -176q4 -20 12 -32.5t22 -12.5h8q1 0 1 -1h2q18 -2 28.5 -14.5t10.5 -32.5v-50zM628 -105q45 0 45 -46v-64q0 -45 -45 -45h-64
q-45 0 -45 45v64q0 46 45 46h64z" />
    <glyph glyph-name="uni0686" unicode="&#x686;" horiz-adv-x="829" 
d="M259 -171q34 -26 117 -26h2q50 0 50 -50v-47q0 -50 -50 -50h-2q-146 0 -224.5 64t-78.5 182t78.5 182t224.5 64h170q-4 28 -10 58t-16.5 58t-26.5 52.5t-41 41.5q-37 26 -81.5 37t-90.5 11q-16 0 -31 -1.5t-30 -3.5q-5 -1 -13 -1q-40 0 -44 42l-5 40q0 3 -0.5 5.5
t-0.5 5.5q0 40 41 46q24 5 50 7.5t52 2.5q60 0 121.5 -15.5t118.5 -53.5q61 -41 97.5 -111t55.5 -176q4 -20 12 -32.5t22 -12.5h8q1 0 1 -1h2q18 -2 28.5 -14.5t10.5 -32.5v-50q0 -50 -50 -50h-350q-83 0 -117.5 -26t-34.5 -72t35 -73zM706 -87q37 0 37 -37v-53
q0 -38 -37 -38h-53q-37 0 -37 38v53q0 37 37 37h53zM661 -317q0 -38 -37 -38h-53q-37 0 -37 38v53q0 37 37 37h53q37 0 37 -37v-53zM579 -177q0 -38 -37 -38h-53q-37 0 -37 38v53q0 37 37 37h53q37 0 37 -37v-53z" />
    <glyph glyph-name="uni062D" unicode="&#x62d;" horiz-adv-x="829" 
d="M536 206q-6 30 -16.5 58t-26.5 52.5t-41 41.5q-37 26 -81.5 37t-90.5 11q-16 0 -31 -1.5t-30 -3.5q-5 -1 -13 -1q-40 0 -44 42l-5 40q0 3 -0.5 5.5t-0.5 5.5q0 40 41 46q24 5 50 7.5t52 2.5q60 0 121.5 -15.5t118.5 -53.5q61 -41 97.5 -111t55.5 -176q4 -20 12 -32.5
t22 -12.5h8q1 0 1 -1h2q18 -2 28.5 -14.5t10.5 -32.5v-50q0 -50 -50 -50h-350q-83 0 -117.5 -26t-34.5 -72t34.5 -72.5t117.5 -26.5h91q50 0 50 -50v-47q0 -50 -50 -50h-91q-146 0 -224.5 64t-78.5 182t78.5 182t224.5 64h170q-4 28 -10 58z" />
    <glyph glyph-name="uni062E" unicode="&#x62e;" horiz-adv-x="829" 
d="M737 147q18 -2 28.5 -14.5t10.5 -32.5v-50q0 -50 -50 -50h-350q-83 0 -117.5 -26t-34.5 -72t34.5 -72.5t117.5 -26.5h91q50 0 50 -50v-47q0 -50 -50 -50h-91q-146 0 -224.5 64t-78.5 182t78.5 182t224.5 64h170q-4 28 -10 58t-16.5 58t-26.5 52.5t-41 41.5
q-37 26 -81.5 37t-90.5 11q-16 0 -31 -1.5t-30 -3.5q-5 -1 -13 -1q-40 0 -44 42l-5 40q0 3 -0.5 5.5t-0.5 5.5q0 40 41 46q24 5 50 7.5t52 2.5q60 0 121.5 -15.5t118.5 -53.5q61 -41 97.5 -111t55.5 -176q4 -20 12 -32.5t22 -12.5h8q1 0 1 -1h2zM492 663q0 -45 -45 -45h-64
q-45 0 -45 45v64q0 46 45 46h64q45 0 45 -46v-64z" />
    <glyph glyph-name="uni062F" unicode="&#x62f;" horiz-adv-x="612" 
d="M53 98q0 50 50 50h255q50 0 50 50v7q0 54 -13 91t-40 59.5t-70 32.5t-103 10h-23q-50 0 -50 50v51q0 50 50 50h25q86 0 155 -21.5t118 -64.5t75.5 -107.5t26.5 -150.5v-7q0 -61 -8 -99.5t-30 -60.5t-61.5 -30t-101.5 -8h-255q-50 0 -50 50v48z" />
    <glyph glyph-name="uni0630" unicode="&#x630;" horiz-adv-x="612" 
d="M533 356q26 -65 26 -151v-7q0 -61 -8 -99.5t-30 -60.5t-61.5 -30t-101.5 -8h-255q-50 0 -50 50v48q0 50 50 50h255q50 0 50 50v7q0 54 -13 91t-40 59.5t-70 32.5t-103 10h-23q-50 0 -50 50v51q0 50 50 50h25q86 0 155 -21.5t118 -64.5t76 -107zM348 773q45 0 45 -46v-64
q0 -45 -45 -45h-64q-45 0 -45 45v64q0 46 45 46h64z" />
    <glyph glyph-name="uni0631" unicode="&#x631;" horiz-adv-x="364" 
d="M72 -74q3 0 7 -1q6 -1 11.5 -1.5t10.5 -0.5q29 0 44 17t15 60v430q0 50 50 50h51q50 0 50 -50v-430q0 -109 -48.5 -163t-136.5 -54q-36 0 -78 9q-40 9 -40 45q0 4 0.5 7.5t1.5 8.5l8 34q9 39 47 39h7z" />
    <glyph glyph-name="uni0632" unicode="&#x632;" horiz-adv-x="374" 
d="M18 -113q9 39 47 39h7q3 0 7 -1q6 -1 11.5 -1.5t10.5 -0.5q29 0 44 17t15 60v430q0 50 50 50h51q50 0 50 -50v-430q0 -109 -48.5 -163t-136.5 -54q-36 0 -78 9q-40 9 -40 45q0 4 0.5 7.5t1.5 8.5zM313 613q0 -45 -45 -45h-64q-45 0 -45 45v64q0 46 45 46h64q45 0 45 -46
v-64z" />
    <glyph glyph-name="uni0633" unicode="&#x633;" horiz-adv-x="1463" 
d="M1080 276q0 -128 104 -128h25q50 0 50 50v301q0 50 50 50h51q50 0 50 -50v-301q0 -61 -8 -99.5t-30 -60.5t-61 -30t-101 -8h-26q-60 0 -99.5 20.5t-62.5 60.5q-30 -39 -72.5 -60t-95.5 -21h-117q-29 -120 -114 -183.5t-221 -63.5q-67 0 -130 18t-112 56t-78 98.5
t-29 146.5q0 67 19 144q10 43 56 43h40q46 0 46 -40q0 -5 -2 -15q-12 -58 -12 -107q0 -45 11 -81.5t35.5 -62t63 -39.5t92.5 -14q102 0 149.5 53.5t47.5 168.5v344q0 50 50 50h51q50 0 50 -50v-318h84q48 0 71.5 29.5t23.5 98.5v190q0 50 50 50h51q50 0 50 -50v-190z" />
    <glyph glyph-name="uni0634" unicode="&#x634;" horiz-adv-x="1463" 
d="M929 466q0 50 50 50h51q50 0 50 -50v-190q0 -128 104 -128h25q50 0 50 50v301q0 50 50 50h51q50 0 50 -50v-301q0 -61 -8 -99.5t-30 -60.5t-61 -30t-101 -8h-26q-60 0 -99.5 20.5t-62.5 60.5q-30 -39 -72.5 -60t-95.5 -21h-117q-29 -120 -114 -183.5t-221 -63.5
q-67 0 -130 18t-112 56t-78 98.5t-29 146.5q0 67 19 144q10 43 56 43h40q46 0 46 -40q0 -5 -2 -15q-12 -58 -12 -107q0 -45 11 -81.5t35.5 -62t63 -39.5t92.5 -14q102 0 149.5 53.5t47.5 168.5v344q0 50 50 50h51q50 0 50 -50v-318h84q48 0 71.5 29.5t23.5 98.5v190z
M1076 728q0 46 45 46h64q45 0 45 -46v-64q0 -45 -45 -45h-64q-45 0 -45 45v64zM926 893q0 46 45 46h64q45 0 45 -46v-64q0 -45 -45 -45h-64q-45 0 -45 45v64zM931 664q0 -45 -45 -45h-64q-45 0 -45 45v64q0 46 45 46h64q45 0 45 -46v-64z" />
    <glyph glyph-name="uni0635" unicode="&#x635;" horiz-adv-x="1429" 
d="M1278 461q46 -42 72 -99.5t26 -125.5v-38q0 -61 -8 -99.5t-30 -60.5t-61.5 -30t-101.5 -8h-438q-29 -120 -114 -183.5t-221 -63.5q-67 0 -130 18t-112 56t-78 98.5t-29 146.5q0 67 19 144q10 43 56 43h40q46 0 46 -40q0 -5 -2 -15q-12 -58 -12 -107q0 -45 11 -81.5
t35.5 -62t63 -39.5t92.5 -14q102 0 149.5 53.5t47.5 168.5v376q0 50 50 50h51q50 0 50 -50v-97q85 147 289 147q71 0 132 -23t107 -64zM1225 236q0 75 -49 118t-137 43q-58 0 -110.5 -18.5t-92 -51.5t-63 -78.5t-23.5 -100.5h425q50 0 50 50v38z" />
    <glyph glyph-name="uni0636" unicode="&#x636;" horiz-adv-x="1429" 
d="M1376 198q0 -61 -8 -99.5t-30 -60.5t-61.5 -30t-101.5 -8h-438q-29 -120 -114 -183.5t-221 -63.5q-67 0 -130 18t-112 56t-78 98.5t-29 146.5q0 67 19 144q10 43 56 43h40q46 0 46 -40q0 -5 -2 -15q-12 -58 -12 -107q0 -45 11 -81.5t35.5 -62t63 -39.5t92.5 -14
q102 0 149.5 53.5t47.5 168.5v376q0 50 50 50h51q50 0 50 -50v-97q85 147 289 147q71 0 132 -23t107 -64.5t72 -99t26 -125.5v-38zM929 379q-53 -19 -92.5 -52t-63 -78.5t-23.5 -100.5h425q50 0 50 50v38q0 75 -49 118t-137 43q-58 0 -110 -18zM963 632q-45 0 -45 45v64
q0 46 45 46h64q45 0 45 -46v-64q0 -45 -45 -45h-64z" />
    <glyph glyph-name="uni0637" unicode="&#x637;" horiz-adv-x="1013" 
d="M960 198q0 -61 -8 -99.5t-30 -60.5t-61.5 -30t-101.5 -8h-656q-50 0 -50 50v48q0 50 50 50h82v536q0 50 50 50h50q50 0 50 -50v-283q85 147 288 147q71 0 132 -23t107 -63.5t72 -95.5t26 -120v-48zM759 148q50 0 50 50v48q0 69 -49.5 110t-136.5 41q-55 0 -106.5 -17
t-91.5 -48.5t-64.5 -76t-26.5 -99.5v-8h425z" />
    <glyph glyph-name="uni0638" unicode="&#x638;" horiz-adv-x="1013" 
d="M861 8q-40 -8 -102 -8h-656q-50 0 -50 50v48q0 50 50 50h82v536q0 50 50 50h50q50 0 50 -50v-283q85 147 288 147q71 0 132 -23t107 -63.5t72 -95.5t26 -120v-48q0 -61 -8 -99.5t-30 -60.5t-61 -30zM759 148q50 0 50 50v48q0 69 -49.5 110t-136.5 41q-55 0 -106.5 -17
t-91.5 -48.5t-64.5 -76t-26.5 -99.5v-8h425zM609 787q45 0 45 -46v-64q0 -45 -45 -45h-64q-45 0 -45 45v64q0 46 45 46h64z" />
    <glyph glyph-name="uni0639" unicode="&#x639;" horiz-adv-x="733" 
d="M680 50q0 -50 -50 -50h-274q-85 0 -118.5 -25.5t-33.5 -72.5q0 -46 34.5 -72.5t117.5 -26.5h91q50 0 50 -50v-47q0 -50 -50 -50h-91q-146 0 -224.5 64t-78.5 182q0 85 41 142t119 83q-80 47 -80 148q0 62 24 112.5t66.5 86.5t100 55.5t123.5 19.5q36 0 79.5 -7.5
t91.5 -23.5q34 -12 34 -41q0 -6 -1.5 -11.5t-3.5 -12.5l-16 -42q-12 -33 -43 -33q-11 0 -22 4q-67 21 -116 21q-35 0 -65.5 -9t-53 -26.5t-35 -42t-12.5 -55.5q0 -55 39 -88.5t126 -33.5h181q50 0 50 -50v-48z" />
    <glyph glyph-name="uni063A" unicode="&#x63a;" horiz-adv-x="733" 
d="M497 -294q0 -50 -50 -50h-91q-146 0 -224.5 64t-78.5 182q0 85 41 142t119 83q-80 47 -80 148q0 62 24 112.5t66.5 86.5t100 55.5t123.5 19.5q36 0 79.5 -7.5t91.5 -23.5q34 -12 34 -41q0 -6 -1.5 -11.5t-3.5 -12.5l-16 -42q-12 -33 -43 -33q-11 0 -22 4q-67 21 -116 21
q-35 0 -65.5 -9t-53 -26.5t-35 -42t-12.5 -55.5q0 -55 39 -88.5t126 -33.5h181q50 0 50 -50v-48q0 -50 -50 -50h-274q-85 0 -118.5 -25.5t-33.5 -72.5q0 -46 34.5 -72.5t117.5 -26.5h91q50 0 50 -50v-47zM395 618q-45 0 -45 45v64q0 46 45 46h64q45 0 45 -46v-64
q0 -45 -45 -45h-64z" />
    <glyph glyph-name="uni0641" unicode="&#x641;" horiz-adv-x="1148" 
d="M997 8q-39 -8 -102 -8h-18q-8 0 -16 1l-3 -1h-456q-67 0 -130 12t-112 43.5t-78 86t-29 140.5q0 47 17 107q12 41 56 41h41q45 0 45 -40q0 -9 -1 -14q-6 -28 -6 -55q0 -55 12.5 -89t37.5 -52.5t61.5 -25t85.5 -6.5h174q-15 29 -22 60t-7 63q0 52 18.5 102t59.5 89t107 63
t160 24h3q63 0 102 -8t61.5 -30.5t30.5 -62t8 -102.5v-148q0 -61 -8 -99.5t-30.5 -60.5t-61.5 -30zM945 378q0 20 -20 20h-35q-57 0 -94 -11t-59.5 -28.5t-31.5 -40t-9 -46.5q0 -23 9 -45.5t31.5 -40t60 -28t95.5 -10.5h33q20 0 20 20v210zM853 773q45 0 45 -46v-64
q0 -45 -45 -45h-64q-45 0 -45 45v64q0 46 45 46h64z" />
    <glyph glyph-name="uni06A4" unicode="&#x6a4;" horiz-adv-x="1148" 
d="M218 232q12 -34 37 -52.5t61.5 -25t85.5 -6.5h174q-15 29 -22 60t-7 63q0 52 18.5 102t59.5 89t107 63t160 24h3q63 0 102 -8t61.5 -30.5t30.5 -62t8 -102.5v-148q0 -61 -8 -99.5t-30.5 -60.5t-61.5 -30t-102 -8h-18q-8 0 -16 1l-3 -1h-456q-67 0 -130 12t-112 43.5
t-78 86t-29 140.5q0 47 17 107q12 41 56 41h41q45 0 45 -40q0 -9 -1 -14q-6 -28 -6 -55q0 -55 13 -89zM890 398q-57 0 -94 -11t-59.5 -28.5t-31.5 -40t-9 -46.5q0 -23 9 -45.5t31.5 -40t60 -28t95.5 -10.5h33q20 0 20 20v210q0 20 -20 20h-35zM886 620q-45 0 -45 45v64
q0 46 45 46h64q45 0 45 -46v-64q0 -45 -45 -45h-64zM796 665q0 -45 -45 -45h-64q-45 0 -45 45v64q0 46 45 46h64q45 0 45 -46v-64zM786 790q-45 0 -45 45v64q0 46 45 46h64q45 0 45 -46v-64q0 -45 -45 -45h-64z" />
    <glyph glyph-name="uni06A1" unicode="&#x6a1;" horiz-adv-x="1148" 
d="M402 0q-67 0 -130 12t-112 43.5t-78 86t-29 140.5q0 47 17 107q12 41 56 41h41q45 0 45 -40q0 -9 -1 -14q-6 -28 -6 -55q0 -55 12.5 -89t37.5 -52.5t61.5 -25t85.5 -6.5h174q-15 29 -22 60t-7 63q0 52 18.5 102t59.5 89t107 63t160 24h3q63 0 102 -8t61.5 -30.5t30.5 -62
t8 -102.5v-148q0 -61 -8 -99.5t-30.5 -60.5t-61.5 -30t-102 -8h-18q-8 0 -16 1l-3 -1h-456zM890 398q-57 0 -94 -11t-59.5 -28.5t-31.5 -40t-9 -46.5q0 -23 9 -45.5t31.5 -40t60 -28t95.5 -10.5h33q20 0 20 20v210q0 20 -20 20h-35z" />
    <glyph glyph-name="uni0642" unicode="&#x642;" horiz-adv-x="912" 
d="M329 162q-15 46 -15 95q0 53 19 105t60 93t107 66t160 25q62 0 100.5 -8t60.5 -30t30 -61.5t8 -101.5v-295q0 -171 -102 -259t-296 -88q-84 0 -157.5 19.5t-129 59.5t-87.5 101t-32 145q0 20 2 42t6 45q9 44 55 44h42q51 0 46 -49q-3 -25 -3 -49q0 -106 64 -156.5
t194 -50.5q68 0 115 10.5t77 33.5t43.5 60.5t13.5 91.5v31q-29 -39 -70 -60t-92 -21q-57 0 -100.5 21.5t-73.5 57.5t-45 83zM673 190q17 19 27 44.5t10 53.5v87q0 20 -20 20h-32q-55 0 -92.5 -10.5t-59.5 -28t-31.5 -40t-9.5 -45.5t8.5 -45t24 -39.5t39 -28t53.5 -10.5
q23 0 44.5 11t38.5 31zM521 775q45 0 45 -46v-64q0 -45 -45 -45h-64q-45 0 -45 45v64q0 46 45 46h64zM720 775q45 0 45 -46v-64q0 -45 -45 -45h-64q-45 0 -45 45v64q0 46 45 46h64z" />
    <glyph glyph-name="uni0643" unicode="&#x643;" horiz-adv-x="999" 
d="M795 684q0 50 50 50h51q50 0 50 -50l-1 -486q0 -61 -8 -99.5t-30 -60.5t-61 -30t-101 -8h-343q-67 0 -130 12t-112 43.5t-78 86t-29 140.5q0 47 17 107q12 41 56 41h41q45 0 45 -40q0 -9 -1 -14q-6 -28 -6 -55q0 -55 12.5 -89t37.5 -52.5t61.5 -25t85.5 -6.5h343
q50 0 50 50v486zM573 697q16 -5 27.5 -13t11.5 -20q0 -2 -1 -5l-13 -38q-6 -17 -22 -17q-8 0 -12 1q-11 5 -22 6.5t-20 1.5q-29 0 -46 -17t-17 -44q0 -30 20.5 -47.5t52.5 -17.5h80q26 0 26 -27v-30q0 -27 -26 -27h-224q-27 0 -27 27v30q0 27 27 27h4q-31 28 -31 78
q0 31 12.5 56.5t34 44t50 28.5t59.5 10q8 0 24 -1.5t32 -5.5z" />
    <glyph glyph-name="uni0644" unicode="&#x644;" horiz-adv-x="802" 
d="M167 259q46 0 46 -40q0 -5 -2 -15q-12 -58 -12 -107q0 -45 11 -81.5t35.5 -62t63 -39t92.5 -13.5q102 0 149.5 53.5t47.5 168.5v561q0 50 50 50h51q50 0 50 -50v-561q0 -177 -90 -273t-258 -96q-67 0 -130 18t-112 56t-78 98.5t-29 145.5q0 67 19 144q12 43 56 43h40z
" />
    <glyph glyph-name="uni0645" unicode="&#x645;" horiz-adv-x="823" 
d="M694 468q36 -39 56 -92t20 -114q0 -64 -20.5 -113t-55 -82t-80.5 -50t-96 -17q-35 0 -71 8.5t-71 26.5q-3 -140 -57.5 -210.5t-168.5 -70.5q-25 0 -51 3q-23 3 -34.5 17t-11.5 37v46q0 47 33 47q2 0 4 -0.5t4 -0.5q11 -2 21.5 -3t19.5 -1q54 0 72.5 36t18.5 111v186
q0 70 19.5 128.5t55 101t86 66t112.5 23.5q59 0 109 -22t86 -61zM619 262q0 60 -31 99t-87 39q-63 0 -94 -45t-30 -123v-58q28 -18 57.5 -27t57.5 -9q26 0 49 7.5t40.5 23t27.5 39t10 54.5z" />
    <glyph glyph-name="uni0646" unicode="&#x646;" horiz-adv-x="802" 
d="M699 430q50 0 50 -50v-257q0 -177 -90 -273t-258 -96q-67 0 -130 18t-112 56t-78 98.5t-29 145.5q0 67 19 144q12 43 56 43h40q46 0 46 -40q0 -5 -2 -15q-12 -58 -12 -107q0 -45 11 -81.5t35.5 -62t63 -39t92.5 -13.5q102 0 149.5 53.5t47.5 168.5v257q0 50 50 50h51z
M433 534q45 0 45 -46v-64q0 -45 -45 -45h-64q-45 0 -45 45v64q0 46 45 46h64z" />
    <glyph glyph-name="uni0647" unicode="&#x647;" horiz-adv-x="654" 
d="M448 24q-51 -24 -120 -24t-120.5 23t-86 61t-51.5 87t-17 100q0 52 17.5 102t52 89t86 63t119.5 24t119.5 -23.5t85.5 -62t51 -88t17 -101.5q0 -51 -17 -100.5t-51 -88t-85 -61.5zM210 227q8 -23 23.5 -40.5t39.5 -28t55 -10.5t54 10.5t38.5 27.5t23 38.5t7.5 44.5
q0 24 -8 47t-23.5 41.5t-39 29.5t-54.5 11q-30 0 -53.5 -11t-39 -28.5t-23.5 -40t-8 -46.5q0 -23 8 -45z" />
    <glyph glyph-name="uni0629" unicode="&#x629;" horiz-adv-x="654" 
d="M328 549q68 0 119.5 -23.5t85.5 -62t51 -88t17 -101.5q0 -51 -17 -100.5t-51 -88t-85 -62t-120 -23.5t-120.5 23t-86 61t-51.5 87t-17 100q0 52 17.5 102t52 89t86 63t119.5 24zM420 358q-16 18 -39.5 29t-54.5 11q-30 0 -53.5 -11t-39 -28.5t-23.5 -40t-8 -46.5
q0 -23 8 -45.5t23.5 -40t39.5 -28t55 -10.5t54 10.5t38.5 27.5t23 38.5t7.5 44.5q0 24 -8 47t-23 42zM466 773q45 0 45 -46v-64q0 -45 -45 -45h-64q-45 0 -45 45v64q0 46 45 46h64zM158 727q0 46 45 46h64q45 0 45 -46v-64q0 -45 -45 -45h-64q-45 0 -45 45v64z" />
    <glyph glyph-name="uni0648" unicode="&#x648;" horiz-adv-x="651" 
d="M449 81q-29 -39 -70 -60t-92 -21q-57 0 -100.5 21.5t-73.5 57.5t-45 82.5t-15 95.5q0 53 19 105t60 93t107 66t160 25q62 0 100.5 -8t60.5 -30t30 -61.5t8 -101.5v-268q0 -160 -76.5 -242t-225.5 -82q-42 0 -90 6q-46 6 -46 54v46q0 28 14.5 37.5t39.5 9.5q32 -3 60 -3
q91 0 133 41t42 134v3zM397 395q-55 0 -92.5 -10.5t-59.5 -28t-31.5 -40t-9.5 -45.5t8.5 -45t24 -39.5t39 -28t53.5 -10.5q23 0 44.5 11t38.5 30.5t27 45t10 53.5v87q0 20 -20 20h-32z" />
    <glyph glyph-name="uni0624" unicode="&#x624;" horiz-adv-x="651" 
d="M379 21q-41 -21 -92 -21q-57 0 -100.5 21.5t-73.5 57.5t-45 82.5t-15 95.5q0 53 19 105t60 93t107 66t160 25q62 0 100.5 -8t60.5 -30t30 -61.5t8 -101.5v-268q0 -160 -76.5 -242t-225.5 -82q-42 0 -90 6q-46 6 -46 54v46q0 28 14.5 37.5t39.5 9.5q32 -3 60 -3
q91 0 133 41t42 134v3q-29 -39 -70 -60zM204 271q0 -23 8.5 -45t24 -39.5t39 -28t53.5 -10.5q23 0 44.5 11t38.5 30.5t27 45t10 53.5v87q0 20 -20 20h-32q-55 0 -92.5 -10.5t-59.5 -28t-31.5 -40t-9.5 -45.5zM392 681q20 0 20 -20v-23q0 -20 -20 -20h-168q-20 0 -20 20v23
q0 20 20 20h3q-23 21 -23 59q0 23 9.5 42t25.5 33t37 21.5t45 7.5q6 0 18 -1.5t24 -4.5t20.5 -9t8.5 -15q0 -2 -2 -8l-8 -24q-4 -13 -17 -13q-6 0 -9 1q-16 6 -31 6q-22 0 -35 -13t-13 -33q0 -23 16 -36t39 -13h60z" />
    <glyph glyph-name="uni0649" unicode="&#x649;" horiz-adv-x="944" 
d="M854 58q20 -38 20 -94q0 -54 -22.5 -94t-64.5 -66t-102.5 -38.5t-137.5 -12.5h-99q-79 0 -150 18t-124 55.5t-84.5 95t-31.5 137.5q0 24 3 50.5t10 55.5q10 43 56 43h41q46 0 46 -43v-5q0 -4 -1 -7q-6 -33 -6 -62q0 -97 59 -144t182 -47h99q44 0 77 2.5t55 9.5t33 19.5
t11 32.5q0 33 -20.5 49t-54 26t-75.5 18t-85 24q-44 17 -73 39.5t-46.5 49.5t-25 59.5t-7.5 68.5q0 54 23.5 99.5t67 79t104 52t133.5 18.5q42 0 87 -6.5t93 -20.5q37 -11 37 -43q0 -8 -3 -19l-14 -48q-10 -36 -42 -36q-5 0 -10 1t-11 3q-42 13 -80 19t-71 6
q-76 0 -119.5 -28.5t-43.5 -76.5q0 -18 6 -33t24 -28.5t52 -26t90 -27.5q35 -9 73 -23.5t69.5 -39.5t52.5 -62z" />
    <glyph glyph-name="uni064A" unicode="&#x64a;" horiz-adv-x="944" 
d="M569 211q34 -13 90 -28q35 -9 73 -23.5t69.5 -39.5t52 -62.5t20.5 -93.5q0 -54 -22.5 -94t-64.5 -66t-102.5 -38.5t-137.5 -12.5h-99q-79 0 -150 18t-124 55.5t-84.5 95t-31.5 137.5q0 24 3 50.5t10 55.5q10 43 56 43h41q46 0 46 -43v-5q0 -4 -1 -7q-6 -33 -6 -62
q0 -97 59 -144t182 -47h99q44 0 77 2.5t55 9.5t33 19.5t11 32.5q0 33 -20.5 49t-54 26t-75.5 18t-85 24q-44 17 -73 39.5t-46.5 49.5t-25 59.5t-7.5 68.5q0 54 23.5 99.5t67 79t104 52t133.5 18.5q42 0 87 -6.5t93 -20.5q37 -11 37 -43q0 -8 -3 -19l-14 -48q-10 -36 -42 -36
q-5 0 -10 1t-11 3q-42 13 -80 19t-71 6q-76 0 -119.5 -28.5t-43.5 -76.5q0 -18 6 -33t24 -28.5t52 -25.5zM287 -374q0 46 45 46h64q45 0 45 -46v-64q0 -45 -45 -45h-64q-45 0 -45 45v64zM531 -483q-45 0 -45 45v64q0 46 45 46h64q45 0 45 -46v-64q0 -45 -45 -45h-64z" />
    <glyph glyph-name="uni0626" unicode="&#x626;" horiz-adv-x="944" 
d="M679 -88q22 7 33 19.5t11 32.5q0 33 -20.5 49t-54 26t-75.5 18t-85 24q-44 17 -73 39.5t-46.5 49.5t-25 59.5t-7.5 68.5q0 54 23.5 99.5t67 79t104 52t133.5 18.5q42 0 87 -6.5t93 -20.5q37 -11 37 -43q0 -8 -3 -19l-14 -48q-10 -36 -42 -36q-5 0 -10 1t-11 3
q-42 13 -80 19t-71 6q-76 0 -119.5 -28.5t-43.5 -76.5q0 -18 6 -33t24 -28.5t52 -26t90 -27.5q35 -9 73 -23.5t69.5 -39.5t52 -62.5t20.5 -93.5q0 -54 -22.5 -94t-64.5 -66t-102.5 -38.5t-137.5 -12.5h-99q-79 0 -150 18t-124 55.5t-84.5 95t-31.5 137.5q0 24 3 50.5
t10 55.5q10 43 56 43h41q46 0 46 -43v-5q0 -4 -1 -7q-6 -33 -6 -62q0 -97 59 -144t182 -47h99q44 0 77 2.5t55 9.5zM248 539q8 -6 8 -15q0 -2 -2 -8l-8 -24q-4 -13 -17 -13q-6 0 -9 1q-16 6 -31 6q-22 0 -35 -13t-13 -33q0 -23 16 -36t39 -13h60q20 0 20 -20v-23
q0 -20 -20 -20h-168q-20 0 -20 20v23q0 20 20 20h3q-23 21 -23 59q0 23 9.5 42t25.5 33t37 21.5t45 7.5q6 0 18 -1.5t24 -4.5t21 -9z" />
    <glyph glyph-name="uni0640" unicode="&#x640;" horiz-adv-x="200" 
d="M-80 74q0 32 22.5 53t57.5 21h200v-148h-200q-35 0 -57.5 21t-22.5 53z" />
    <glyph glyph-name="zero" unicode="0" horiz-adv-x="730" 
d="M591 609q40 -49 62.5 -115t22.5 -142v-2q0 -76 -22.5 -142t-63.5 -115t-98.5 -77t-127.5 -28t-127.5 27.5t-98 76t-62.5 114.5t-22 142v2q0 76 22.5 142t63.5 115t98.5 77t127.5 28q69 0 126.5 -27.5t98.5 -75.5zM507 439q-11 40 -31.5 70t-48.5 47t-63 17
q-34 0 -62.5 -16.5t-48 -46t-30.5 -70t-11 -88.5v-2q0 -48 11 -89t31 -70.5t48.5 -46.5t63.5 -17t63 16.5t48 46t30.5 70t10.5 88.5v2q0 48 -11 89z" />
    <glyph glyph-name="one" unicode="1" horiz-adv-x="422" 
d="M178 549l-74 -18q-5 -2 -9 -2h-8q-34 0 -43 38l-8 31q-2 5 -2 9v8q0 33 37 44l124 37q16 5 30 7t31 2h24q50 0 50 -50v-605q0 -50 -50 -50h-52q-50 0 -50 50v499z" />
    <glyph glyph-name="two" unicode="2" horiz-adv-x="623" 
d="M543 583q17 -40 17 -89v-2q0 -44 -11.5 -78.5t-34 -65t-57 -61t-81.5 -66.5l-114 -88h255q50 0 50 -50v-33q0 -50 -50 -50h-418q-50 0 -50 50v35q0 20 7 34t22 27l204 167q33 27 56 48.5t37.5 41t21 38t6.5 40.5q0 45 -26 68t-68 23q-32 0 -57.5 -13.5t-52.5 -42.5
q-20 -20 -39 -20q-16 0 -32 13l-31 25q-22 17 -22 38q0 15 14 32q44 52 97.5 79t132.5 27q54 0 98.5 -15.5t76 -43.5t49.5 -68z" />
    <glyph glyph-name="three" unicode="3" horiz-adv-x="621" 
d="M552 620q0 -35 -26 -61l-151 -144q36 -6 69.5 -19t60 -36t42.5 -57.5t16 -83.5v-2q0 -49 -17.5 -91t-50 -73t-79 -48t-105.5 -17q-78 0 -136.5 23.5t-101.5 61.5q-18 17 -18 34q0 18 19 37l34 32q16 16 34 16q17 0 37 -17q29 -24 61 -36.5t73 -12.5q44 0 71.5 23t27.5 62
v2q0 43 -36 66t-101 23h-19q-46 0 -56 43l-4 17q-1 5 -1.5 9.5t-0.5 8.5q0 27 21 48l139 140h-225q-50 0 -50 50v32q0 50 50 50h373q50 0 50 -50v-30z" />
    <glyph glyph-name="four" unicode="4" horiz-adv-x="689" 
d="M40 223q-2 5 -2 10v10q0 24 18 46l335 388q24 28 61 28h43q50 0 50 -50v-379h44q50 0 50 -50v-25q0 -50 -50 -50h-44v-101q0 -50 -50 -50h-47q-50 0 -50 50v101h-297q-45 0 -55 44zM398 276v218l-186 -218h186z" />
    <glyph glyph-name="five" unicode="5" horiz-adv-x="630" 
d="M540 615q0 -50 -50 -50h-248l-8 -121q21 5 42 8.5t50 3.5q51 0 95.5 -13t78 -40t52.5 -69.5t19 -101.5v-2q0 -55 -19 -100t-53.5 -76.5t-84 -48.5t-109.5 -17q-69 0 -124 19t-100 54q-21 17 -21 36q0 18 15 34l29 35q17 20 37 20q17 0 34 -13q30 -22 61.5 -33.5
t66.5 -11.5q54 0 85.5 25t31.5 72v2q0 45 -34.5 70t-89.5 25q-22 0 -42 -3.5t-39 -9.5q-17 -5 -29 -5q-20 0 -39 13l-24 16q-34 22 -31 62l15 257q3 48 52 48h331q50 0 50 -50v-35z" />
    <glyph glyph-name="six" unicode="6" horiz-adv-x="662" 
d="M458 544q-23 14 -47 21t-55 7q-39 0 -65.5 -16.5t-42.5 -41.5t-23.5 -53t-9.5 -51q28 19 62.5 32t82.5 13q52 0 97 -14.5t78 -42.5t52 -69.5t19 -96.5v-2q0 -54 -20.5 -98.5t-56 -76.5t-84.5 -49.5t-106 -17.5q-69 0 -117 19t-85 56q-38 38 -60.5 99.5t-22.5 165.5v2
q0 81 18.5 151t56.5 121t96 80.5t136 29.5q57 0 99 -12.5t80 -35.5q23 -16 23 -38q0 -15 -11 -32l-25 -37q-16 -23 -37 -23q-15 0 -32 10zM211 224q0 -45 32.5 -74.5t89.5 -29.5t88.5 29t31.5 74v2q0 45 -32.5 73.5t-89.5 28.5t-88.5 -28t-31.5 -73v-2z" />
    <glyph glyph-name="seven" unicode="7" horiz-adv-x="619" 
d="M277 35q-19 -35 -59 -35h-66q-21 0 -32 9t-11 24q0 14 8 27l280 507h-279q-50 0 -50 50v33q0 50 50 50h404q50 0 50 -50v-33q0 -18 -4 -32t-12 -30z" />
    <glyph glyph-name="eight" unicode="8" horiz-adv-x="630" 
d="M494 655q32 -26 49.5 -61t17.5 -76v-2q0 -57 -24 -92.5t-65 -60.5q53 -28 83 -65.5t30 -99.5v-2q0 -49 -20.5 -87t-56.5 -64.5t-85.5 -40.5t-107.5 -14t-107.5 14.5t-85.5 41t-56.5 63.5t-20.5 83v2q0 64 28.5 103.5t84.5 65.5q-41 25 -65 60.5t-24 92.5v2q0 40 17.5 75
t50 61t78 41t100.5 15q56 0 101 -15t78 -40zM402 270q-34 22 -87 22t-87 -22.5t-34 -63.5v-2q0 -36 32 -61.5t89 -25.5t89 25t32 62v2q0 41 -34 64zM415 501q0 32 -26 57t-74 25t-74 -24.5t-26 -56.5v-2q0 -37 27 -61.5t73 -24.5t73 24t27 61v2z" />
    <glyph glyph-name="nine" unicode="9" horiz-adv-x="662" 
d="M434 16q-57 -28 -132 -28q-60 0 -106.5 14.5t-84.5 39.5q-23 15 -23 36q0 15 12 33l25 36q15 22 36 22q16 0 37 -12q48 -29 108 -29q40 0 66 16.5t42.5 40.5t24 52t9.5 50q-27 -23 -62 -35.5t-80 -12.5q-57 0 -103 15.5t-79 44.5t-50.5 71t-17.5 95v2q0 53 19.5 98
t55 77.5t84.5 51t108 18.5q79 0 133.5 -26t88 -71.5t48.5 -108t15 -134.5v-2q0 -85 -20 -155.5t-58.5 -120.5t-95.5 -78zM451 473q0 47 -32.5 77t-90.5 30q-57 0 -88 -29.5t-31 -76.5v-2q0 -47 32.5 -76t89.5 -29t88.5 29.5t31.5 74.5v2z" />
    <glyph glyph-name="fraction" unicode="&#x2044;" horiz-adv-x="558" 
d="M254 367l210 317q10 16 30 16h27q22 0 22 -15q0 -7 -6 -15l-233 -337l-210 -317q-10 -16 -30 -16h-27q-22 0 -22 15q0 8 6 15z" />
    <glyph glyph-name="uni066B" unicode="&#x66b;" horiz-adv-x="315" 
d="M214 -90q-44 -43 -127 -48q-14 0 -17 14l-7 34v4q0 10 13 13q44 8 65 32.5t17 64.5h-12q-50 0 -50 50v60q0 50 50 50h62q50 0 50 -50v-85q0 -96 -44 -139z" />
    <glyph glyph-name="uni066C" unicode="&#x66c;" horiz-adv-x="273" 
d="M217 42q0 -77 -35.5 -111.5t-101.5 -38.5q-11 0 -13 12l-6 27v3q0 9 11 10q71 14 65 78h-9q-40 0 -40 40v48q0 40 40 40h49q40 0 40 -40v-68z" />
    <glyph glyph-name="uni0660" unicode="&#x660;" horiz-adv-x="322" 
d="M60 307q0 62 62 62h78q62 0 62 -62v-75q0 -30 -16 -46.5t-46 -16.5h-78q-30 0 -46 16.5t-16 46.5v75z" />
    <glyph glyph-name="uni0661" unicode="&#x661;" horiz-adv-x="271" 
d="M60 684q0 50 50 50h51q50 0 50 -50v-634q0 -50 -50 -50h-51q-50 0 -50 50v634z" />
    <glyph glyph-name="uni0662" unicode="&#x662;" horiz-adv-x="713" 
d="M60 688q-1 24 12 37.5t37 13.5l50 1q50 0 51 -49l2 -70q6 -65 42 -94.5t104 -29.5q64 0 103 28t40 94l1 71q0 50 50 50h51q50 0 50 -50v-71q0 -65 -21.5 -115.5t-59 -85t-89.5 -52.5t-113 -18q-50 0 -87 12t-64 35l10 -344q1 -24 -12 -37.5t-37 -13.5h-51q-49 0 -50 49z
" />
    <glyph glyph-name="uni0663" unicode="&#x663;" horiz-adv-x="875" 
d="M695 365q-38 -19 -86 -19q-98 0 -132 104q-54 -104 -168 -104q-27 0 -49 7t-40 20l11 -322q1 -24 -12 -38t-37 -14h-50q-24 0 -37.5 11.5t-14.5 36.5l-20 636q-1 24 12 37.5t37 13.5l50 1q50 0 51 -49l3 -95q3 -51 22 -74.5t57 -23.5q41 0 56.5 23.5t15.5 77.5v90
q0 50 50 50h51q47 0 50 -45v-95q0 -49 17.5 -75t56.5 -26q43 0 59 23t16 77v91q0 50 50 50h51q50 0 50 -50v-91q0 -54 -14 -99t-41 -78t-65 -51z" />
    <glyph glyph-name="uni0664" unicode="&#x664;" horiz-adv-x="646" 
d="M341 583q-46 0 -68.5 -21.5t-22.5 -47.5q0 -27 24 -50t72 -23h155q50 0 50 -50v-51q0 -50 -50 -50h-194q-45 0 -67 -20.5t-22 -46.5q0 -27 23.5 -49.5t70.5 -22.5h224q50 0 50 -50v-51q0 -50 -50 -50h-206q-67 0 -118 19t-84.5 50.5t-50.5 71t-17 81.5q0 54 28.5 104
t85.5 81q-41 27 -61 64.5t-20 77.5q0 35 15.5 68t46.5 59t77.5 42t108.5 16h160q50 0 50 -50v-51q0 -50 -50 -50h-160z" />
    <glyph glyph-name="uni0665" unicode="&#x665;" horiz-adv-x="682" 
d="M82 468q22 67 60 115t89 74.5t110 26.5t110 -26.5t89 -74.5t60 -115t22 -148q0 -75 -19.5 -134.5t-56 -100.5t-89 -63t-118.5 -22q-133 0 -206 83.5t-73 234.5q0 82 22 150zM211 318q0 -89 30 -127.5t99 -38.5t100 39.5t31 128.5q0 44 -11.5 83t-29.5 68t-41.5 45.5
t-47.5 16.5t-47.5 -16.5t-41.5 -46t-29.5 -68.5t-11.5 -84z" />
    <glyph glyph-name="uni0666" unicode="&#x666;" horiz-adv-x="672" 
d="M60 684q0 50 50 50h370q97 0 102 -97l30 -586q3 -51 -48 -51h-50q-49 0 -52 49l-29 534h-323q-50 0 -50 50v51z" />
    <glyph glyph-name="uni0667" unicode="&#x667;" horiz-adv-x="770" 
d="M346 -1q-42 0 -57 40l-225 638q-4 9 -4 21q0 17 11.5 26.5t33.5 9.5h53q43 0 57 -40l168 -465l168 465q14 40 57 40h58q22 0 33 -9.5t11 -26.5q0 -10 -4 -21l-231 -637q-14 -40 -56 -40z" />
    <glyph glyph-name="uni0668" unicode="&#x668;" horiz-adv-x="754" 
d="M706 57q4 -9 4 -21q0 -17 -11.5 -26.5t-33.5 -9.5h-53q-43 0 -57 40l-168 465l-168 -465q-14 -40 -57 -40h-58q-22 0 -33 9.5t-11 26.5q0 10 4 21l231 637q14 40 56 40l73 1q42 0 57 -40z" />
    <glyph glyph-name="uni0669" unicode="&#x669;" horiz-adv-x="711" 
d="M492 268q-32 -28 -72 -43t-89 -15q-68 0 -119 22t-84.5 58t-50.5 82t-17 94q0 50 18 98t54 86t89.5 61t125.5 23q59 0 110 -20t89 -56.5t60.5 -89.5t25.5 -119l19 -398q3 -51 -48 -51h-50q-49 0 -51 49zM218 428q8 -20 25 -36t43 -25.5t60 -9.5q63 0 99 35t36 96
q0 18 -10.5 35t-29 30.5t-43 21.5t-53.5 8q-34 0 -59.5 -10t-42.5 -26t-25.5 -36.5t-8.5 -41.5t9 -41z" />
    <glyph glyph-name="asterisk" unicode="*" horiz-adv-x="430" 
d="M240 492l12 -93q2 -12 -4 -19.5t-19 -7.5h-28q-13 0 -19 7.5t-4 19.5l12 93l-76 -58q-7 -6 -15 -6q-12 0 -19 13l-15 26q-4 7 -4 14q0 13 15 19l87 37l-87 37q-15 6 -15 19q0 7 4 14l15 26q8 14 18 14q6 0 16 -7l76 -58l-12 93q-2 12 4 19.5t19 7.5h28q13 0 19 -7.5
t4 -19.5l-12 -93l76 58q8 6 15 6q12 0 19 -13l15 -26q4 -7 4 -14q0 -13 -15 -19l-87 -37l87 -37q15 -6 15 -19q0 -7 -4 -14l-15 -26q-8 -14 -18 -14q-5 0 -16 7z" />
    <glyph glyph-name="backslash" unicode="\" horiz-adv-x="530" 
d="M95 798q20 0 29 -18l420 -879q3 -8 3 -13q0 -16 -22 -16h-76q-20 0 -29 18l-420 879q-3 8 -3 13q0 16 22 16h76z" />
    <glyph glyph-name="colon" unicode=":" horiz-adv-x="296" 
d="M229 50q0 -50 -50 -50h-62q-50 0 -50 50v60q0 50 50 50h62q50 0 50 -50v-60zM229 426q0 -50 -50 -50h-62q-50 0 -50 50v60q0 50 50 50h62q50 0 50 -50v-60z" />
    <glyph glyph-name="comma" unicode="," horiz-adv-x="286" 
d="M180 -114q-44 -43 -127 -48q-14 0 -17 14l-7 34v4q0 10 13 13q44 8 65 32.5t17 64.5h-12q-50 0 -50 50v60q0 50 50 50h62q50 0 50 -50v-85q0 -96 -44 -139z" />
    <glyph glyph-name="exclam" unicode="!" horiz-adv-x="324" 
d="M144 238q-24 0 -27 24l-39 386q-2 25 10.5 38.5t37.5 13.5h72q25 0 37.5 -13.5t10.5 -38.5l-39 -386q-3 -24 -27 -24h-36zM193 160q50 0 50 -50v-60q0 -50 -50 -50h-62q-50 0 -50 50v60q0 50 50 50h62z" />
    <glyph glyph-name="numbersign" unicode="#" horiz-adv-x="700" 
d="M567 426l-26 -148h39q50 0 50 -50v-28q0 -50 -50 -50h-61l-17 -104q-7 -46 -54 -46h-31q-47 0 -47 42q0 8 1 12l16 96h-144l-18 -105q-7 -45 -54 -45h-31q-47 0 -47 42q0 8 1 12l16 96h-25q-50 0 -50 50v28q0 50 50 50h47l26 148h-38q-50 0 -50 50v28q0 50 50 50h60
l17 101q7 45 54 45h31q47 0 47 -42q0 -8 -1 -12l-16 -92h145l17 101q7 45 54 45h31q47 0 47 -42q0 -8 -1 -12l-16 -92h26q50 0 50 -50v-28q0 -50 -50 -50h-48zM412 274l26 156h-151l-26 -156h151z" />
    <glyph glyph-name="period" unicode="." horiz-adv-x="286" 
d="M62 110q0 50 50 50h62q50 0 50 -50v-60q0 -50 -50 -50h-62q-50 0 -50 50v60z" />
    <glyph glyph-name="question" unicode="?" horiz-adv-x="544" 
d="M330 551q-24 18 -68 18q-61 0 -113 -37q-19 -14 -35 -14q-18 0 -35 18l-26 29q-16 18 -16 35q0 19 18 35q41 34 92.5 54t117.5 20q54 0 98.5 -13.5t76.5 -40t49.5 -65t17.5 -88.5v-2q0 -48 -15.5 -82t-42 -58t-62.5 -38.5t-77 -22.5l-7 -38q-5 -23 -27 -23h-55
q-24 0 -27 24l-12 118q-3 24 24 27q80 6 114 29t34 60v2q0 34 -24 53zM164 110q0 50 50 50h62q50 0 50 -50v-60q0 -50 -50 -50h-62q-50 0 -50 50v60z" />
    <glyph glyph-name="quotedbl" unicode="&#x22;" horiz-adv-x="520" 
d="M141 401q-8 -20 -28 -20h-30q-12 0 -19 7t-6 19l16 269q2 24 25 24h114q22 0 22 -18q0 -3 -2 -11zM310 676q2 24 25 24h114q22 0 22 -18q0 -3 -2 -11l-92 -270q-8 -20 -28 -20h-30q-12 0 -19 7t-6 19z" />
    <glyph glyph-name="quotesingle" unicode="'" horiz-adv-x="286" 
d="M74 675q2 24 26 24l115 -3q22 -2 22 -18q0 -3 -2 -11l-92 -266q-8 -20 -28 -20h-32q-12 0 -19 7t-6 19z" />
    <glyph glyph-name="semicolon" unicode=";" horiz-adv-x="296" 
d="M34 -110q0 10 13 13q44 8 65 32.5t17 64.5h-12q-50 0 -50 50v60q0 50 50 50h62q50 0 50 -50v-85q0 -96 -44 -139t-127 -48q-14 0 -17 14l-7 34v4zM67 486q0 50 50 50h62q50 0 50 -50v-60q0 -50 -50 -50h-62q-50 0 -50 50v60z" />
    <glyph glyph-name="slash" unicode="/" horiz-adv-x="530" 
d="M406 780q9 18 29 18h76q22 0 22 -16q0 -5 -3 -13l-420 -879q-9 -18 -29 -18h-76q-22 0 -22 16q0 5 3 13z" />
    <glyph glyph-name="underscore" unicode="_" horiz-adv-x="604" 
d="M0 -69q0 25 25 25h554q25 0 25 -25v-66q0 -25 -25 -25h-554q-25 0 -25 25v66z" />
    <glyph glyph-name="braceleft" unicode="{" horiz-adv-x="490" 
d="M431 661q2 -5 2 -8v-8q0 -32 -38 -47q-24 -9 -38.5 -19.5t-22.5 -22.5t-10.5 -27t-2.5 -34q0 -15 1.5 -36.5t1.5 -37.5q0 -55 -26.5 -86t-77.5 -48q51 -17 77.5 -48t26.5 -86q0 -16 -1.5 -37.5t-1.5 -36.5q0 -19 2.5 -34t10.5 -27t22.5 -22.5t38.5 -19.5q38 -15 38 -47
v-8q0 -3 -2 -8l-2 -7q-11 -39 -46 -39q-4 0 -7.5 0.5t-8.5 1.5q-54 13 -89.5 31t-56.5 41.5t-30 52.5t-9 63q0 6 0.5 15t1 19t1 19.5t0.5 15.5q0 59 -25.5 81t-84.5 22q-26 0 -26 50v16q0 50 26 50q59 0 84.5 22t25.5 81q0 6 -0.5 15.5t-1 19.5t-1 19t-0.5 15q0 35 9 63.5
t30 52t56.5 41.5t89.5 31q5 1 8.5 1.5t7.5 0.5q35 0 46 -39z" />
    <glyph glyph-name="braceright" unicode="}" horiz-adv-x="490" 
d="M415 345q26 0 26 -50v-16q0 -50 -26 -50q-59 0 -84.5 -22t-25.5 -81q0 -6 0.5 -15.5t1 -19.5t1 -19t0.5 -15q0 -34 -9 -63t-30 -52.5t-56.5 -41.5t-88.5 -31q-5 -1 -9 -1.5t-8 -0.5q-34 0 -45 39l-2 7q-2 5 -2 9v8q0 31 37 46q24 9 38.5 19.5t22.5 22.5t10.5 27t2.5 34
q0 15 -1.5 36.5t-1.5 37.5q0 55 26.5 86t77.5 48q-51 17 -77.5 48t-26.5 86q0 16 1.5 37.5t1.5 36.5q0 19 -2.5 34t-10.5 27t-22.5 22.5t-38.5 19.5q-37 15 -37 46v8q0 4 2 9l2 7q11 39 45 39q4 0 8 -0.5t9 -1.5q53 -13 88.5 -31t56.5 -41.5t30 -52t9 -63.5q0 -6 -0.5 -15
t-1 -19t-1 -19.5t-0.5 -15.5q0 -59 25.5 -81t84.5 -22z" />
    <glyph glyph-name="bracketleft" unicode="[" horiz-adv-x="465" 
d="M406 -80q0 -50 -50 -50h-223q-50 0 -50 50v730q0 50 50 50h223q50 0 50 -50v-19q0 -50 -50 -50h-127v-592h127q50 0 50 -50v-19z" />
    <glyph glyph-name="bracketright" unicode="]" horiz-adv-x="465" 
d="M382 -80q0 -50 -50 -50h-223q-50 0 -50 50v19q0 50 50 50h127v592h-127q-50 0 -50 50v19q0 50 50 50h223q50 0 50 -50v-730z" />
    <glyph glyph-name="parenleft" unicode="(" horiz-adv-x="445" 
d="M210 287q0 -47 9 -87.5t28 -76.5t47.5 -69t68.5 -65q23 -17 23 -39q0 -15 -10 -31l-13 -20q-17 -25 -40 -25q-15 0 -29 10q-118 73 -176.5 171t-58.5 232t58.5 232t176.5 171q14 10 29 10q23 0 40 -25l13 -20q10 -16 10 -31q0 -22 -23 -39q-40 -32 -68.5 -65t-47.5 -69
t-28 -76.5t-9 -87.5z" />
    <glyph glyph-name="parenright" unicode=")" horiz-adv-x="445" 
d="M69 -81q-10 14 -10 30q0 23 23 40q40 32 69 65t47.5 69t27.5 76.5t9 87.5t-9 87.5t-27.5 76.5t-47.5 69t-69 65q-23 17 -23 40q0 16 10 30l13 20q17 25 40 25q15 0 29 -10q118 -73 176.5 -171t58.5 -232t-58.5 -232t-176.5 -171q-14 -10 -29 -10q-23 0 -40 25z" />
    <glyph glyph-name="endash" unicode="&#x2013;" horiz-adv-x="528" 
d="M50 331q0 50 50 50h328q50 0 50 -50v-42q0 -50 -50 -50h-328q-50 0 -50 50v42z" />
    <glyph glyph-name="hyphen" unicode="-" horiz-adv-x="408" 
d="M50 333q0 50 50 50h208q50 0 50 -50v-46q0 -50 -50 -50h-208q-50 0 -50 50v46z" />
    <glyph glyph-name="guillemotleft" unicode="&#xab;" horiz-adv-x="645" 
d="M532 63q-16 -8 -28 -8q-24 0 -41 23l-123 159q-13 17 -13 35t14 35l122 152q18 22 41 22q13 0 27 -7l17 -8q29 -14 29 -38q0 -14 -11 -31l-89 -128l89 -129q11 -17 11 -31q0 -22 -28 -37zM191 459q18 22 41 22q13 0 27 -7l17 -8q29 -14 29 -38q0 -14 -11 -31l-89 -128
l89 -129q11 -17 11 -31q0 -22 -28 -37l-17 -9q-16 -8 -28 -8q-24 0 -41 23l-123 159q-13 17 -13 35t14 35z" />
    <glyph glyph-name="guillemotright" unicode="&#xbb;" horiz-adv-x="645" 
d="M114 473q16 8 28 8q21 0 40 -22l122 -152q14 -17 14 -35t-13 -35l-123 -159q-18 -23 -41 -23q-14 0 -28 7l-16 8q-29 14 -29 39q0 14 11 30l89 128l-89 129q-11 17 -11 31q0 22 28 37zM576 307q14 -17 14 -35t-13 -35l-123 -159q-18 -23 -41 -23q-14 0 -28 7l-16 8
q-29 14 -29 39q0 14 11 30l89 128l-89 129q-11 17 -11 31q0 22 28 37l18 9q16 8 28 8q21 0 40 -22z" />
    <glyph glyph-name="guilsinglleft" unicode="&#x2039;" horiz-adv-x="373" 
d="M260 63q-16 -8 -28 -8q-24 0 -41 23l-123 159q-13 17 -13 35t14 35l122 152q18 22 41 22q13 0 27 -7l17 -8q29 -14 29 -38q0 -14 -11 -31l-89 -128l89 -129q11 -17 11 -31q0 -22 -28 -37z" />
    <glyph glyph-name="guilsinglright" unicode="&#x203a;" horiz-adv-x="373" 
d="M182 78q-18 -23 -41 -23q-14 0 -28 7l-16 8q-29 14 -29 39q0 14 11 30l89 128l-89 129q-11 17 -11 31q0 22 28 37l18 9q16 8 28 8q21 0 40 -22l122 -152q14 -17 14 -35t-13 -35z" />
    <glyph glyph-name="quotedblbase" unicode="&#x201e;" horiz-adv-x="540" 
d="M306 -95q78 20 72 95h-12q-50 0 -50 50v60q0 50 50 50h62q50 0 50 -50v-85q0 -93 -41.5 -136.5t-120.5 -49.5q-24 0 -28 22l-3 15q-4 23 21 29zM31 -124q-4 23 21 29q78 20 72 95h-12q-50 0 -50 50v60q0 50 50 50h62q50 0 50 -50v-85q0 -93 -41.5 -136.5t-120.5 -49.5
q-24 0 -28 22z" />
    <glyph glyph-name="quotedblleft" unicode="&#x201c;" horiz-adv-x="540" 
d="M504 667q4 -23 -20 -29q-79 -20 -73 -95h12q50 0 50 -50v-60q0 -50 -50 -50h-62q-50 0 -50 50v85q0 93 41.5 136t120.5 50h2q21 0 26 -22zM57 518q0 93 41.5 136t120.5 50h2q21 0 26 -22l3 -15q4 -23 -20 -29q-79 -20 -73 -95h12q50 0 50 -50v-60q0 -50 -50 -50h-62
q-50 0 -50 50v85z" />
    <glyph glyph-name="quotedblright" unicode="&#x201d;" horiz-adv-x="540" 
d="M36 416q-4 23 21 29q78 20 72 95h-12q-50 0 -50 50v60q0 50 50 50h62q50 0 50 -50v-85q0 -93 -41.5 -136.5t-120.5 -49.5q-24 0 -28 22zM311 445q78 20 72 95h-12q-50 0 -50 50v60q0 50 50 50h62q50 0 50 -50v-85q0 -93 -41.5 -136.5t-120.5 -49.5q-24 0 -28 22l-3 15
q-4 23 21 29z" />
    <glyph glyph-name="quoteleft" unicode="&#x2018;" horiz-adv-x="286" 
d="M250 667q4 -23 -20 -29q-79 -20 -73 -95h12q50 0 50 -50v-60q0 -50 -50 -50h-62q-50 0 -50 50v85q0 93 41.5 136t120.5 50h2q21 0 26 -22z" />
    <glyph glyph-name="quoteright" unicode="&#x2019;" horiz-adv-x="286" 
d="M229 565q0 -93 -41.5 -136.5t-120.5 -49.5q-24 0 -28 22l-3 15q-4 23 21 29q78 20 72 95h-12q-50 0 -50 50v60q0 50 50 50h62q50 0 50 -50v-85z" />
    <glyph glyph-name="quotesinglbase" unicode="&#x201a;" horiz-adv-x="286" 
d="M224 25q0 -93 -41.5 -136.5t-120.5 -49.5q-24 0 -28 22l-3 15q-4 23 21 29q78 20 72 95h-12q-50 0 -50 50v60q0 50 50 50h62q50 0 50 -50v-85z" />
    <glyph glyph-name="uni060C" unicode="&#x60c;" horiz-adv-x="279" 
d="M209 252q0 -10 -13 -13q-44 -8 -65 -32.5t-17 -64.5h12q50 0 50 -50v-60q0 -50 -50 -50h-62q-50 0 -50 50v85q0 96 44 139t127 48q14 0 17 -14l7 -34v-4z" />
    <glyph glyph-name="uni061B" unicode="&#x61b;" horiz-adv-x="291" 
d="M76 329q-50 0 -50 50v85q0 96 44 139t127 48q14 0 17 -14l7 -34v-4q0 -10 -13 -13q-44 -8 -65 -32.5t-17 -64.5h12q50 0 50 -50v-60q0 -50 -50 -50h-62zM26 63q0 50 50 50h62q50 0 50 -50v-60q0 -50 -50 -50h-62q-50 0 -50 50v60z" />
    <glyph glyph-name="uni061F" unicode="&#x61f;" horiz-adv-x="548" 
d="M325 262q-3 -24 -27 -24h-55q-22 0 -27 23l-7 38q-41 8 -77 22.5t-62.5 38.5t-42 58t-15.5 82v2q0 50 17.5 88.5t49.5 65t76.5 40t98.5 13.5q66 0 117.5 -20t92.5 -54q18 -16 18 -35q0 -17 -16 -35l-26 -29q-16 -18 -35 -18q-16 0 -35 14q-52 37 -113 37q-44 0 -68 -18.5
t-24 -52.5v-2q0 -37 34 -60t114 -29q27 -3 24 -27zM355 50q0 -50 -50 -50h-62q-50 0 -50 50v60q0 50 50 50h62q50 0 50 -50v-60z" />
    <glyph glyph-name="uni066D" unicode="&#x66d;" horiz-adv-x="435" 
d="M240 492l12 -93q2 -12 -4 -19.5t-19 -7.5h-28q-13 0 -19 7.5t-4 19.5l12 93l-76 -58q-7 -6 -15 -6q-12 0 -19 13l-15 26q-4 7 -4 14q0 13 15 19l87 37l-87 37q-15 6 -15 19q0 7 4 14l15 26q8 14 18 14q6 0 16 -7l76 -58l-12 93q-2 12 4 19.5t19 7.5h28q13 0 19 -7.5
t4 -19.5l-12 -93l76 58q8 6 15 6q12 0 19 -13l15 -26q4 -7 4 -14q0 -13 -15 -19l-87 -37l87 -37q15 -6 15 -19q0 -7 -4 -14l-15 -26q-8 -14 -18 -14q-5 0 -16 7z" />
    <glyph glyph-name="uniFD3E" unicode="&#xfd3e;" horiz-adv-x="462" 
d="M210 287q0 -47 9 -87.5t28 -76.5t47.5 -69t68.5 -65q23 -17 23 -39q0 -15 -10 -31l-13 -20q-17 -25 -40 -25q-15 0 -29 10q-118 73 -176.5 171t-58.5 232t58.5 232t176.5 171q14 10 29 10q23 0 40 -25l13 -20q10 -16 10 -31q0 -22 -23 -39q-40 -32 -68.5 -65t-47.5 -69
t-28 -76.5t-9 -87.5z" />
    <glyph glyph-name="uniFD3F" unicode="&#xfd3f;" horiz-adv-x="459" 
d="M82 -81q-10 14 -10 30q0 23 23 40q40 32 69 65t47.5 69t27.5 76.5t9 87.5t-9 87.5t-27.5 76.5t-47.5 69t-69 65q-23 17 -23 40q0 16 10 30l13 20q17 25 40 25q15 0 29 -10q118 -73 176.5 -171t58.5 -232t-58.5 -232t-176.5 -171q-14 -10 -29 -10q-23 0 -40 25z" />
    <glyph glyph-name="dollar" unicode="$" horiz-adv-x="646" 
d="M490 524q-13 0 -30 9q-40 23 -81 33v-152q114 -31 165.5 -80.5t51.5 -133.5v-2q0 -42 -15.5 -76t-43.5 -59.5t-67 -41t-86 -20.5v-74q0 -25 -25 -25h-54q-25 0 -25 25v76q-105 14 -195 67q-24 15 -24 38q0 14 11 31l22 31q17 24 38 24q14 0 31 -11q29 -19 59 -32t63 -20
v159q-54 15 -94.5 33t-67 43t-40 58t-13.5 78v2q0 41 15 75t42.5 59.5t66.5 41t86 20.5v33q0 25 25 25h54q25 0 25 -25v-36q15 -2 43.5 -8t57 -17t49.5 -26.5t21 -35.5q0 -14 -9 -29l-18 -30q-15 -27 -38 -27zM379 126q71 11 71 64v2q0 25 -15 42t-56 32v-140zM216 511
q0 -24 14 -40.5t55 -31.5v136q-37 -5 -53 -21.5t-16 -40.5v-2z" />
    <glyph glyph-name="plus" unicode="+" horiz-adv-x="640" 
d="M249 551q0 50 50 50h42q50 0 50 -50v-130h131q50 0 50 -50v-38q0 -50 -50 -50h-131v-130q0 -50 -50 -50h-42q-50 0 -50 50v130h-131q-50 0 -50 50v38q0 50 50 50h131v130z" />
    <glyph glyph-name="minus" unicode="&#x2212;" horiz-adv-x="640" 
d="M68 372q0 50 50 50h404q50 0 50 -50v-40q0 -50 -50 -50h-404q-50 0 -50 50v40z" />
    <glyph glyph-name="multiply" unicode="&#xd7;" horiz-adv-x="640" 
d="M550 198q0 -19 -17 -36l-23 -23q-18 -18 -36 -18t-35 18l-120 123l-120 -123q-16 -18 -35 -18q-18 0 -36 18l-21 21q-17 19 -17 36q0 18 17 35l123 120l-123 120q-17 19 -17 36q0 18 17 35l23 23q18 18 36 18q19 0 35 -18l120 -123l120 123q17 18 35 18t36 -18l21 -21
q17 -16 17 -35t-17 -36l-123 -120l123 -120q17 -16 17 -35z" />
    <glyph glyph-name="divide" unicode="&#xf7;" horiz-adv-x="640" 
d="M522 416q50 0 50 -50v-28q0 -50 -50 -50h-404q-50 0 -50 50v28q0 50 50 50h404zM242 159q0 50 50 50h56q50 0 50 -50v-44q0 -50 -50 -50h-56q-50 0 -50 50v44zM348 639q50 0 50 -50v-44q0 -50 -50 -50h-56q-50 0 -50 50v44q0 50 50 50h56z" />
    <glyph glyph-name="equal" unicode="=" horiz-adv-x="640" 
d="M567 463q0 -50 -50 -50h-394q-50 0 -50 50v38q0 50 50 50h394q50 0 50 -50v-38zM567 203q0 -50 -50 -50h-394q-50 0 -50 50v38q0 50 50 50h394q50 0 50 -50v-38z" />
    <glyph glyph-name="greater" unicode="&#x3e;" horiz-adv-x="640" 
d="M572 324q0 -40 -38 -58l-388 -169q-13 -6 -24 -6q-34 0 -34 44v35q0 42 39 58l299 123l-299 123q-39 17 -39 58v37q0 44 34 44q11 0 24 -6l388 -169q38 -18 38 -59v-55z" />
    <glyph glyph-name="less" unicode="&#x3c;" horiz-adv-x="640" 
d="M552 534q0 -41 -39 -58l-299 -123l299 -123q39 -16 39 -58v-37q0 -44 -34 -44q-10 0 -24 6l-388 169q-38 18 -38 58v56q0 40 38 58l388 169q14 6 24 6q34 0 34 -44v-35z" />
    <glyph glyph-name="plusminus" unicode="&#xb1;" horiz-adv-x="640" 
d="M567 429q0 -50 -50 -50l-130 1l1 -127q0 -50 -50 -50h-36q-50 0 -50 50l1 127l-130 -1q-50 0 -50 50v32q0 50 50 50l130 -1l-1 127q0 50 50 50h36q50 0 50 -50l-1 -127l130 1q50 0 50 -50v-32zM73 76q0 50 50 50h394q50 0 50 -50v-26q0 -50 -50 -50h-394q-50 0 -50 50v26
z" />
    <glyph glyph-name="asciitilde" unicode="~" horiz-adv-x="510" 
d="M54 263q0 4 2 10q17 53 43.5 83.5t73.5 30.5q26 0 49 -7t42 -15q17 -7 32 -12t27 -5q17 0 28 7t19 21q8 15 22 15q7 0 10 -1l35 -11q17 -6 17 -24q0 -8 -2 -13q-17 -51 -43 -79.5t-72 -28.5q-26 0 -49 7t-42 15q-17 7 -32 12t-27 5q-17 0 -28 -7t-19 -21q-8 -15 -22 -15
q-7 0 -10 1l-35 11q-19 6 -19 21z" />
    <glyph glyph-name="percent" unicode="%" horiz-adv-x="860" 
d="M577 336q31 14 69 14t69 -14t53.5 -38t34.5 -56t12 -69v-2q0 -37 -12.5 -69.5t-35 -57t-54 -38.5t-69.5 -14t-69 14t-53.5 38t-34.5 56t-12 69v2q0 37 12.5 69.5t35 57t54.5 38.5zM339 656q22 -24 34 -56t12 -69v-2q0 -37 -12.5 -69.5t-35 -57t-54 -38.5t-69.5 -14
t-69 14t-53.5 38t-34.5 56t-12 69v2q0 37 12.5 69.5t35 57t54 38.5t69.5 14t69 -14t54 -38zM153 0q-21 0 -21 14q0 7 6 16l257 347l220 307q12 16 30 16h62q21 0 21 -14q0 -7 -6 -16l-257 -347l-220 -307q-12 -16 -30 -16h-62zM596 234q-16 -26 -16 -61v-2q0 -35 18 -61.5
t48 -26.5q32 0 48 26t16 60v2q0 35 -18 61.5t-48 26.5q-32 0 -48 -25zM150 529q0 -35 18 -61.5t48 -26.5q32 0 48 26t16 60v2q0 35 -18 61.5t-48 26.5q-32 0 -48 -25.5t-16 -60.5v-2z" />
    </font>
</defs>
</svg>
