<?xml version="1.0" standalone="no"?>
<!DOCTYPE svg PUBLIC "-//W3C//DTD SVG 1.1//EN" "http://www.w3.org/Graphics/SVG/1.1/DTD/svg11.dtd" >
<svg xmlns="http://www.w3.org/2000/svg" xmlns:xlink="http://www.w3.org/1999/xlink" version="1.1">
<metadata>
Created by FontForge 20190801 at Wed Jan 30 14:28:09 2019
 By Jimmy Wärting
Copyright (c) 2018 by Fahd Al Fraikh. All Rights Reserved.
</metadata>
<defs>
<font id="FFShamelFamilySemiRoundBook-S" horiz-adv-x="0" >
  <font-face 
    font-family="FFShamelFamily-SemiRoundBook Sem"
    font-weight="400"
    font-stretch="normal"
    units-per-em="1000"
    panose-1="0 0 5 0 0 0 0 0 0 0"
    ascent="800"
    descent="-200"
    bbox="-313 -468 1510 970"
    underline-thickness="50"
    underline-position="-100"
    unicode-range="U+000D-FEFC"
  />
<missing-glyph horiz-adv-x="500" 
d="M0 -200v1000h500v-1000h-500zM429 -150l-179 390l-179 -390h358zM250 360l179 390h-358zM222 300l-172 376v-752zM450 676l-172 -376l172 -376v752z" />
    <glyph glyph-name="uniFEFB" unicode="&#xfedf;&#xfe8e;" horiz-adv-x="707" arabic-form="isolated" 
d="M207 606q9 8 23 8h20q27 0 30 -30l47 -510h218q30 0 30 30v600q0 30 30 30h17q30 0 30 -30v-600q0 -31 -4.5 -51t-16.5 -32t-33 -16.5t-53 -4.5h-447q-30 0 -30 30v14q0 30 30 30h148l-46 510q-2 14 7 22z" />
    <glyph glyph-name="uniFEFC" unicode="&#xfee0;&#xfe8e;" horiz-adv-x="813" arabic-form="final" 
d="M68 44q0 30 30 30h148l-46 510q-2 14 7 22t23 8h20q27 0 30 -30l47 -510h86q162 0 162 165v465q0 30 30 30h17q30 0 30 -30v-465q0 -165 161 -165v-74q-143 0 -193 104q-29 -51 -81 -77.5t-126 -26.5h-315q-30 0 -30 30v14z" />
    <glyph glyph-name="uniFEF7" unicode="&#xfedf;&#xfe84;" horiz-adv-x="720" arabic-form="isolated" 
d="M545 74q30 0 30 30v600q0 30 30 30h17q30 0 30 -30v-600q0 -31 -4.5 -51t-16.5 -32t-33 -16.5t-53 -4.5h-447q-30 0 -30 30v14q0 30 30 30h148l-46 510q-2 14 7 22t23 8h20q27 0 30 -30l47 -510h218zM134 697q-15 0 -15 15v29q0 15 15 15h13q-24 23 -24 62q0 20 8.5 37.5
t24 31t37 21.5t46.5 8q27 0 57 -12q7 -2 8 -8t-1 -12l-10 -28q-3 -8 -12 -8q-5 0 -8 1q-17 5 -30 5q-22 0 -38.5 -11.5t-16.5 -34.5q0 -24 17 -38t42 -14h74q15 0 15 -15v-29q0 -15 -15 -15h-187z" />
    <glyph glyph-name="uniFEF8" unicode="&#xfee0;&#xfe84;" horiz-adv-x="813" arabic-form="final" 
d="M413 74q162 0 162 165v465q0 30 30 30h17q30 0 30 -30v-465q0 -165 161 -165v-74q-143 0 -193 104q-29 -51 -81 -77.5t-126 -26.5h-315q-30 0 -30 30v14q0 30 30 30h148l-46 510q-2 14 7 22t23 8h20q27 0 30 -30l47 -510h86zM293 856q-3 -8 -12 -8q-5 0 -8 1q-17 5 -30 5
q-22 0 -38.5 -11.5t-16.5 -34.5q0 -24 17 -38t42 -14h74q15 0 15 -15v-29q0 -15 -15 -15h-187q-15 0 -15 15v29q0 15 15 15h13q-24 23 -24 62q0 20 8.5 37.5t24 31t37 21.5t46.5 8q27 0 57 -12q7 -2 8 -8t-1 -12z" />
    <glyph glyph-name="uniFEF9" unicode="&#xfedf;&#xfe88;" horiz-adv-x="720" arabic-form="isolated" 
d="M545 74q30 0 30 30v600q0 30 30 30h17q30 0 30 -30v-600q0 -31 -4.5 -51t-16.5 -32t-33 -16.5t-53 -4.5h-447q-30 0 -30 30v14q0 30 30 30h148l-46 510q-2 14 7 22t23 8h20q27 0 30 -30l47 -510h218zM154 -308q-15 0 -15 15v29q0 15 15 15h13q-24 22 -24 62q0 19 8.5 37
t24 31.5t37 21.5t46.5 8q27 0 57 -12q7 -2 8 -8t-1 -12l-10 -28q-3 -8 -12 -8q-5 0 -8 1q-17 5 -30 5q-22 0 -38.5 -11.5t-16.5 -34.5q0 -24 17 -38t42 -14h74q15 0 15 -15v-29q0 -15 -15 -15h-187z" />
    <glyph glyph-name="uniFEFA" unicode="&#xfee0;&#xfe88;" horiz-adv-x="813" arabic-form="final" 
d="M413 74q162 0 162 165v465q0 30 30 30h17q30 0 30 -30v-465q0 -165 161 -165v-74q-143 0 -193 104q-29 -51 -81 -77.5t-126 -26.5h-315q-30 0 -30 30v14q0 30 30 30h148l-46 510q-2 14 7 22t23 8h20q27 0 30 -30l47 -510h86zM313 -149q-3 -8 -12 -8q-5 0 -8 1
q-17 5 -30 5q-22 0 -38.5 -11.5t-16.5 -34.5q0 -24 17 -38t42 -14h74q15 0 15 -15v-29q0 -15 -15 -15h-187q-15 0 -15 15v29q0 15 15 15h13q-24 22 -24 62q0 19 8.5 37t24 31.5t37 21.5t46.5 8q27 0 57 -12q7 -2 8 -8t-1 -12z" />
    <glyph glyph-name="uniFEF5" unicode="&#xfedf;&#xfe82;" horiz-adv-x="720" arabic-form="isolated" 
d="M652 104q0 -31 -4.5 -51t-16.5 -32t-33 -16.5t-53 -4.5h-447q-30 0 -30 30v14q0 30 30 30h148l-46 510q-2 14 7 22t23 8h20q27 0 30 -30l47 -510h218q30 0 30 30v600q0 30 30 30h17q30 0 30 -30v-600zM321 817q0 6 4.5 10.5t10.5 4.5h34q6 0 10.5 -4.5t4.5 -10.5v-18
q0 -46 -23.5 -72.5t-64.5 -26.5q-34 0 -58 14t-41 25t-27 18.5t-19 7.5q-12 0 -16 -10t-4 -23v-17q0 -6 -4.5 -10.5t-10.5 -4.5h-35q-6 0 -10.5 4.5t-4.5 10.5v17q0 45 21.5 71t59.5 26q29 0 49 -13t37 -25t31 -19t32 -7q13 0 18.5 7t5.5 27v18z" />
    <glyph glyph-name="uniFEF6" unicode="&#xfee0;&#xfe82;" horiz-adv-x="813" arabic-form="final" 
d="M620 104q-29 -51 -81 -77.5t-126 -26.5h-315q-30 0 -30 30v14q0 30 30 30h148l-46 510q-2 14 7 22t23 8h20q27 0 30 -30l47 -510h86q162 0 162 165v465q0 30 30 30h17q30 0 30 -30v-465q0 -165 161 -165v-74q-143 0 -193 104zM321 817q0 6 4.5 10.5t10.5 4.5h34
q6 0 10.5 -4.5t4.5 -10.5v-18q0 -46 -23.5 -72.5t-64.5 -26.5q-34 0 -58 14t-41 25t-27 18.5t-19 7.5q-12 0 -16 -10t-4 -23v-17q0 -6 -4.5 -10.5t-10.5 -4.5h-35q-6 0 -10.5 4.5t-4.5 10.5v17q0 45 21.5 71t59.5 26q29 0 49 -13t37 -25t31 -19t32 -7q13 0 18.5 7t5.5 27v18
z" />
    <glyph glyph-name="uniFE8E" unicode="&#x627;" horiz-adv-x="306" arabic-form="final" 
d="M175 0q-32 0 -53 4.5t-33 16.5t-16.5 32t-4.5 51v600q0 30 30 30h17q30 0 30 -30v-600q0 -30 30 -30h131v-74h-131z" />
    <glyph glyph-name="uniFE84" unicode="&#x623;" horiz-adv-x="329" arabic-form="final" 
d="M198 0q-32 0 -53 4.5t-33 16.5t-16.5 32t-4.5 51v530q0 30 30 30h17q30 0 30 -30v-530q0 -30 30 -30h131v-74h-131zM208 950q1 -6 -1 -12l-10 -28q-3 -8 -12 -8q-5 0 -8 1q-17 5 -30 5q-22 0 -38.5 -11.5t-16.5 -34.5q0 -24 17 -38t42 -14h74q15 0 15 -15v-29
q0 -15 -15 -15h-187q-15 0 -15 15v29q0 15 15 15h13q-24 23 -24 62q0 20 8.5 37.5t24 31t37 21.5t46.5 8q27 0 57 -12q7 -2 8 -8z" />
    <glyph glyph-name="uniFE88" unicode="&#x625;" horiz-adv-x="306" arabic-form="final" 
d="M175 0q-32 0 -53 4.5t-33 16.5t-16.5 32t-4.5 51v600q0 30 30 30h17q30 0 30 -30v-600q0 -30 30 -30h131v-74h-131zM204 -118q1 -6 -1 -12l-10 -28q-3 -8 -12 -8q-5 0 -8 1q-17 5 -30 5q-22 0 -38.5 -11.5t-16.5 -34.5q0 -24 17 -38t42 -14h74q15 0 15 -15v-29
q0 -15 -15 -15h-187q-15 0 -15 15v29q0 15 15 15h13q-24 22 -24 62q0 19 8.5 37t24 31.5t37 21.5t46.5 8q27 0 57 -12q7 -2 8 -8z" />
    <glyph glyph-name="uniFE82" unicode="&#x622;" horiz-adv-x="306" arabic-form="final" 
d="M175 0q-32 0 -53 4.5t-33 16.5t-16.5 32t-4.5 51v600q0 30 30 30h17q30 0 30 -30v-600q0 -30 30 -30h131v-74h-131zM235 907q5 7 5 27v18q0 6 4.5 10.5t10.5 4.5h34q6 0 10.5 -4.5t4.5 -10.5v-18q0 -46 -23.5 -72.5t-64.5 -26.5q-34 0 -58 14t-41 25t-27 18.5t-19 7.5
q-12 0 -16 -10t-4 -23v-17q0 -6 -4.5 -10.5t-10.5 -4.5h-35q-6 0 -10.5 4.5t-4.5 10.5v17q0 45 21.5 71t59.5 26q29 0 49 -13t37 -25t31 -19t32 -7q13 0 19 7z" />
    <glyph glyph-name="uni066E.init" unicode="&#x66e;" horiz-adv-x="307" 
d="M235 53q-5 -20 -17 -32t-33 -16.5t-53 -4.5h-132q-19 0 -31 11t-12 28q0 35 43 35h132q30 0 30 30v326q0 30 30 30h17q30 0 30 -30v-326q0 -31 -4 -51z" />
    <glyph glyph-name="uni066E.medi" unicode="&#x66e;" horiz-adv-x="400" 
d="M400 0q-143 0 -193 104q-29 -51 -81 -77.5t-126 -26.5q-19 0 -31 11t-12 28q0 35 43 35q162 0 162 165v191q0 30 30 30h17q30 0 30 -30v-191q0 -165 161 -165v-74z" />
    <glyph glyph-name="uni066E.fina" unicode="&#x66e;" horiz-adv-x="1047" 
d="M91 384q6 26 33 26h16q27 0 27 -24q0 -6 -1 -10q-13 -51 -13 -98q0 -63 14.5 -102.5t43.5 -62t71.5 -31t98.5 -8.5h266q162 0 162 165v191q0 30 30 30h17q30 0 30 -30v-191q0 -165 161 -165v-74q-144 0 -192 104q-60 -104 -208 -104h-266q-73 0 -130 13.5t-96 45
t-59.5 83t-20.5 128.5q0 56 16 114z" />
    <glyph glyph-name="uniFE90" unicode="&#x628;" horiz-adv-x="1047" arabic-form="final" 
d="M856 460q30 0 30 -30v-191q0 -165 161 -165v-74q-144 0 -192 104q-60 -104 -208 -104h-266q-73 0 -130 13.5t-96 45t-59.5 83t-20.5 128.5q0 56 16 114q6 26 33 26h16q27 0 27 -24q0 -6 -1 -10q-13 -51 -13 -98q0 -63 14.5 -102.5t43.5 -62t71.5 -31t98.5 -8.5h266
q162 0 162 165v191q0 30 30 30h17zM431 -120q0 30 30 30h33q30 0 30 -30v-33q0 -30 -30 -30h-33q-30 0 -30 30v33z" />
    <glyph glyph-name="uniFE92" unicode="&#x628;" horiz-adv-x="400" arabic-form="medial" 
d="M126 27q-52 -27 -126 -27q-19 0 -31 11t-12 28q0 35 43 35q162 0 162 165v191q0 30 30 30h17q30 0 30 -30v-191q0 -165 161 -165v-74q-143 0 -193 104q-29 -51 -81 -77zM216 -89q30 0 30 -30v-33q0 -30 -30 -30h-33q-30 0 -30 30v33q0 30 30 30h33z" />
    <glyph glyph-name="uniFE91" unicode="&#x628;" horiz-adv-x="307" arabic-form="initial" 
d="M-31 11q-12 11 -12 28q0 35 43 35h132q30 0 30 30v326q0 30 30 30h17q30 0 30 -30v-326q0 -31 -4.5 -51t-16.5 -32t-33 -16.5t-53 -4.5h-132q-19 0 -31 11zM96 -120q0 30 30 30h33q30 0 30 -30v-33q0 -30 -30 -30h-33q-30 0 -30 30v33z" />
    <glyph glyph-name="uniFB57" unicode="&#x67e;" horiz-adv-x="1047" arabic-form="final" 
d="M1047 0q-144 0 -192 104q-60 -104 -208 -104h-266q-73 0 -130 13.5t-96 45t-59.5 83t-20.5 128.5q0 56 16 114q6 26 33 26h16q27 0 27 -24q0 -6 -1 -10q-13 -51 -13 -98q0 -63 14.5 -102.5t43.5 -62t71.5 -31t98.5 -8.5h266q162 0 162 165v191q0 30 30 30h17q30 0 30 -30
v-191q0 -165 161 -165v-74zM524 -288q0 -30 -30 -30h-33q-30 0 -30 30v33q0 30 30 30h33q30 0 30 -30v-33zM414 -90q30 0 30 -30v-33q0 -30 -30 -30h-33q-30 0 -30 30v33q0 30 30 30h33zM511 -120q0 30 30 30h33q30 0 30 -30v-33q0 -30 -30 -30h-33q-30 0 -30 30v33z" />
    <glyph glyph-name="uniFB59" unicode="&#x67e;" horiz-adv-x="400" arabic-form="medial" 
d="M400 0q-143 0 -193 104q-29 -51 -81 -77.5t-126 -26.5q-19 0 -31 11t-12 28q0 35 43 35q162 0 162 165v191q0 30 30 30h17q30 0 30 -30v-191q0 -165 161 -165v-74zM296 -90q30 0 30 -30v-33q0 -30 -30 -30h-33q-30 0 -30 30v33q0 30 30 30h33zM153 -255q0 30 30 30h33
q30 0 30 -30v-33q0 -30 -30 -30h-33q-30 0 -30 30v33zM73 -120q0 30 30 30h33q30 0 30 -30v-33q0 -30 -30 -30h-33q-30 0 -30 30v33z" />
    <glyph glyph-name="uniFB58" unicode="&#x67e;" horiz-adv-x="356" arabic-form="initial" 
d="M239 104q0 -31 -4.5 -51t-16.5 -32t-33 -16.5t-53 -4.5h-132q-19 0 -31 11t-12 28q0 35 43 35h132q30 0 30 30v326q0 30 30 30h17q30 0 30 -30v-326zM263 -183q-30 0 -30 30v33q0 30 30 30h33q30 0 30 -30v-33q0 -30 -30 -30h-33zM246 -288q0 -30 -30 -30h-33
q-30 0 -30 30v33q0 30 30 30h33q30 0 30 -30v-33zM73 -120q0 30 30 30h33q30 0 30 -30v-33q0 -30 -30 -30h-33q-30 0 -30 30v33z" />
    <glyph glyph-name="uniFE96" unicode="&#x62a;" horiz-adv-x="1047" arabic-form="final" 
d="M381 0q-73 0 -130 13.5t-96 45t-59.5 83t-20.5 128.5q0 56 16 114q6 26 33 26h16q27 0 27 -24q0 -6 -1 -10q-13 -51 -13 -98q0 -63 14.5 -102.5t43.5 -62t71.5 -31t98.5 -8.5h266q162 0 162 165v191q0 30 30 30h17q30 0 30 -30v-191q0 -165 161 -165v-74q-144 0 -192 104
q-60 -104 -208 -104h-266zM351 593q0 30 30 30h33q30 0 30 -30v-33q0 -30 -30 -30h-33q-30 0 -30 30v33zM574 623q30 0 30 -30v-33q0 -30 -30 -30h-33q-30 0 -30 30v33q0 30 30 30h33z" />
    <glyph glyph-name="uniFE98" unicode="&#x62a;" horiz-adv-x="400" arabic-form="medial" 
d="M400 0q-143 0 -193 104q-29 -51 -81 -77.5t-126 -26.5q-19 0 -31 11t-12 28q0 35 43 35q162 0 162 165v191q0 30 30 30h17q30 0 30 -30v-191q0 -165 161 -165v-74zM326 595q0 -30 -30 -30h-33q-30 0 -30 30v33q0 30 30 30h33q30 0 30 -30v-33zM73 628q0 30 30 30h33
q30 0 30 -30v-33q0 -30 -30 -30h-33q-30 0 -30 30v33z" />
    <glyph glyph-name="uniFE97" unicode="&#x62a;" horiz-adv-x="349" arabic-form="initial" 
d="M-43 39q0 35 43 35h132q30 0 30 30v326q0 30 30 30h17q30 0 30 -30v-326q0 -31 -4.5 -51t-16.5 -32t-33 -16.5t-53 -4.5h-132q-19 0 -31 11t-12 28zM66 628q0 30 30 30h33q30 0 30 -30v-33q0 -30 -30 -30h-33q-30 0 -30 30v33zM256 565q-30 0 -30 30v33q0 30 30 30h33
q30 0 30 -30v-33q0 -30 -30 -30h-33z" />
    <glyph glyph-name="uniFE9A" unicode="&#x62b;" horiz-adv-x="1047" arabic-form="final" 
d="M1047 0q-144 0 -192 104q-60 -104 -208 -104h-266q-73 0 -130 13.5t-96 45t-59.5 83t-20.5 128.5q0 56 16 114q6 26 33 26h16q27 0 27 -24q0 -6 -1 -10q-13 -51 -13 -98q0 -63 14.5 -102.5t43.5 -62t71.5 -31t98.5 -8.5h266q162 0 162 165v191q0 30 30 30h17q30 0 30 -30
v-191q0 -165 161 -165v-74zM580 623q30 0 30 -30v-33q0 -30 -30 -30h-33q-30 0 -30 30v33q0 30 30 30h33zM530 695q0 -30 -30 -30h-33q-30 0 -30 30v33q0 30 30 30h33q30 0 30 -30v-33zM420 623q30 0 30 -30v-33q0 -30 -30 -30h-33q-30 0 -30 30v33q0 30 30 30h33z" />
    <glyph glyph-name="uniFE9C" unicode="&#x62b;" horiz-adv-x="400" arabic-form="medial" 
d="M400 0q-143 0 -193 104q-29 -51 -81 -77.5t-126 -26.5q-19 0 -31 11t-12 28q0 35 43 35q162 0 162 165v191q0 30 30 30h17q30 0 30 -30v-191q0 -165 161 -165v-74zM153 763q0 30 30 30h33q30 0 30 -30v-33q0 -30 -30 -30h-33q-30 0 -30 30v33zM73 628q0 30 30 30h33
q30 0 30 -30v-33q0 -30 -30 -30h-33q-30 0 -30 30v33zM263 565q-30 0 -30 30v33q0 30 30 30h33q30 0 30 -30v-33q0 -30 -30 -30h-33z" />
    <glyph glyph-name="uniFE9B" unicode="&#x62b;" horiz-adv-x="357" arabic-form="initial" 
d="M239 104q0 -31 -4.5 -51t-16.5 -32t-33 -16.5t-53 -4.5h-132q-19 0 -31 11t-12 28q0 35 43 35h132q30 0 30 30v326q0 30 30 30h17q30 0 30 -30v-326zM247 730q0 -30 -30 -30h-33q-30 0 -30 30v33q0 30 30 30h33q30 0 30 -30v-33zM137 658q30 0 30 -30v-33q0 -30 -30 -30
h-33q-30 0 -30 30v33q0 30 30 30h33zM297 658q30 0 30 -30v-33q0 -30 -30 -30h-33q-30 0 -30 30v33q0 30 30 30h33z" />
    <glyph glyph-name="uniFE9E" unicode="&#x62c;" horiz-adv-x="769" arabic-form="final" 
d="M449 404q-38 26 -84.5 36.5t-91.5 10.5q-37 0 -69 -6q-4 -1 -10 -1q-21 0 -26 24l-3 16q-5 30 23 35q21 4 43.5 6t45.5 2q57 0 114 -14t105 -47q54 -36 86.5 -100t49.5 -163q11 -65 21 -97t36 -32h80v-74h-415q-100 0 -144.5 -32.5t-44.5 -102.5t44.5 -103t144.5 -33h74
q30 0 30 -30v-13q0 -30 -30 -30h-74q-131 0 -198.5 53t-67.5 156t67.5 156t198.5 53h226q-9 26 -14 57t-10 60q-15 86 -40 135.5t-67 77.5zM454 -146q0 -30 -30 -30h-33q-30 0 -30 30v33q0 30 30 30h33q30 0 30 -30v-33z" />
    <glyph glyph-name="uniFEA0" unicode="&#x62c;" horiz-adv-x="654" arabic-form="medial" 
d="M406 327q-25 49 -67 77q-38 26 -84.5 36.5t-91.5 10.5q-37 0 -69 -6q-4 -1 -10 -1q-21 0 -26 24l-3 16q-5 30 23 35q21 4 43.5 6t45.5 2q57 0 114 -14t105 -47q54 -36 86.5 -100t49.5 -163q11 -65 21 -97t35 -32h76v-74h-654q-16 0 -27.5 11.5t-11.5 27.5q0 15 11 24.5
t28 10.5h470q-9 26 -14 57t-10 60q-15 86 -40 136zM261 -120q0 30 30 30h33q30 0 30 -30v-33q0 -30 -30 -30h-33q-30 0 -30 30v33z" />
    <glyph glyph-name="uniFE9F" unicode="&#x62c;" horiz-adv-x="674" arabic-form="initial" 
d="M406 327q-25 49 -67 77q-38 26 -84.5 36.5t-91.5 10.5q-37 0 -69 -6q-4 -1 -10 -1q-21 0 -26 24l-3 16q-5 30 23 35q21 4 43.5 6t45.5 2q57 0 114 -14t105 -47q54 -36 86.5 -100t49.5 -163q11 -65 21 -97t35 -32q28 0 28 -28v-16q0 -30 -30 -30h-576q-16 0 -27.5 11.5
t-11.5 27.5q0 15 11 24.5t28 10.5h470q-9 26 -14 57t-10 60q-15 86 -40 136zM313 -90q30 0 30 -30v-33q0 -30 -30 -30h-33q-30 0 -30 30v33q0 30 30 30h33z" />
    <glyph glyph-name="uniFB7B" unicode="&#x686;" horiz-adv-x="769" arabic-form="final" 
d="M583 366q32 -64 49 -163q11 -65 21 -97t36 -32h80v-74h-415q-100 0 -144.5 -32.5t-44.5 -102.5t44.5 -103t144.5 -33h74q30 0 30 -30v-13q0 -30 -30 -30h-74q-131 0 -198.5 53t-67.5 156t67.5 156t198.5 53h226q-9 26 -14 57t-10 60q-15 86 -40 135.5t-67 77.5
q-38 26 -84.5 36.5t-91.5 10.5q-37 0 -69 -6q-4 -1 -10 -1q-21 0 -26 24l-3 16q-5 30 23 35q21 4 43.5 6t45.5 2q57 0 114 -14t105 -47q54 -36 87 -100zM535 -94q0 -24 -24 -24h-26q-24 0 -24 24v27q0 24 24 24h26q24 0 24 -24v-27zM397 -175q0 24 24 24h26q24 0 24 -24v-27
q0 -24 -24 -24h-26q-24 0 -24 24v27zM407 -94q0 -24 -24 -24h-26q-24 0 -24 24v27q0 24 24 24h26q24 0 24 -24v-27z" />
    <glyph glyph-name="uniFB7D" unicode="&#x686;" horiz-adv-x="654" arabic-form="medial" 
d="M654 74v-74h-654q-16 0 -27.5 11.5t-11.5 27.5q0 15 11 24.5t28 10.5h470q-9 26 -14 57t-10 60q-15 86 -40 135.5t-67 77.5q-38 26 -84.5 36.5t-91.5 10.5q-37 0 -69 -6q-4 -1 -10 -1q-21 0 -26 24l-3 16q-5 30 23 35q21 4 43.5 6t45.5 2q57 0 114 -14t105 -47
q54 -36 86.5 -100t49.5 -163q11 -65 21 -97t35 -32h76zM182 -119q0 30 30 30h33q30 0 30 -30v-33q0 -30 -30 -30h-33q-30 0 -30 30v33zM355 -287q0 -30 -30 -30h-33q-30 0 -30 30v33q0 30 30 30h33q30 0 30 -30v-33zM405 -89q30 0 30 -30v-33q0 -30 -30 -30h-33
q-30 0 -30 30v33q0 30 30 30h33z" />
    <glyph glyph-name="uniFB7C" unicode="&#x686;" horiz-adv-x="674" arabic-form="initial" 
d="M578 74q28 0 28 -28v-16q0 -30 -30 -30h-576q-16 0 -27.5 11.5t-11.5 27.5q0 15 11 24.5t28 10.5h470q-9 26 -14 57t-10 60q-15 86 -40 135.5t-67 77.5q-38 26 -84.5 36.5t-91.5 10.5q-37 0 -69 -6q-4 -1 -10 -1q-21 0 -26 24l-3 16q-5 30 23 35q21 4 43.5 6t45.5 2
q57 0 114 -14t105 -47q54 -36 86.5 -100t49.5 -163q11 -65 21 -97t35 -32zM338 -287q0 -30 -30 -30h-33q-30 0 -30 30v33q0 30 30 30h33q30 0 30 -30v-33zM165 -119q0 30 30 30h33q30 0 30 -30v-33q0 -30 -30 -30h-33q-30 0 -30 30v33zM388 -89q30 0 30 -30v-33
q0 -30 -30 -30h-33q-30 0 -30 30v33q0 30 30 30h33z" />
    <glyph glyph-name="uniFEA2" unicode="&#x62d;" horiz-adv-x="769" arabic-form="final" 
d="M583 366q32 -64 49 -163q11 -65 21 -97t36 -32h80v-74h-415q-100 0 -144.5 -32.5t-44.5 -102.5t44.5 -103t144.5 -33h74q30 0 30 -30v-13q0 -30 -30 -30h-74q-131 0 -198.5 53t-67.5 156t67.5 156t198.5 53h226q-9 26 -14 57t-10 60q-15 86 -40 135.5t-67 77.5
q-38 26 -84.5 36.5t-91.5 10.5q-37 0 -69 -6q-4 -1 -10 -1q-21 0 -26 24l-3 16q-5 30 23 35q21 4 43.5 6t45.5 2q57 0 114 -14t105 -47q54 -36 87 -100z" />
    <glyph glyph-name="uniFEA4" unicode="&#x62d;" horiz-adv-x="654" arabic-form="medial" 
d="M0 0q-16 0 -27.5 11.5t-11.5 27.5q0 15 11 24.5t28 10.5h470q-9 26 -14 57t-10 60q-15 86 -40 135.5t-67 77.5q-38 26 -84.5 36.5t-91.5 10.5q-37 0 -69 -6q-4 -1 -10 -1q-21 0 -26 24l-3 16q-5 30 23 35q21 4 43.5 6t45.5 2q57 0 114 -14t105 -47q54 -36 86.5 -100
t49.5 -163q11 -65 21 -97t35 -32h76v-74h-654z" />
    <glyph glyph-name="uniFEA3" unicode="&#x62d;" horiz-adv-x="674" arabic-form="initial" 
d="M606 30q0 -30 -30 -30h-576q-16 0 -27.5 11.5t-11.5 27.5q0 15 11 24.5t28 10.5h470q-9 26 -14 57t-10 60q-15 86 -40 135.5t-67 77.5q-38 26 -84.5 36.5t-91.5 10.5q-37 0 -69 -6q-4 -1 -10 -1q-21 0 -26 24l-3 16q-5 30 23 35q21 4 43.5 6t45.5 2q57 0 114 -14t105 -47
q54 -36 86.5 -100t49.5 -163q11 -65 21 -97t35 -32q28 0 28 -28v-16z" />
    <glyph glyph-name="uniFEA6" unicode="&#x62e;" horiz-adv-x="769" arabic-form="final" 
d="M449 404q-38 26 -84.5 36.5t-91.5 10.5q-37 0 -69 -6q-4 -1 -10 -1q-21 0 -26 24l-3 16q-5 30 23 35q21 4 43.5 6t45.5 2q57 0 114 -14t105 -47q54 -36 86.5 -100t49.5 -163q11 -65 21 -97t36 -32h80v-74h-415q-100 0 -144.5 -32.5t-44.5 -102.5t44.5 -103t144.5 -33h74
q30 0 30 -30v-13q0 -30 -30 -30h-74q-131 0 -198.5 53t-67.5 156t67.5 156t198.5 53h226q-9 26 -14 57t-10 60q-15 86 -40 135.5t-67 77.5zM447 643q0 -30 -30 -30h-33q-30 0 -30 30v33q0 30 30 30h33q30 0 30 -30v-33z" />
    <glyph glyph-name="uniFEA8" unicode="&#x62e;" horiz-adv-x="654" arabic-form="medial" 
d="M406 327q-25 49 -67 77q-38 26 -84.5 36.5t-91.5 10.5q-37 0 -69 -6q-4 -1 -10 -1q-21 0 -26 24l-3 16q-5 30 23 35q21 4 43.5 6t45.5 2q57 0 114 -14t105 -47q54 -36 86.5 -100t49.5 -163q11 -65 21 -97t35 -32h76v-74h-654q-16 0 -27.5 11.5t-11.5 27.5q0 15 11 24.5
t28 10.5h470q-9 26 -14 57t-10 60q-15 86 -40 136zM264 676q0 30 30 30h33q30 0 30 -30v-33q0 -30 -30 -30h-33q-30 0 -30 30v33z" />
    <glyph glyph-name="uniFEA7" unicode="&#x62e;" horiz-adv-x="674" arabic-form="initial" 
d="M406 327q-25 49 -67 77q-38 26 -84.5 36.5t-91.5 10.5q-37 0 -69 -6q-4 -1 -10 -1q-21 0 -26 24l-3 16q-5 30 23 35q21 4 43.5 6t45.5 2q57 0 114 -14t105 -47q54 -36 86.5 -100t49.5 -163q11 -65 21 -97t35 -32q28 0 28 -28v-16q0 -30 -30 -30h-576q-16 0 -27.5 11.5
t-11.5 27.5q0 15 11 24.5t28 10.5h470q-9 26 -14 57t-10 60q-15 86 -40 136zM296 706q30 0 30 -30v-33q0 -30 -30 -30h-33q-30 0 -30 30v33q0 30 30 30h33z" />
    <glyph glyph-name="uniFEAA" unicode="&#x62f;" horiz-adv-x="630" arabic-form="final" 
d="M630 0h-532q-30 0 -30 30v14q0 30 30 30h345v141q0 119 -72 177.5t-222 58.5q-25 0 -25 30v17q0 30 27 30q181 0 275 -80t94 -230v-144h110v-74z" />
    <glyph glyph-name="uniFEAC" unicode="&#x630;" horiz-adv-x="630" arabic-form="final" 
d="M98 0q-30 0 -30 30v14q0 30 30 30h345v141q0 119 -72 177.5t-222 58.5q-25 0 -25 30v17q0 30 27 30q181 0 275 -80t94 -230v-144h110v-74h-532zM248 676q0 30 30 30h33q30 0 30 -30v-33q0 -30 -30 -30h-33q-30 0 -30 30v33z" />
    <glyph glyph-name="uniFEAE" unicode="&#x631;" horiz-adv-x="349" arabic-form="final" 
d="M141 -120q20 24 20 81v469q0 30 30 30h17q30 0 30 -30v-356h111v-74h-111v-39q0 -90 -35.5 -134.5t-110.5 -44.5q-28 0 -63 6q-23 4 -23 26q0 7 1 10l2 11q3 17 12.5 20.5t23.5 3.5q18 -3 34 -3q42 0 62 24z" />
    <glyph glyph-name="uniFEB0" unicode="&#x632;" horiz-adv-x="349" arabic-form="final" 
d="M238 0v-39q0 -90 -35.5 -134.5t-110.5 -44.5q-28 0 -63 6q-23 4 -23 26q0 7 1 10l2 11q3 17 12.5 20.5t23.5 3.5q18 -3 34 -3q42 0 62 24t20 81v469q0 30 30 30h17q30 0 30 -30v-356h111v-74h-111zM153 626q0 30 30 30h33q30 0 30 -30v-33q0 -30 -30 -30h-33
q-30 0 -30 30v33z" />
    <glyph glyph-name="uniFEB2" unicode="&#x633;" horiz-adv-x="1510" arabic-form="final" 
d="M1319 100q-25 -49 -68.5 -74.5t-100.5 -25.5q-115 0 -162 98q-26 -48 -71 -73t-107 -25h-127q-21 -128 -102 -187.5t-203 -59.5q-57 0 -113 14.5t-99.5 48.5t-70.5 91t-27 142q0 72 22 163q7 26 34 26h15q27 0 27 -24q0 -6 -1 -10q-11 -44 -16 -80.5t-5 -68.5
q0 -69 20.5 -113t53.5 -70t75 -36t85 -10q54 0 97 14.5t73.5 45.5t47 80t16.5 119v382q0 30 30 30h17q30 0 30 -30v-393h121q64 0 98 40.5t34 124.5v228q0 30 30 30h17q30 0 30 -30v-228q0 -81 34.5 -123t96.5 -42q56 0 89 40.5t33 124.5v259q0 30 30 30h17q30 0 30 -30
v-259q0 -165 161 -165v-74q-139 0 -191 100z" />
    <glyph glyph-name="uniFEB4" unicode="&#x633;" horiz-adv-x="1060" arabic-form="medial" 
d="M822 498q0 30 30 30h17q30 0 30 -30v-259q0 -165 161 -165v-74q-139 0 -191 100q-25 -49 -68.5 -74.5t-100.5 -25.5q-115 0 -162 98q-25 -48 -68 -73t-100 -25q-118 0 -164 102q-29 -50 -81 -76t-125 -26q-20 0 -31.5 10t-11.5 27t11.5 27t31.5 10q162 0 162 165v228
q0 30 30 30h17q30 0 30 -30v-228q0 -81 34.5 -123t96.5 -42q57 0 89.5 40.5t32.5 124.5v228q0 30 30 30h17q30 0 30 -30v-228q0 -81 34.5 -123t96.5 -42q56 0 89 40.5t33 124.5v259z" />
    <glyph glyph-name="uniFEB3" unicode="&#x633;" horiz-adv-x="967" arabic-form="initial" 
d="M822 498q0 30 30 30h17q30 0 30 -30v-394q0 -31 -4.5 -51t-16.5 -32t-33 -16.5t-53 -4.5h-82q-124 0 -171 98q-26 -48 -69 -73t-100 -25q-118 0 -164 102q-29 -50 -81 -76t-125 -26q-20 0 -31.5 10t-11.5 27t11.5 27t31.5 10q162 0 162 165v228q0 30 30 30h17
q30 0 30 -30v-228q0 -81 34.5 -123t96.5 -42q57 0 89.5 40.5t32.5 124.5v228q0 30 30 30h17q30 0 30 -30v-228q0 -81 36 -123t105 -42h82q30 0 30 30v394z" />
    <glyph glyph-name="uniFEB6" unicode="&#x634;" horiz-adv-x="1510" arabic-form="final" 
d="M139 238q27 0 27 -24q0 -6 -1 -10q-11 -44 -16 -80.5t-5 -68.5q0 -69 20.5 -113t53.5 -70t75 -36t85 -10q54 0 97 14.5t73.5 45.5t47 80t16.5 119v382q0 30 30 30h17q30 0 30 -30v-393h121q64 0 98 40.5t34 124.5v228q0 30 30 30h17q30 0 30 -30v-228q0 -81 34.5 -123
t96.5 -42q56 0 89 40.5t33 124.5v259q0 30 30 30h17q30 0 30 -30v-259q0 -165 161 -165v-74q-139 0 -191 100q-25 -49 -68.5 -74.5t-100.5 -25.5q-115 0 -162 98q-26 -48 -71 -73t-107 -25h-127q-21 -128 -102 -187.5t-203 -59.5q-57 0 -113 14.5t-99.5 48.5t-70.5 91
t-27 142q0 72 22 163q7 26 34 26h15zM835 619q-30 0 -30 30v33q0 30 30 30h33q30 0 30 -30v-33q0 -30 -30 -30h-33zM1158 649q0 -30 -30 -30h-33q-30 0 -30 30v33q0 30 30 30h33q30 0 30 -30v-33zM1028 780q0 -30 -30 -30h-33q-30 0 -30 30v33q0 30 30 30h33q30 0 30 -30
v-33z" />
    <glyph glyph-name="uniFEB8" unicode="&#x634;" horiz-adv-x="1060" arabic-form="medial" 
d="M700 0q-115 0 -162 98q-25 -48 -68 -73t-100 -25q-118 0 -164 102q-29 -50 -81 -76t-125 -26q-20 0 -31.5 10t-11.5 27t11.5 27t31.5 10q162 0 162 165v228q0 30 30 30h17q30 0 30 -30v-228q0 -81 34.5 -123t96.5 -42q57 0 89.5 40.5t32.5 124.5v228q0 30 30 30h17
q30 0 30 -30v-228q0 -81 34.5 -123t96.5 -42q56 0 89 40.5t33 124.5v259q0 30 30 30h17q30 0 30 -30v-259q0 -165 161 -165v-74q-139 0 -191 100q-25 -49 -68.5 -74.5t-100.5 -25.5zM355 682q0 30 30 30h33q30 0 30 -30v-33q0 -30 -30 -30h-33q-30 0 -30 30v33zM678 712
q30 0 30 -30v-33q0 -30 -30 -30h-33q-30 0 -30 30v33q0 30 30 30h33zM515 750q-30 0 -30 30v33q0 30 30 30h33q30 0 30 -30v-33q0 -30 -30 -30h-33z" />
    <glyph glyph-name="uniFEB7" unicode="&#x634;" horiz-adv-x="967" arabic-form="initial" 
d="M792 74q30 0 30 30v394q0 30 30 30h17q30 0 30 -30v-394q0 -31 -4.5 -51t-16.5 -32t-33 -16.5t-53 -4.5h-82q-124 0 -171 98q-26 -48 -69 -73t-100 -25q-118 0 -164 102q-29 -50 -81 -76t-125 -26q-20 0 -31.5 10t-11.5 27t11.5 27t31.5 10q162 0 162 165v228q0 30 30 30
h17q30 0 30 -30v-228q0 -81 34.5 -123t96.5 -42q57 0 89.5 40.5t32.5 124.5v228q0 30 30 30h17q30 0 30 -30v-228q0 -81 36 -123t105 -42h82zM353 682q0 30 30 30h33q30 0 30 -30v-33q0 -30 -30 -30h-33q-30 0 -30 30v33zM513 750q-30 0 -30 30v33q0 30 30 30h33
q30 0 30 -30v-33q0 -30 -30 -30h-33zM643 619q-30 0 -30 30v33q0 30 30 30h33q30 0 30 -30v-33q0 -30 -30 -30h-33z" />
    <glyph glyph-name="uniFEBA" unicode="&#x635;" horiz-adv-x="1476" arabic-form="final" 
d="M1476 0q-143 0 -193 104q-29 -51 -81 -77.5t-126 -26.5h-393q-21 -128 -102 -187.5t-203 -59.5q-57 0 -113 14.5t-99.5 48.5t-70.5 91t-27 142q0 72 22 163q7 26 34 26h15q27 0 27 -24q0 -6 -1 -10q-11 -44 -16 -80.5t-5 -68.5q0 -69 20.5 -113t53.5 -70t75 -36t85 -10
q54 0 97 14.5t73.5 45.5t47 80t16.5 119v413q0 30 30 30h17q30 0 30 -30v-169q42 91 126 145t200 54q66 0 121.5 -21.5t95 -60t61.5 -91.5t22 -116q0 -165 161 -165v-74zM785 362q-45 -42 -70.5 -98t-25.5 -119v-71h387q82 0 122 40t40 125q0 48 -15.5 87t-44 66.5t-70 43
t-93.5 15.5q-67 0 -126.5 -24t-103.5 -65z" />
    <glyph glyph-name="uniFEBC" unicode="&#x635;" horiz-adv-x="952" arabic-form="medial" 
d="M678 27q-52 -27 -126 -27h-552q-20 0 -31.5 10t-11.5 27t11.5 27t31.5 10h90v424q0 30 30 30h16q30 0 30 -30v-168q42 91 125.5 144.5t199.5 53.5q66 0 121.5 -21.5t95 -60t61.5 -91.5t22 -116q0 -165 161 -165v-74q-143 0 -193 104q-29 -51 -81 -77zM699 325
q-15 39 -43 67t-69 43.5t-94 15.5q-65 0 -123.5 -23t-103 -62.5t-71.5 -93t-30 -115.5v-83h387q82 0 122 40t40 125q0 47 -15 86z" />
    <glyph glyph-name="uniFEBB" unicode="&#x635;" horiz-adv-x="859" arabic-form="initial" 
d="M769 355q22 -53 22 -116v-135q0 -31 -4.5 -51t-16.5 -32t-33 -16.5t-53 -4.5h-684q-20 0 -31.5 10t-11.5 27t11.5 27t31.5 10h90v424q0 30 30 30h16q30 0 30 -30v-168q42 91 125.5 144.5t199.5 53.5q66 0 121.5 -21.5t95 -60t61.5 -91.5zM714 239q0 47 -15 86t-43 67
t-69 43.5t-94 15.5q-65 0 -123.5 -23t-103 -62.5t-71.5 -93t-30 -115.5v-83h519q30 0 30 30v135z" />
    <glyph glyph-name="uniFEBE" unicode="&#x636;" horiz-adv-x="1476" arabic-form="final" 
d="M1232 447q39 -39 61 -92t22 -116q0 -165 161 -165v-74q-143 0 -193 104q-29 -51 -81 -77.5t-126 -26.5h-393q-21 -128 -102 -187.5t-203 -59.5q-57 0 -113 14.5t-99.5 48.5t-70.5 91t-27 142q0 72 22 163q7 26 34 26h15q27 0 27 -24q0 -6 -1 -10q-11 -44 -16 -80.5
t-5 -68.5q0 -69 20.5 -113t53.5 -70t75 -36t85 -10q54 0 97 14.5t73.5 45.5t47 80t16.5 119v413q0 30 30 30h17q30 0 30 -30v-169q42 91 126 145t200 54q66 0 121.5 -21.5t95.5 -59.5zM1179 393q-29 27 -70.5 42.5t-93.5 15.5q-67 0 -126.5 -24t-104 -65.5t-70 -97.5
t-25.5 -119v-71h387q82 0 122 40t40 125q0 48 -15.5 87t-43.5 67zM926 676q0 30 30 30h33q30 0 30 -30v-33q0 -30 -30 -30h-33q-30 0 -30 30v33z" />
    <glyph glyph-name="uniFEC0" unicode="&#x636;" horiz-adv-x="952" arabic-form="medial" 
d="M708 447q39 -39 61 -92t22 -116q0 -165 161 -165v-74q-143 0 -193 104q-29 -51 -81 -77.5t-126 -26.5h-552q-20 0 -31.5 10t-11.5 27t11.5 27t31.5 10h90v424q0 30 30 30h16q30 0 30 -30v-168q42 91 125.5 144.5t199.5 53.5q66 0 121.5 -21.5t95.5 -59.5zM656 392
q-28 28 -69 43.5t-94 15.5q-65 0 -123.5 -23t-103 -62.5t-71.5 -93t-30 -115.5v-83h387q82 0 122 40t40 125q0 47 -15 86t-43 67zM387 674q0 30 30 30h33q30 0 30 -30v-33q0 -30 -30 -30h-33q-30 0 -30 30v33z" />
    <glyph glyph-name="uniFEBF" unicode="&#x636;" horiz-adv-x="859" arabic-form="initial" 
d="M0 0q-20 0 -31.5 10t-11.5 27t11.5 27t31.5 10h90v424q0 30 30 30h16q30 0 30 -30v-168q42 91 125.5 144.5t199.5 53.5q66 0 121.5 -21.5t95 -60t61.5 -91.5t22 -116v-135q0 -31 -4.5 -51t-16.5 -32t-33 -16.5t-53 -4.5h-684zM714 239q0 47 -15 86t-43 67t-69 43.5
t-94 15.5q-65 0 -123.5 -23t-103 -62.5t-71.5 -93t-30 -115.5v-83h519q30 0 30 30v135zM450 704q30 0 30 -30v-33q0 -30 -30 -30h-33q-30 0 -30 30v33q0 30 30 30h33z" />
    <glyph glyph-name="uniFEC2" unicode="&#x637;" horiz-adv-x="1061" arabic-form="final" 
d="M878 355q22 -53 22 -116q0 -165 161 -165v-74q-143 0 -193 104q-29 -51 -81 -77.5t-126 -26.5h-563q-30 0 -30 30v14q0 30 30 30h101v630q0 30 30 30h16q30 0 30 -30l-1 -374q43 91 126.5 144.5t199.5 53.5q66 0 121.5 -21.5t95 -60t61.5 -91.5zM808 326
q-16 39 -44.5 66.5t-70 43t-93.5 15.5q-66 0 -124.5 -23t-102.5 -63.5t-70.5 -94t-28.5 -115.5v-81h387q82 0 122 40t40 125q0 48 -15 87z" />
    <glyph glyph-name="uniFEC4" unicode="&#x637;" horiz-adv-x="950" arabic-form="medial" 
d="M676 27q-52 -27 -126 -27h-551q-20 0 -31 10t-11 27t11 26.5t31 10.5h89v630q0 30 30 30h16q30 0 30 -30l-1 -374q43 91 126.5 144.5t199.5 53.5q66 0 121.5 -21.5t95 -60t61.5 -91.5t22 -116q0 -165 161 -165v-74q-143 0 -193 104q-29 -51 -81 -77zM697 326
q-16 39 -44.5 66.5t-70 43t-93.5 15.5q-66 0 -124.5 -23t-102.5 -63.5t-70.5 -94t-28.5 -115.5v-81h387q82 0 122 40t40 125q0 48 -15 87z" />
    <glyph glyph-name="uniFEC3" unicode="&#x637;" horiz-adv-x="857" arabic-form="initial" 
d="M767 355q22 -53 22 -116v-135q0 -31 -4.5 -51t-16.5 -32t-33 -16.5t-53 -4.5h-683q-20 0 -31 10t-11 27t11 26.5t31 10.5h89v630q0 30 30 30h16q30 0 30 -30l-1 -374q43 91 126.5 144.5t199.5 53.5q66 0 121.5 -21.5t95 -60t61.5 -91.5zM712 239q0 48 -15.5 87t-44 66.5
t-70 43t-93.5 15.5q-66 0 -124.5 -23t-102.5 -63.5t-70.5 -94t-28.5 -115.5v-81h519q30 0 30 30v135z" />
    <glyph glyph-name="uniFEC6" unicode="&#x638;" horiz-adv-x="1061" arabic-form="final" 
d="M787 27q-52 -27 -126 -27h-563q-30 0 -30 30v14q0 30 30 30h101v630q0 30 30 30h16q30 0 30 -30l-1 -374q43 91 126.5 144.5t199.5 53.5q66 0 121.5 -21.5t95 -60t61.5 -91.5t22 -116q0 -165 161 -165v-74q-143 0 -193 104q-29 -51 -81 -77zM764 393q-29 27 -70.5 42.5
t-93.5 15.5q-66 0 -124.5 -23t-102.5 -63.5t-70.5 -94t-28.5 -115.5v-81h387q82 0 122 40t40 125q0 48 -15.5 87t-43.5 67zM569 705q30 0 30 -30v-33q0 -30 -30 -30h-33q-30 0 -30 30v33q0 30 30 30h33z" />
    <glyph glyph-name="uniFEC8" unicode="&#x638;" horiz-adv-x="950" arabic-form="medial" 
d="M706 447q39 -39 61 -92t22 -116q0 -165 161 -165v-74q-143 0 -193 104q-29 -51 -81 -77.5t-126 -26.5h-551q-20 0 -31 10t-11 27t11 26.5t31 10.5h89v630q0 30 30 30h16q30 0 30 -30l-1 -374q43 91 126.5 144.5t199.5 53.5q66 0 121.5 -21.5t95.5 -59.5zM653 393
q-29 27 -70.5 42.5t-93.5 15.5q-66 0 -124.5 -23t-102.5 -63.5t-70.5 -94t-28.5 -115.5v-81h387q82 0 122 40t40 125q0 48 -15.5 87t-43.5 67zM459 704q30 0 30 -30v-33q0 -30 -30 -30h-33q-30 0 -30 30v33q0 30 30 30h33z" />
    <glyph glyph-name="uniFEC7" unicode="&#x638;" horiz-adv-x="857" arabic-form="initial" 
d="M-1 0q-20 0 -31 10t-11 27t11 26.5t31 10.5h89v630q0 30 30 30h16q30 0 30 -30l-1 -374q43 91 126.5 144.5t199.5 53.5q66 0 121.5 -21.5t95 -60t61.5 -91.5t22 -116v-135q0 -31 -4.5 -51t-16.5 -32t-33 -16.5t-53 -4.5h-683zM712 239q0 48 -15.5 87t-44 66.5t-70 43
t-93.5 15.5q-66 0 -124.5 -23t-102.5 -63.5t-70.5 -94t-28.5 -115.5v-81h519q30 0 30 30v135zM459 704q30 0 30 -30v-33q0 -30 -30 -30h-33q-30 0 -30 30v33q0 30 30 30h33z" />
    <glyph glyph-name="uniFECA" unicode="&#x639;" horiz-adv-x="780" arabic-form="final" 
d="M492 0q-25 0 -39.5 7.5t-31.5 33.5q-17 -26 -31.5 -33.5t-41.5 -7.5h-14q-100 0 -144.5 -32t-44.5 -103q0 -70 44.5 -103t144.5 -33h74q30 0 30 -30v-13q0 -30 -30 -30h-74q-131 0 -198.5 53t-67.5 156q0 99 62.5 151.5t184.5 57.5l-151 139q-16 16 -15 37q3 63 25 114.5
t58 88t84 56t104 19.5q57 0 105.5 -20t84.5 -56t57.5 -87.5t24.5 -114.5q1 -22 -15 -37l-151 -139h254v-74h-288zM493 437q-34 14 -73 14t-73 -14.5t-60.5 -39.5t-43 -59.5t-19.5 -74.5l196 -185l196 185q-3 40 -19.5 74.5t-43 59.5t-60.5 40z" />
    <glyph glyph-name="uniFECC" unicode="&#x639;" horiz-adv-x="720" arabic-form="medial" 
d="M550 452q36 -36 57.5 -87.5t24.5 -114.5q1 -22 -15 -37l-151 -139h254v-74h-288q-22 0 -37 6t-35 34q-10 -15 -18.5 -23t-17 -11.5t-17 -4.5t-19.5 -1h-288q-19 0 -31 11t-12 28q0 35 43 35h254l-150 139q-16 16 -15 37q3 63 25 114.5t58 88t84 56t104 19.5
q57 0 105.5 -20t84.5 -56zM494 397q-27 25 -61 39.5t-73 14.5t-73 -14.5t-60.5 -39.5t-43 -59.5t-19.5 -74.5l196 -185l196 185q-3 40 -19.5 74.5t-42.5 59.5z" />
    <glyph glyph-name="uniFECB" unicode="&#x639;" horiz-adv-x="586" arabic-form="initial" 
d="M478 443q-7 -20 -25 -20q-6 0 -14 3q-32 13 -60.5 18.5t-57.5 5.5q-42 0 -78 -13.5t-62.5 -39t-41 -61.5t-14.5 -81q0 -46 14.5 -80t41 -56.5t63.5 -33.5t83 -11h161q30 0 30 -30v-14q0 -30 -30 -30h-488q-18 0 -30.5 10.5t-12.5 26.5t12.5 26.5t30.5 10.5h140
q-45 26 -68.5 70t-23.5 111q0 62 22.5 112.5t60.5 86t89 55t108 19.5q69 0 140 -29q19 -9 19 -25q0 -6 -3 -14z" />
    <glyph glyph-name="uniFECE" unicode="&#x63a;" horiz-adv-x="780" arabic-form="final" 
d="M692 250q1 -22 -15 -37l-151 -139h254v-74h-288q-25 0 -39.5 7.5t-31.5 33.5q-17 -26 -31.5 -33.5t-41.5 -7.5h-14q-100 0 -144.5 -32t-44.5 -103q0 -70 44.5 -103t144.5 -33h74q30 0 30 -30v-13q0 -30 -30 -30h-74q-131 0 -198.5 53t-67.5 156q0 99 62.5 151.5
t184.5 57.5l-151 139q-16 16 -15 37q3 63 25 114.5t58 88t84 56t104 19.5q57 0 105.5 -20t84.5 -56t57.5 -87.5t24.5 -114.5zM616 263q-3 40 -19.5 74.5t-43 59.5t-60.5 39.5t-73 14.5t-73 -14.5t-60.5 -39.5t-43 -59.5t-19.5 -74.5l196 -185zM466 643q0 -30 -30 -30h-33
q-30 0 -30 30v33q0 30 30 30h33q30 0 30 -30v-33z" />
    <glyph glyph-name="uniFED0" unicode="&#x63a;" horiz-adv-x="720" arabic-form="medial" 
d="M432 0q-22 0 -37 6t-35 34q-10 -15 -18.5 -23t-17 -11.5t-17 -4.5t-19.5 -1h-288q-19 0 -31 11t-12 28q0 35 43 35h254l-150 139q-16 16 -15 37q3 63 25 114.5t58 88t84 56t104 19.5q57 0 105.5 -20t84.5 -56t57.5 -87.5t24.5 -114.5q1 -22 -15 -37l-151 -139h254v-74
h-288zM433 437q-34 14 -73 14t-73 -14.5t-60.5 -39.5t-43 -59.5t-19.5 -74.5l196 -185l196 185q-3 40 -19.5 74.5t-43 59.5t-60.5 40zM406 643q0 -30 -30 -30h-33q-30 0 -30 30v33q0 30 30 30h33q30 0 30 -30v-33z" />
    <glyph glyph-name="uniFECF" unicode="&#x63a;" horiz-adv-x="586" arabic-form="initial" 
d="M439 426q-32 13 -60.5 18.5t-57.5 5.5q-42 0 -78 -13.5t-62.5 -39t-41 -61.5t-14.5 -81q0 -46 14.5 -80t41 -56.5t63.5 -33.5t83 -11h161q30 0 30 -30v-14q0 -30 -30 -30h-488q-18 0 -30.5 10.5t-12.5 26.5t12.5 26.5t30.5 10.5h140q-45 26 -68.5 70t-23.5 111
q0 62 22.5 112.5t60.5 86t89 55t108 19.5q69 0 140 -29q19 -9 19 -25q0 -6 -3 -14l-6 -17q-7 -20 -25 -20q-6 0 -14 3zM256 676q0 30 30 30h33q30 0 30 -30v-33q0 -30 -30 -30h-33q-30 0 -30 30v33z" />
    <glyph glyph-name="uniFED2" unicode="&#x641;" horiz-adv-x="1177" arabic-form="final" 
d="M1177 0h-797q-61 0 -117 9.5t-98 38t-67 80.5t-25 136q0 54 18 121q6 25 33 25h16q27 0 27 -23q0 -3 -2 -11q-13 -52 -13 -98q0 -70 18.5 -110.5t50 -61.5t72.5 -26.5t87 -5.5h260q-42 37 -59.5 86t-17.5 100q0 50 16.5 98.5t54 86t98 60.5t147.5 23h69q32 0 52 -4.5
t32 -16.5t16.5 -33t4.5 -53v-332q0 -8 -1 -15h125v-74zM966 74q10 0 10 10v357q0 10 -10 10h-89q-68 0 -113.5 -16.5t-73.5 -43t-39.5 -60.5t-11.5 -70q0 -35 11.5 -68.5t39.5 -60t74 -42.5t115 -16h87zM824 706q30 0 30 -30v-33q0 -30 -30 -30h-33q-30 0 -30 30v33
q0 30 30 30h33z" />
    <glyph glyph-name="uniFED4" unicode="&#x641;" horiz-adv-x="681" arabic-form="medial" 
d="M556 507q12 -12 16.5 -33t4.5 -53v-332q0 -8 -1 -15h105v-74h-681q-43 0 -43 36q0 38 43 38h164q-42 37 -59.5 86t-17.5 100q0 50 16.5 98.5t54 86t98 60.5t147.5 23h69q32 0 52 -4.5t32 -16.5zM500 441q0 10 -10 10h-89q-68 0 -113.5 -16.5t-73.5 -43t-39.5 -60.5
t-11.5 -70q0 -35 11.5 -68.5t39.5 -60t74 -42.5t115 -16h87q10 0 10 10v357zM350 706q30 0 30 -30v-33q0 -30 -30 -30h-33q-30 0 -30 30v33q0 30 30 30h33z" />
    <glyph glyph-name="uniFED3" unicode="&#x641;" horiz-adv-x="645" arabic-form="initial" 
d="M556 507q12 -12 16.5 -33t4.5 -53v-317q0 -31 -4.5 -51t-16.5 -32t-32 -16.5t-52 -4.5h-472q-43 0 -43 36q0 38 43 38h164q-42 37 -59.5 86t-17.5 100q0 50 16.5 98.5t54 86t98 60.5t147.5 23h69q32 0 52 -4.5t32 -16.5zM500 441q0 10 -10 10h-89q-68 0 -113.5 -16.5
t-73.5 -43t-39.5 -60.5t-11.5 -70q0 -35 11.5 -68.5t39.5 -60t74 -42.5t115 -16h87q10 0 10 10v357zM286 676q0 30 30 30h33q30 0 30 -30v-33q0 -30 -30 -30h-33q-30 0 -30 30v33z" />
    <glyph glyph-name="uniFB6B" unicode="&#x6a4;" horiz-adv-x="1177" arabic-form="final" 
d="M263 10q-56 9 -98 37.5t-67 80.5t-25 136q0 54 18 121q6 25 33 25h16q27 0 27 -23q0 -3 -2 -11q-13 -52 -13 -98q0 -70 18.5 -110.5t50 -61.5t72.5 -26.5t87 -5.5h260q-42 37 -59.5 86t-17.5 100q0 50 16.5 98.5t54 86t98 60.5t147.5 23h69q32 0 52 -4.5t32 -16.5
t16.5 -33t4.5 -53v-332q0 -8 -1 -15h125v-74h-797q-61 0 -117 10zM877 451q-68 0 -113.5 -16.5t-73.5 -43t-39.5 -60.5t-11.5 -70q0 -35 11.5 -68.5t39.5 -60t74 -42.5t115 -16h87q10 0 10 10v357q0 10 -10 10h-89zM789 748q-30 0 -30 30v33q0 30 30 30h33q30 0 30 -30v-33
q0 -30 -30 -30h-33zM742 706q30 0 30 -30v-33q0 -30 -30 -30h-33q-30 0 -30 30v33q0 30 30 30h33zM869 613q-30 0 -30 30v33q0 30 30 30h33q30 0 30 -30v-33q0 -30 -30 -30h-33z" />
    <glyph glyph-name="uniFB6D" unicode="&#x6a4;" horiz-adv-x="681" arabic-form="medial" 
d="M556 507q12 -12 16.5 -33t4.5 -53v-332q0 -8 -1 -15h105v-74h-681q-43 0 -43 36q0 38 43 38h164q-42 37 -59.5 86t-17.5 100q0 50 16.5 98.5t54 86t98 60.5t147.5 23h69q32 0 52 -4.5t32 -16.5zM500 441q0 10 -10 10h-89q-68 0 -113.5 -16.5t-73.5 -43t-39.5 -60.5
t-11.5 -70q0 -35 11.5 -68.5t39.5 -60t74 -42.5t115 -16h87q10 0 10 10v357zM380 778q0 -30 -30 -30h-33q-30 0 -30 30v33q0 30 30 30h33q30 0 30 -30v-33zM270 706q30 0 30 -30v-33q0 -30 -30 -30h-33q-30 0 -30 30v33q0 30 30 30h33zM367 676q0 30 30 30h33q30 0 30 -30
v-33q0 -30 -30 -30h-33q-30 0 -30 30v33z" />
    <glyph glyph-name="uniFB6C" unicode="&#x6a4;" horiz-adv-x="645" arabic-form="initial" 
d="M556 507q12 -12 16.5 -33t4.5 -53v-317q0 -31 -4.5 -51t-16.5 -32t-32 -16.5t-52 -4.5h-472q-43 0 -43 36q0 38 43 38h164q-42 37 -59.5 86t-17.5 100q0 50 16.5 98.5t54 86t98 60.5t147.5 23h69q32 0 52 -4.5t32 -16.5zM401 451q-68 0 -113.5 -16.5t-73.5 -43
t-39.5 -60.5t-11.5 -70q0 -35 11.5 -68.5t39.5 -60t74 -42.5t115 -16h87q10 0 10 10v357q0 10 -10 10h-89zM269 706q30 0 30 -30v-33q0 -30 -30 -30h-33q-30 0 -30 30v33q0 30 30 30h33zM316 748q-30 0 -30 30v33q0 30 30 30h33q30 0 30 -30v-33q0 -30 -30 -30h-33zM429 706
q30 0 30 -30v-33q0 -30 -30 -30h-33q-30 0 -30 30v33q0 30 30 30h33z" />
    <glyph glyph-name="uni06A1.init" unicode="&#x6a1;" horiz-adv-x="657" 
d="M524 5q-20 -5 -52 -5h-472q-43 0 -43 36q0 38 43 38h164q-42 37 -59.5 86t-17.5 100q0 50 16.5 98.5t54 86t98 60.5t147.5 23h69q32 0 52 -4.5t32 -16.5t16.5 -33t4.5 -53v-317q0 -31 -4.5 -51t-16.5 -32t-32 -16zM163 261q0 -35 11.5 -68.5t39.5 -60t74 -42.5t115 -16
h87q10 0 10 10v357q0 10 -10 10h-89q-68 0 -113.5 -16.5t-73.5 -43t-39.5 -60.5t-11.5 -70z" />
    <glyph glyph-name="uni06A1.medi" unicode="&#x6a1;" horiz-adv-x="681" 
d="M577 89q0 -8 -1 -15h105v-74h-681q-43 0 -43 36q0 38 43 38h164q-42 37 -59.5 86t-17.5 100q0 50 16.5 98.5t54 86t98 60.5t147.5 23h69q32 0 52 -4.5t32 -16.5t16.5 -33t4.5 -53v-332zM175 193q11 -34 39 -60.5t74 -42.5t115 -16h87q10 0 10 10v357q0 10 -10 10h-89
q-68 0 -113.5 -16.5t-73.5 -43t-39.5 -60.5t-11.5 -70q0 -35 12 -68z" />
    <glyph glyph-name="uni06A1.fina" unicode="&#x6a1;" horiz-adv-x="1177" 
d="M1000 524q20 -5 32 -17t16.5 -33t4.5 -53v-332q0 -8 -1 -15h125v-74h-797q-61 0 -117 9.5t-98 38t-67 80.5t-25 136q0 54 18 121q6 25 33 25h16q27 0 27 -23q0 -3 -2 -11q-13 -52 -13 -98q0 -70 18.5 -110.5t50 -61.5t72.5 -26.5t87 -5.5h260q-42 37 -59.5 86t-17.5 100
q0 50 16.5 98.5t54 86t98 60.5t147.5 23h69q32 0 52 -4zM966 74q10 0 10 10v357q0 10 -10 10h-89q-68 0 -113.5 -16.5t-73.5 -43t-39.5 -60.5t-11.5 -70q0 -35 11.5 -68.5t39.5 -60t74 -42.5t115 -16h87z" />
    <glyph glyph-name="uniFED6" unicode="&#x642;" horiz-adv-x="919" arabic-form="final" 
d="M354 357q17 48 54.5 86t97 61t144.5 23h65q32 0 52 -4.5t32 -16.5t16.5 -33t4.5 -53v-346h99v-74h-99q-4 -150 -97 -223.5t-274 -73.5q-80 0 -149 17t-119.5 54.5t-79 96.5t-28.5 142q0 23 2.5 47.5t7.5 50.5q5 27 32 27h17q32 0 27 -33q-4 -23 -6 -43.5t-2 -39.5
q0 -68 22 -114t61 -74.5t94 -41t121 -12.5q76 0 131 12.5t91 39t54 68t20 100.5h-97q-86 0 -145.5 22t-96 58.5t-53 83t-16.5 95.5q0 50 17 98zM745 440q0 10 -10 10h-87q-66 0 -111.5 -16t-73 -42.5t-39.5 -60.5t-12 -69t12 -69t40 -60.5t73.5 -42.5t112.5 -16h95v366z
M672 704q30 0 30 -30v-33q0 -30 -30 -30h-33q-30 0 -30 30v33q0 30 30 30h33zM449 674q0 30 30 30h33q30 0 30 -30v-33q0 -30 -30 -30h-33q-30 0 -30 30v33z" />
    <glyph glyph-name="uniFED8" unicode="&#x642;" horiz-adv-x="681" arabic-form="medial" 
d="M472 528q32 0 52 -4.5t32 -16.5t16.5 -33t4.5 -53v-332q0 -8 -1 -15h105v-74h-681q-43 0 -43 36q0 38 43 38h164q-42 37 -59.5 86t-17.5 100q0 50 16.5 98.5t54 86t98 60.5t147.5 23h69zM490 74q10 0 10 10v357q0 10 -10 10h-89q-68 0 -113.5 -16.5t-73.5 -43
t-39.5 -60.5t-11.5 -70q0 -35 11.5 -68.5t39.5 -60t74 -42.5t115 -16h87zM269 706q30 0 30 -30v-33q0 -30 -30 -30h-33q-30 0 -30 30v33q0 30 30 30h33zM459 643q0 -30 -30 -30h-33q-30 0 -30 30v33q0 30 30 30h33q30 0 30 -30v-33z" />
    <glyph glyph-name="uniFED7" unicode="&#x642;" horiz-adv-x="645" arabic-form="initial" 
d="M577 104q0 -31 -4.5 -51t-16.5 -32t-32 -16.5t-52 -4.5h-472q-43 0 -43 36q0 38 43 38h164q-42 37 -59.5 86t-17.5 100q0 50 16.5 98.5t54 86t98 60.5t147.5 23h69q32 0 52 -4.5t32 -16.5t16.5 -33t4.5 -53v-317zM490 74q10 0 10 10v357q0 10 -10 10h-89
q-68 0 -113.5 -16.5t-73.5 -43t-39.5 -60.5t-11.5 -70q0 -35 11.5 -68.5t39.5 -60t74 -42.5t115 -16h87zM270 706q30 0 30 -30v-33q0 -30 -30 -30h-33q-30 0 -30 30v33q0 30 30 30h33zM460 643q0 -30 -30 -30h-33q-30 0 -30 30v33q0 30 30 30h33q30 0 30 -30v-33z" />
    <glyph glyph-name="uniFEDA" unicode="&#x643;" horiz-adv-x="1047" arabic-form="final" 
d="M856 734q30 0 30 -30v-465q0 -165 161 -165v-74q-143 0 -193 104q-29 -51 -81 -77.5t-126 -26.5h-267q-61 0 -117 9.5t-98 38t-67 80.5t-25 136q0 54 18 121q6 25 33 25h16q27 0 27 -23q0 -3 -2 -11q-13 -52 -13 -98q0 -70 18.5 -110.5t50 -61.5t72.5 -26.5t87 -5.5h267
q162 0 162 165v465q0 30 30 30h17zM497 600q-25 0 -44 -13.5t-19 -41.5q0 -29 19.5 -46t48.5 -17h85q17 0 17 -18v-35q0 -8 -4.5 -13t-12.5 -5h-215q-8 0 -13 5t-5 13v35q0 18 18 18h14q-27 29 -27 75q0 23 10 44.5t27.5 37.5t42 25.5t53.5 9.5q17 0 33 -3.5t33 -10.5
q8 -3 9 -10t-1 -14l-12 -34q-3 -10 -14 -10q-3 0 -9 2q-8 2 -17 4t-17 2z" />
    <glyph glyph-name="uniFEDC" unicode="&#x643;" horiz-adv-x="657" arabic-form="medial" 
d="M505 693q1 -3 1 -9q0 -22 -25 -26q-121 -27 -218 -70t-160 -88q198 -24 297 -95t99 -187v-15q8 -69 49.5 -99t108.5 -30v-74q-140 0 -190 99q-31 -48 -87.5 -73.5t-134.5 -25.5h-245q-20 0 -29.5 11.5t-9.5 25.5t9.5 25.5t29.5 11.5h245q88 0 132.5 36.5t44.5 107.5
q0 90 -89 145t-263 72q-28 1 -31 29l-5 50q-3 23 17 38q86 61 191.5 108.5t224.5 71.5q3 1 9 1q22 0 26 -24z" />
    <glyph glyph-name="uniFEDB" unicode="&#x643;" horiz-adv-x="579" arabic-form="initial" 
d="M478 21q-12 -12 -33 -16.5t-53 -4.5h-392q-20 0 -29.5 11.5t-9.5 25.5t9.5 25.5t29.5 11.5h392q30 0 30 30v44q0 70 -22.5 120.5t-67 84.5t-110 53.5t-152.5 28.5q-28 1 -31 29l-5 50q-3 23 17 38q86 61 191.5 108.5t224.5 71.5q3 1 9 1q22 0 26 -24l3 -16q1 -3 1 -9
q0 -22 -25 -26q-121 -27 -218 -70t-160 -88q98 -12 172.5 -37t124 -67t74.5 -103t25 -145v-44q0 -31 -4.5 -51t-16.5 -32z" />
    <glyph glyph-name="uniFEDE" unicode="&#x644;" horiz-adv-x="801" arabic-form="final" 
d="M801 74v-74h-117q-21 -128 -102 -187.5t-203 -59.5q-57 0 -113 14.5t-99.5 48.5t-70.5 91t-27 142q0 72 22 163q7 26 34 26h15q27 0 27 -24q0 -6 -1 -10q-11 -44 -16 -80.5t-5 -68.5q0 -69 20.5 -113t53.5 -70t75 -36t85 -10q54 0 97 14.5t73.5 45.5t47 80t16.5 119v619
q0 30 30 30h17q30 0 30 -30v-630h111z" />
    <glyph glyph-name="uniFEE0" unicode="&#x644;" horiz-adv-x="400" arabic-form="medial" 
d="M239 239q0 -165 161 -165v-74q-143 0 -193 104q-29 -51 -81 -77.5t-126 -26.5q-20 0 -31.5 10t-11.5 27t11.5 27t31.5 10q162 0 162 165v465q0 30 30 30h17q30 0 30 -30v-465z" />
    <glyph glyph-name="uniFEDF" unicode="&#x644;" horiz-adv-x="307" arabic-form="initial" 
d="M218 21q-12 -12 -33 -16.5t-53 -4.5h-132q-20 0 -31.5 10t-11.5 27t11.5 27t31.5 10h132q30 0 30 30v600q0 30 30 30h17q30 0 30 -30v-600q0 -31 -4.5 -51t-16.5 -32z" />
    <glyph glyph-name="uniFEE2" unicode="&#x645;" horiz-adv-x="888" arabic-form="final" 
d="M278 -178q-21 -33 -53.5 -51t-80.5 -18q-11 0 -23.5 1t-25.5 3q-27 4 -27 33v13q0 28 24 28q10 0 19 -1.5t18 -1.5q65 0 88.5 46.5t23.5 132.5v239q0 62 17 113.5t49 89t77 58.5t100 21q54 0 99 -20.5t77.5 -57t50 -86.5t17.5 -108v-12q0 -7 -1 -13q4 -157 161 -157v-74
q-149 0 -197 114q-33 -56 -87.5 -85.5t-117.5 -29.5q-44 0 -87.5 15t-81.5 46v-53q0 -57 -9.5 -104t-29.5 -81zM555 437q-31 14 -69 14q-40 0 -71 -15t-53 -42t-33 -64.5t-11 -83.5v-105q35 -35 76.5 -52t82.5 -17q35 0 66.5 12t55.5 35.5t38 58t14 78.5q0 42 -11.5 77.5
t-33 62t-51.5 41.5z" />
    <glyph glyph-name="uniFEE4" unicode="&#x645;" horiz-adv-x="778" arabic-form="medial" 
d="M601 364q17 -50 17 -108v-12q0 -7 -1 -13q4 -157 161 -157v-74q-149 0 -197 114q-33 -56 -87.5 -85.5t-117.5 -29.5q-55 0 -109 24t-98 75q0 -1 -0.5 -1t-0.5 -1q-23 -46 -66 -71t-102 -25q-19 0 -31 11t-12 28q0 35 43 35q38 0 66 17t41 47q8 19 12 39t7.5 42t7 46
t10.5 51q26 102 83 157t147 55q54 0 99 -20.5t77.5 -57t50.5 -86.5zM496 396q-22 26 -53 40.5t-69 14.5q-61 0 -97.5 -36t-56.5 -107q-12 -42 -16.5 -75t-11.5 -63q40 -51 87.5 -74t93.5 -23q34 0 64.5 12t53.5 35.5t36.5 57.5t13.5 78q0 42 -11.5 78t-33.5 62z" />
    <glyph glyph-name="uniFEE3" unicode="&#x645;" horiz-adv-x="686" arabic-form="initial" 
d="M545 66q-34 -33 -78 -50t-91 -17q-55 0 -109 24t-98 75q0 -1 -0.5 -1t-0.5 -1q-23 -46 -66 -71t-102 -25q-19 0 -31 11t-12 28q0 35 43 35q38 0 66 17t41 47q8 19 12 39t7.5 42t7 46t10.5 51q26 102 83 157t147 55q54 0 99 -20.5t77.5 -57t50 -86.5t17.5 -108
q0 -61 -20 -109t-53 -81zM496 396q-22 26 -53 40.5t-69 14.5q-61 0 -97.5 -36t-56.5 -107q-12 -42 -16.5 -75t-11.5 -63q40 -51 87.5 -74t93.5 -23q34 0 64.5 12t53.5 35.5t36.5 57.5t13.5 78q0 42 -11.5 78t-33.5 62z" />
    <glyph glyph-name="uniFEE6" unicode="&#x646;" horiz-adv-x="801" arabic-form="final" 
d="M582 -188q-81 -59 -203 -59q-57 0 -113 14.5t-99.5 48.5t-70.5 91t-27 142q0 72 22 163q7 26 34 26h15q27 0 27 -24q0 -6 -1 -10q-11 -44 -16 -80.5t-5 -68.5q0 -69 20.5 -113t53.5 -70t75 -36t85 -10q54 0 97 14.5t73.5 45.5t47 80t16.5 119v295q0 30 30 30h17
q30 0 30 -30v-306h111v-74h-117q-21 -128 -102 -188zM333 437q0 30 30 30h33q30 0 30 -30v-33q0 -30 -30 -30h-33q-30 0 -30 30v33z" />
    <glyph glyph-name="uniFEE8" unicode="&#x646;" horiz-adv-x="400" arabic-form="medial" 
d="M126 27q-52 -27 -126 -27q-19 0 -31 11t-12 28q0 35 43 35q162 0 162 165v191q0 30 30 30h17q30 0 30 -30v-191q0 -165 161 -165v-74q-143 0 -193 104q-29 -51 -81 -77zM217 658q30 0 30 -30v-33q0 -30 -30 -30h-33q-30 0 -30 30v33q0 30 30 30h33z" />
    <glyph glyph-name="uniFEE7" unicode="&#x646;" horiz-adv-x="315" arabic-form="initial" 
d="M-31 11q-12 11 -12 28q0 35 43 35h132q30 0 30 30v326q0 30 30 30h17q30 0 30 -30v-326q0 -31 -4.5 -51t-16.5 -32t-33 -16.5t-53 -4.5h-132q-19 0 -31 11zM217 658q30 0 30 -30v-33q0 -30 -30 -30h-33q-30 0 -30 30v33q0 30 30 30h33z" />
    <glyph glyph-name="uniFEEA" unicode="&#x647;" horiz-adv-x="716" arabic-form="final" 
d="M531 5q-21 4 -33 16t-16.5 32t-4.5 51v17q-27 -49 -74.5 -75t-119.5 -26q-46 0 -85.5 16.5t-68 46.5t-45 73t-16.5 95q0 67 24 118.5t66.5 86t100 52.5t124.5 18q23 0 46.5 -2t47.5 -6v26q0 30 30 30h17q30 0 30 -30v-440q0 -30 30 -30h132v-74h-132q-32 0 -53 5z
M145 249q0 -75 42 -116t116 -41q39 0 71 15t55 42.5t35.5 66t12.5 84.5v147q-46 10 -92 10q-52 0 -96.5 -14t-76 -41t-49.5 -65.5t-18 -87.5z" />
    <glyph glyph-name="uniFEEC" unicode="&#x647;" horiz-adv-x="865" arabic-form="medial" 
d="M680 435q29 -62 29 -137q0 -16 -1 -31t-3 -29q0 -164 161 -164v-74q-155 0 -200 122q-34 -59 -92.5 -90.5t-136.5 -31.5h-437q-16 0 -27.5 11.5t-11.5 27.5q0 15 11 24.5t28 10.5h113q-20 28 -29.5 61.5t-9.5 68.5q0 40 12 78t36 68t60 48t83 18q48 0 83.5 -18t59 -47
t35.5 -66.5t12 -76.5v-133q83 6 130 64.5t47 158.5q0 58 -24 106t-67 83t-102.5 54.5t-130.5 19.5q-42 0 -86 -7t-91 -22q-8 -2 -12 -2q-18 0 -26 21l-5 14q-2 8 -2 12q0 19 21 26q108 34 207 34q87 0 159.5 -25t125 -70t81.5 -107zM314 330q-22 12 -51 12
q-28 0 -49.5 -11.5t-35.5 -30.5t-21.5 -43t-7.5 -49t7.5 -49t22 -43t36 -30.5t50.5 -11.5h115v130q0 26 -7.5 50.5t-22.5 44t-36 31.5z" />
    <glyph glyph-name="uniFEEB" unicode="&#x647;" horiz-adv-x="777" arabic-form="initial" 
d="M608 383q-24 58 -67 98t-102.5 60t-130.5 20q-42 0 -86 -7t-91 -22q-8 -2 -12 -2q-18 0 -26 21l-5 14q-2 8 -2 12q0 19 21 26q108 34 207 34q87 0 159.5 -26t125 -75.5t81.5 -122t29 -165.5v-144q0 -31 -4.5 -51t-16.5 -32t-33 -16.5t-53 -4.5h-602q-16 0 -27.5 11.5
t-11.5 27.5q0 15 11 24.5t28 10.5h113q-20 28 -29.5 61.5t-9.5 68.5q0 40 12 78t36 68t60 48t83 18q48 0 83.5 -18t59 -47t35.5 -66.5t12 -76.5v-134h147q30 0 30 30v144q0 77 -24 135zM350 299q-15 19 -36.5 31t-50.5 12q-28 0 -49.5 -11.5t-35.5 -30.5t-21.5 -43t-7.5 -49
t7.5 -49t22 -43t36 -30.5t50.5 -11.5h115v130q0 26 -7.5 50.5t-22.5 44.5z" />
    <glyph glyph-name="uniFE94" unicode="&#x629;" horiz-adv-x="685" arabic-form="final" 
d="M501 5q-21 4 -33 16t-16.5 32t-4.5 51v17q-27 -49 -74.5 -75t-119.5 -26q-46 0 -85.5 16.5t-68 46.5t-45 73t-16.5 95q0 67 24 118.5t66.5 86t100 52.5t124.5 18q23 0 46.5 -2t47.5 -6v26q0 30 30 30h17q30 0 30 -30v-440q0 -30 30 -30h132v-74h-132q-32 0 -53 5z
M435 216q12 38 12 84v147q-46 10 -92 10q-52 0 -96.5 -14t-76 -41t-49.5 -65.5t-18 -87.5q0 -75 42 -116t116 -41q39 0 71 15t55 42.5t36 66.5zM196 676q0 30 30 30h33q30 0 30 -30v-33q0 -30 -30 -30h-33q-30 0 -30 30v33zM419 706q30 0 30 -30v-33q0 -30 -30 -30h-33
q-30 0 -30 30v33q0 30 30 30h33z" />
    <glyph glyph-name="uniFEEE" unicode="&#x648;" horiz-adv-x="650" arabic-form="final" 
d="M469 -187q-63 -63 -175 -63q-36 0 -80 6q-27 4 -27 32v13q0 17 8.5 22.5t23.5 5.5q17 -2 33 -3t31 -1q87 0 132 40.5t57 134.5h-93q-86 0 -145.5 22t-96 58.5t-53 83t-16.5 95.5q0 50 17 98t54.5 86t97 61t144.5 23h65q32 0 52 -4.5t32 -16.5t16.5 -33t4.5 -53v-346h99
v-74h-103q-15 -124 -78 -187zM476 440q0 10 -10 10h-87q-66 0 -111.5 -16t-73 -42.5t-39.5 -60.5t-12 -69t12 -69t40 -60.5t73.5 -42.5t112.5 -16h95v366z" />
    <glyph glyph-name="uniFE86" unicode="&#x624;" horiz-adv-x="650" arabic-form="final" 
d="M219 -171q17 -2 33 -3t31 -1q87 0 132 40.5t57 134.5h-93q-86 0 -145.5 22t-96 58.5t-53 83t-16.5 95.5q0 50 17 98t54.5 86t97 61t144.5 23h65q32 0 52 -4.5t32 -16.5t16.5 -33t4.5 -53v-346h99v-74h-103q-15 -124 -78 -187t-175 -63q-36 0 -80 6q-27 4 -27 32v13
q0 17 8.5 22.5t23.5 5.5zM379 450q-66 0 -111.5 -16t-73 -42.5t-39.5 -60.5t-12 -69t12 -69t40 -60.5t73.5 -42.5t112.5 -16h95v366q0 10 -10 10h-87zM378 774q-3 -8 -12 -8q-5 0 -8 1q-17 5 -30 5q-22 0 -38.5 -11.5t-16.5 -34.5q0 -24 17 -38t42 -14h74q15 0 15 -15v-29
q0 -15 -15 -15h-187q-15 0 -15 15v29q0 15 15 15h13q-24 23 -24 62q0 20 8.5 37.5t24 31t37 21.5t46.5 8q27 0 57 -12q7 -2 8 -8t-1 -12z" />
    <glyph glyph-name="uniFEF0" unicode="&#x649;" horiz-adv-x="840" arabic-form="final" 
d="M726 -149q12 27 12 66q0 23 -4.5 40t-15 29.5t-28.5 22t-45 16.5q-17 5 -40 10t-66 16q-25 6 -25 27q0 6 1 9l2 14q3 23 26 23q7 0 11 -1q45 -11 83 -20t72.5 -15.5t66 -10t64.5 -3.5v-74q-11 0 -21 0.5t-21 1.5q17 -36 17 -85q0 -56 -19 -96t-59.5 -66t-103 -38
t-148.5 -12h-59q-75 0 -139.5 16.5t-112 53.5t-74.5 95.5t-27 142.5q0 33 4.5 70t14.5 79q6 26 33 26h16q27 0 27 -24q0 -6 -1 -10q-9 -38 -13 -71t-4 -63q0 -69 21 -115t58 -74.5t87.5 -40.5t109.5 -12h59q72 0 120.5 7t78 23t42.5 43z" />
    <glyph glyph-name="uniFEF2" unicode="&#x64a;" horiz-adv-x="840" arabic-form="final" 
d="M726 -149q12 27 12 66q0 23 -4.5 40t-15 29.5t-28.5 22t-45 16.5q-17 5 -40 10t-66 16q-25 6 -25 27q0 6 1 9l2 14q3 23 26 23q7 0 11 -1q45 -11 83 -20t72.5 -15.5t66 -10t64.5 -3.5v-74q-11 0 -21 0.5t-21 1.5q17 -36 17 -85q0 -56 -19 -96t-59.5 -66t-103 -38
t-148.5 -12h-59q-75 0 -139.5 16.5t-112 53.5t-74.5 95.5t-27 142.5q0 33 4.5 70t14.5 79q6 26 33 26h16q27 0 27 -24q0 -6 -1 -10q-9 -38 -13 -71t-4 -63q0 -69 21 -115t58 -74.5t87.5 -40.5t109.5 -12h59q72 0 120.5 7t78 23t42.5 43zM518 -468q-30 0 -30 30v33
q0 30 30 30h33q30 0 30 -30v-33q0 -30 -30 -30h-33zM391 -375q30 0 30 -30v-33q0 -30 -30 -30h-33q-30 0 -30 30v33q0 30 30 30h33z" />
    <glyph glyph-name="uniFEF4" unicode="&#x64a;" horiz-adv-x="400" arabic-form="medial" 
d="M400 0q-143 0 -193 104q-29 -51 -81 -77.5t-126 -26.5q-19 0 -31 11t-12 28q0 35 43 35q162 0 162 165v191q0 30 30 30h17q30 0 30 -30v-191q0 -165 161 -165v-74zM73 -120q0 30 30 30h33q30 0 30 -30v-33q0 -30 -30 -30h-33q-30 0 -30 30v33zM326 -153q0 -30 -30 -30
h-33q-30 0 -30 30v33q0 30 30 30h33q30 0 30 -30v-33z" />
    <glyph glyph-name="uniFEF3" unicode="&#x64a;" horiz-adv-x="319" arabic-form="initial" 
d="M239 104q0 -31 -4.5 -51t-16.5 -32t-33 -16.5t-53 -4.5h-132q-19 0 -31 11t-12 28q0 35 43 35h132q30 0 30 30v326q0 30 30 30h17q30 0 30 -30v-326zM289 -153q0 -30 -30 -30h-33q-30 0 -30 30v33q0 30 30 30h33q30 0 30 -30v-33zM36 -120q0 30 30 30h33q30 0 30 -30v-33
q0 -30 -30 -30h-33q-30 0 -30 30v33z" />
    <glyph glyph-name="uniFE8A" unicode="&#x626;" horiz-adv-x="840" arabic-form="final" 
d="M485 -222q72 0 120.5 7t78 23t42 43t12.5 66q0 23 -4.5 40t-15 29.5t-28.5 22t-45 16.5q-17 5 -40 10t-66 16q-25 6 -25 27q0 6 1 9l2 14q3 23 26 23q7 0 11 -1q45 -11 83 -20t72.5 -15.5t66 -10t64.5 -3.5v-74q-11 0 -21 0.5t-21 1.5q17 -36 17 -85q0 -56 -19 -96
t-59.5 -66t-103 -38t-148.5 -12h-59q-75 0 -139.5 16.5t-112 53.5t-74.5 95.5t-27 142.5q0 33 4.5 70t14.5 79q6 26 33 26h16q27 0 27 -24q0 -6 -1 -10q-9 -38 -13 -71t-4 -63q0 -69 21 -115t58 -74.5t87.5 -40.5t109.5 -12h59zM84 325q-15 0 -15 15v29q0 15 15 15h13
q-24 23 -24 62q0 20 8.5 37.5t24 31t37 21.5t46.5 8q27 0 57 -12q7 -2 8 -8t-1 -12l-10 -28q-3 -8 -12 -8q-5 0 -8 1q-17 5 -30 5q-22 0 -38.5 -11.5t-16.5 -34.5q0 -24 17 -38t42 -14h74q15 0 15 -15v-29q0 -15 -15 -15h-187z" />
    <glyph glyph-name="uniFE8C" unicode="&#x626;" horiz-adv-x="400" arabic-form="medial" 
d="M400 0q-143 0 -193 104q-29 -51 -81 -77.5t-126 -26.5q-19 0 -31 11t-12 28q0 35 43 35q162 0 162 165v191q0 30 30 30h17q30 0 30 -30v-191q0 -165 161 -165v-74zM258 706q-3 -8 -12 -8q-5 0 -8 1q-17 5 -30 5q-22 0 -38.5 -11.5t-16.5 -34.5q0 -24 17 -38t42 -14h74
q15 0 15 -15v-29q0 -15 -15 -15h-187q-15 0 -15 15v29q0 15 15 15h13q-24 23 -24 62q0 20 8.5 37.5t24 31t37 21.5t46.5 8q27 0 57 -12q7 -2 8 -8t-1 -12z" />
    <glyph glyph-name="uniFE8B" unicode="&#x626;" horiz-adv-x="331" arabic-form="initial" 
d="M239 104q0 -31 -4.5 -51t-16.5 -32t-33 -16.5t-53 -4.5h-132q-19 0 -31 11t-12 28q0 35 43 35h132q30 0 30 30v326q0 30 30 30h17q30 0 30 -30v-326zM246 698q-5 0 -8 1q-17 5 -30 5q-22 0 -38.5 -11.5t-16.5 -34.5q0 -24 17 -38t42 -14h74q15 0 15 -15v-29
q0 -15 -15 -15h-187q-15 0 -15 15v29q0 15 15 15h13q-24 23 -24 62q0 20 8.5 37.5t24 31t37 21.5t46.5 8q27 0 57 -12q7 -2 8 -8t-1 -12l-10 -28q-3 -8 -12 -8z" />
    <glyph glyph-name=".notdef" horiz-adv-x="500" 
d="M0 -200v1000h500v-1000h-500zM429 -150l-179 390l-179 -390h358zM250 360l179 390h-358zM222 300l-172 376v-752zM450 676l-172 -376l172 -376v752z" />
    <glyph glyph-name="uni0000" 
 />
    <glyph glyph-name="uni0000" 
 />
    <glyph glyph-name="uni000D" horiz-adv-x="250" 
 />
    <glyph glyph-name="space" unicode=" " horiz-adv-x="200" 
 />
    <glyph glyph-name="uni0000" 
 />
    <glyph glyph-name="uni000D" unicode="&#xd;" horiz-adv-x="250" 
 />
    <glyph glyph-name="uni0621" unicode="&#x621;" horiz-adv-x="610" 
d="M512 95q30 0 30 -30v-10q0 -30 -30 -30q-55 0 -100.5 -3.5t-88 -11t-84.5 -20.5t-90 -33q-7 -3 -15 -3q-17 0 -24 19l-5 14q-3 7 -3 14q0 16 19 25q35 14 64 24q-55 26 -86 71.5t-31 112.5q0 49 18 90t49.5 71t74.5 47t94 17q10 0 34.5 -2.5t49.5 -8.5t44.5 -15.5
t19.5 -24.5q0 -6 -5 -16l-8 -15q-9 -16 -25 -16q-7 0 -15 3q-24 9 -48 14t-47 5q-35 0 -64 -11t-50 -31t-33 -47t-12 -60q0 -45 16.5 -74t41.5 -46t53.5 -24t52.5 -7h11q45 7 91.5 9.5t100.5 2.5z" />
    <glyph glyph-name="uni0627" unicode="&#x627;" horiz-adv-x="257" 
d="M90 704q0 30 30 30h17q30 0 30 -30v-674q0 -30 -30 -30h-17q-30 0 -30 30v674z" />
    <glyph glyph-name="uni0623" unicode="&#x623;" horiz-adv-x="259" 
d="M91 634q0 30 30 30h17q30 0 30 -30v-604q0 -30 -30 -30h-17q-30 0 -30 30v604zM195 910q-3 -8 -12 -8q-5 0 -8 1q-17 5 -30 5q-22 0 -38.5 -11.5t-16.5 -34.5q0 -24 17 -38t42 -14h74q15 0 15 -15v-29q0 -15 -15 -15h-187q-15 0 -15 15v29q0 15 15 15h13q-24 23 -24 62
q0 20 8.5 37.5t24 31t37 21.5t46.5 8q27 0 57 -12q7 -2 8 -8t-1 -12z" />
    <glyph glyph-name="uni0625" unicode="&#x625;" horiz-adv-x="259" 
d="M90 704q0 30 30 30h17q30 0 30 -30v-674q0 -30 -30 -30h-17q-30 0 -30 30v674zM196 -159q-3 -8 -12 -8q-5 0 -8 1q-17 5 -30 5q-22 0 -38.5 -11.5t-16.5 -34.5q0 -24 17 -38t42 -14h74q15 0 15 -15v-29q0 -15 -15 -15h-187q-15 0 -15 15v29q0 15 15 15h13q-24 22 -24 62
q0 19 8.5 37t24 31.5t37 21.5t46.5 8q27 0 57 -12q7 -2 8 -8t-1 -12z" />
    <glyph glyph-name="uni0622" unicode="&#x622;" horiz-adv-x="257" 
d="M90 704q0 30 30 30h17q30 0 30 -30v-674q0 -30 -30 -30h-17q-30 0 -30 30v674zM270 967q6 0 10.5 -4.5t4.5 -10.5v-18q0 -46 -23.5 -72.5t-64.5 -26.5q-34 0 -58 14t-41 25t-27 18.5t-19 7.5q-12 0 -16 -10t-4 -23v-17q0 -6 -4.5 -10.5t-10.5 -4.5h-35q-6 0 -10.5 4.5
t-4.5 10.5v17q0 45 21.5 71t59.5 26q29 0 49 -13t37 -25t31 -19t32 -7q13 0 18.5 7t5.5 27v18q0 6 4.5 10.5t10.5 4.5h34z" />
    <glyph glyph-name="uni066E" unicode="&#x66e;" horiz-adv-x="954" 
d="M91 384q6 26 33 26h16q27 0 27 -24q0 -6 -1 -10q-13 -51 -13 -98q0 -63 14.5 -102.5t43.5 -62t71.5 -31t98.5 -8.5h398q30 0 30 30v326q0 30 30 30h17q30 0 30 -30v-325q0 -31 -4.5 -51.5t-16.5 -32.5t-33 -16.5t-53 -4.5h-398q-73 0 -130 13.5t-96 45t-59.5 83
t-20.5 128.5q0 56 16 114z" />
    <glyph glyph-name="uni0628" unicode="&#x628;" horiz-adv-x="954" 
d="M809 430q0 30 30 30h17q30 0 30 -30v-325q0 -31 -4.5 -51.5t-16.5 -32.5t-33 -16.5t-53 -4.5h-398q-73 0 -130 13.5t-96 45t-59.5 83t-20.5 128.5q0 56 16 114q6 26 33 26h16q27 0 27 -24q0 -6 -1 -10q-13 -51 -13 -98q0 -63 14.5 -102.5t43.5 -62t71.5 -31t98.5 -8.5
h398q30 0 30 30v326zM431 -120q0 30 30 30h33q30 0 30 -30v-33q0 -30 -30 -30h-33q-30 0 -30 30v33z" />
    <glyph glyph-name="uni067E" unicode="&#x67e;" horiz-adv-x="954" 
d="M882 54q-5 -21 -17 -33t-33 -16.5t-53 -4.5h-398q-73 0 -130 13.5t-96 45t-59.5 83t-20.5 128.5q0 56 16 114q6 26 33 26h16q27 0 27 -24q0 -6 -1 -10q-13 -51 -13 -98q0 -63 14.5 -102.5t43.5 -62t71.5 -31t98.5 -8.5h398q30 0 30 30v326q0 30 30 30h17q30 0 30 -30
v-325q0 -31 -4 -51zM524 -288q0 -30 -30 -30h-33q-30 0 -30 30v33q0 30 30 30h33q30 0 30 -30v-33zM414 -90q30 0 30 -30v-33q0 -30 -30 -30h-33q-30 0 -30 30v33q0 30 30 30h33zM574 -90q30 0 30 -30v-33q0 -30 -30 -30h-33q-30 0 -30 30v33q0 30 30 30h33z" />
    <glyph glyph-name="uni062A" unicode="&#x62a;" horiz-adv-x="954" 
d="M381 0q-73 0 -130 13.5t-96 45t-59.5 83t-20.5 128.5q0 56 16 114q6 26 33 26h16q27 0 27 -24q0 -6 -1 -10q-13 -51 -13 -98q0 -63 14.5 -102.5t43.5 -62t71.5 -31t98.5 -8.5h398q30 0 30 30v326q0 30 30 30h17q30 0 30 -30v-325q0 -31 -4.5 -51.5t-16.5 -32.5t-33 -16.5
t-53 -4.5h-398zM414 623q30 0 30 -30v-33q0 -30 -30 -30h-33q-30 0 -30 30v33q0 30 30 30h33zM511 593q0 30 30 30h33q30 0 30 -30v-33q0 -30 -30 -30h-33q-30 0 -30 30v33z" />
    <glyph glyph-name="uni062B" unicode="&#x62b;" horiz-adv-x="954" 
d="M882 54q-5 -21 -17 -33t-33 -16.5t-53 -4.5h-398q-73 0 -130 13.5t-96 45t-59.5 83t-20.5 128.5q0 56 16 114q6 26 33 26h16q27 0 27 -24q0 -6 -1 -10q-13 -51 -13 -98q0 -63 14.5 -102.5t43.5 -62t71.5 -31t98.5 -8.5h398q30 0 30 30v326q0 30 30 30h17q30 0 30 -30
v-325q0 -31 -4 -51zM580 623q30 0 30 -30v-33q0 -30 -30 -30h-33q-30 0 -30 30v33q0 30 30 30h33zM530 695q0 -30 -30 -30h-33q-30 0 -30 30v33q0 30 30 30h33q30 0 30 -30v-33zM357 593q0 30 30 30h33q30 0 30 -30v-33q0 -30 -30 -30h-33q-30 0 -30 30v33z" />
    <glyph glyph-name="uni062C" unicode="&#x62c;" horiz-adv-x="785" 
d="M449 404q-38 26 -84.5 36.5t-91.5 10.5q-37 0 -69 -6q-4 -1 -10 -1q-21 0 -26 24l-3 16q-5 30 23 35q21 4 43.5 6t45.5 2q57 0 114 -14t105 -47q54 -36 86.5 -100t49.5 -163q11 -65 21 -97t36 -32q28 0 28 -28v-16q0 -30 -30 -30h-333q-100 0 -144.5 -32.5t-44.5 -102.5
t44.5 -103t144.5 -33h74q30 0 30 -30v-13q0 -30 -30 -30h-74q-131 0 -198.5 53t-67.5 156t67.5 156t198.5 53h226q-9 26 -14 57t-10 60q-15 86 -40 135.5t-67 77.5zM454 -146q0 -30 -30 -30h-33q-30 0 -30 30v33q0 30 30 30h33q30 0 30 -30v-33z" />
    <glyph glyph-name="uni0686" unicode="&#x686;" horiz-adv-x="785" 
d="M583 366q32 -64 49 -163q11 -65 21 -97t36 -32q28 0 28 -28v-16q0 -30 -30 -30h-333q-100 0 -144.5 -32.5t-44.5 -102.5t44.5 -103t144.5 -33h74q30 0 30 -30v-13q0 -30 -30 -30h-74q-131 0 -198.5 53t-67.5 156t67.5 156t198.5 53h226q-9 26 -14 57t-10 60
q-15 86 -40 135.5t-67 77.5q-38 26 -84.5 36.5t-91.5 10.5q-37 0 -69 -6q-4 -1 -10 -1q-21 0 -26 24l-3 16q-5 30 23 35q21 4 43.5 6t45.5 2q57 0 114 -14t105 -47q54 -36 87 -100zM535 -94q0 -24 -24 -24h-26q-24 0 -24 24v27q0 24 24 24h26q24 0 24 -24v-27zM447 -151
q24 0 24 -24v-27q0 -24 -24 -24h-26q-24 0 -24 24v27q0 24 24 24h26zM407 -94q0 -24 -24 -24h-26q-24 0 -24 24v27q0 24 24 24h26q24 0 24 -24v-27z" />
    <glyph glyph-name="uni062D" unicode="&#x62d;" horiz-adv-x="785" 
d="M583 366q32 -64 49 -163q11 -65 21 -97t36 -32q28 0 28 -28v-16q0 -30 -30 -30h-333q-100 0 -144.5 -32.5t-44.5 -102.5t44.5 -103t144.5 -33h74q30 0 30 -30v-13q0 -30 -30 -30h-74q-131 0 -198.5 53t-67.5 156t67.5 156t198.5 53h226q-9 26 -14 57t-10 60
q-15 86 -40 135.5t-67 77.5q-38 26 -84.5 36.5t-91.5 10.5q-37 0 -69 -6q-4 -1 -10 -1q-21 0 -26 24l-3 16q-5 30 23 35q21 4 43.5 6t45.5 2q57 0 114 -14t105 -47q54 -36 87 -100z" />
    <glyph glyph-name="uni062E" unicode="&#x62e;" horiz-adv-x="785" 
d="M449 404q-38 26 -84.5 36.5t-91.5 10.5q-37 0 -69 -6q-4 -1 -10 -1q-21 0 -26 24l-3 16q-5 30 23 35q21 4 43.5 6t45.5 2q57 0 114 -14t105 -47q54 -36 86.5 -100t49.5 -163q11 -65 21 -97t36 -32q28 0 28 -28v-16q0 -30 -30 -30h-333q-100 0 -144.5 -32.5t-44.5 -102.5
t44.5 -103t144.5 -33h74q30 0 30 -30v-13q0 -30 -30 -30h-74q-131 0 -198.5 53t-67.5 156t67.5 156t198.5 53h226q-9 26 -14 57t-10 60q-15 86 -40 135.5t-67 77.5zM439 643q0 -30 -30 -30h-33q-30 0 -30 30v33q0 30 30 30h33q30 0 30 -30v-33z" />
    <glyph glyph-name="uni062F" unicode="&#x62f;" horiz-adv-x="588" 
d="M124 498q0 30 27 30q181 0 275 -80t94 -230v-114q0 -31 -4.5 -51t-16.5 -32t-33 -16.5t-53 -4.5h-315q-30 0 -30 30v14q0 30 30 30h315q30 0 30 30v111q0 119 -72 177.5t-222 58.5q-25 0 -25 30v17z" />
    <glyph glyph-name="uni0630" unicode="&#x630;" horiz-adv-x="588" 
d="M520 104q0 -31 -4.5 -51t-16.5 -32t-33 -16.5t-53 -4.5h-315q-30 0 -30 30v14q0 30 30 30h315q30 0 30 30v111q0 119 -72 177.5t-222 58.5q-25 0 -25 30v17q0 30 27 30q181 0 275 -80t94 -230v-114zM248 676q0 30 30 30h33q30 0 30 -30v-33q0 -30 -30 -30h-33
q-30 0 -30 30v33z" />
    <glyph glyph-name="uni0631" unicode="&#x631;" horiz-adv-x="306" 
d="M203 -174q-36 -44 -111 -44q-28 0 -63 6q-23 4 -23 26q0 7 1 10l2 11q3 17 12.5 20.5t23.5 3.5q18 -3 34 -3q42 0 62 24t20 81v469q0 30 30 30h17q30 0 30 -30v-469q0 -90 -35 -135z" />
    <glyph glyph-name="uni0632" unicode="&#x632;" horiz-adv-x="311" 
d="M22 -145q9 4 23 4q18 -3 34 -3q42 0 62 24t20 81v469q0 30 30 30h17q30 0 30 -30v-469q0 -90 -35.5 -134.5t-110.5 -44.5q-28 0 -63 6q-23 4 -23 26q0 7 1 10l2 11q3 17 13 20zM213 656q30 0 30 -30v-33q0 -30 -30 -30h-33q-30 0 -30 30v33q0 30 30 30h33z" />
    <glyph glyph-name="uni0633" unicode="&#x633;" horiz-adv-x="1417" 
d="M1349 104q0 -31 -4.5 -51t-16.5 -32t-33 -16.5t-53 -4.5h-82q-123 0 -172 99q-26 -48 -71 -73.5t-107 -25.5h-127q-21 -128 -102 -187.5t-203 -59.5q-57 0 -113 14.5t-99.5 48.5t-70.5 91t-27 142q0 72 22 163q7 26 34 26h15q27 0 27 -24q0 -6 -1 -10q-11 -44 -16 -80.5
t-5 -68.5q0 -69 20.5 -113t53.5 -70t75 -36t85 -10q54 0 97 14.5t73.5 45.5t47 80t16.5 119v382q0 30 30 30h17q30 0 30 -30v-393h121q64 0 98 40.5t34 124.5v228q0 30 30 30h17q30 0 30 -30v-228q0 -81 36 -123t105 -42h82q30 0 30 30v394q0 30 30 30h17q30 0 30 -30v-394z
" />
    <glyph glyph-name="uni0634" unicode="&#x634;" horiz-adv-x="1417" 
d="M139 238q27 0 27 -24q0 -6 -1 -10q-11 -44 -16 -80.5t-5 -68.5q0 -69 20.5 -113t53.5 -70t75 -36t85 -10q54 0 97 14.5t73.5 45.5t47 80t16.5 119v382q0 30 30 30h17q30 0 30 -30v-393h121q64 0 98 40.5t34 124.5v228q0 30 30 30h17q30 0 30 -30v-228q0 -81 36 -123
t105 -42h82q30 0 30 30v394q0 30 30 30h17q30 0 30 -30v-394q0 -31 -4.5 -51t-16.5 -32t-33 -16.5t-53 -4.5h-82q-123 0 -172 99q-26 -48 -71 -73.5t-107 -25.5h-127q-21 -128 -102 -187.5t-203 -59.5q-57 0 -113 14.5t-99.5 48.5t-70.5 91t-27 142q0 72 22 163q7 26 34 26
h15zM835 619q-30 0 -30 30v33q0 30 30 30h33q30 0 30 -30v-33q0 -30 -30 -30h-33zM1065 682q0 30 30 30h33q30 0 30 -30v-33q0 -30 -30 -30h-33q-30 0 -30 30v33zM965 750q-30 0 -30 30v33q0 30 30 30h33q30 0 30 -30v-33q0 -30 -30 -30h-33z" />
    <glyph glyph-name="uni0635" unicode="&#x635;" horiz-adv-x="1383" 
d="M1311 53q-5 -20 -17 -32t-33 -16.5t-53 -4.5h-525q-21 -128 -102 -187.5t-203 -59.5q-57 0 -113 14.5t-99.5 48.5t-70.5 91t-27 142q0 72 22 163q7 26 34 26h15q27 0 27 -24q0 -6 -1 -10q-11 -44 -16 -80.5t-5 -68.5q0 -69 20.5 -113t53.5 -70t75 -36t85 -10
q54 0 97 14.5t73.5 45.5t47 80t16.5 119v413q0 30 30 30h17q30 0 30 -30v-169q42 91 126 145t200 54q66 0 121.5 -21.5t95 -60t61.5 -91.5t22 -116v-135q0 -31 -4 -51zM785 362q-45 -42 -70.5 -98t-25.5 -119v-71h519q30 0 30 30v135q0 48 -15.5 87t-44 66.5t-70 43
t-93.5 15.5q-67 0 -126.5 -24t-103.5 -65z" />
    <glyph glyph-name="uni0636" unicode="&#x636;" horiz-adv-x="1383" 
d="M683 0q-21 -128 -102 -187.5t-203 -59.5q-57 0 -113 14.5t-99.5 48.5t-70.5 91t-27 142q0 72 22 163q7 26 34 26h15q27 0 27 -24q0 -6 -1 -10q-11 -44 -16 -80.5t-5 -68.5q0 -69 20.5 -113t53.5 -70t75 -36t85 -10q54 0 97 14.5t73.5 45.5t47 80t16.5 119v413q0 30 30 30
h17q30 0 30 -30v-169q42 91 126 145t200 54q66 0 121.5 -21.5t95 -60t61.5 -91.5t22 -116v-135q0 -31 -4.5 -51t-16.5 -32t-33 -16.5t-53 -4.5h-525zM1238 239q0 48 -15.5 87t-44 66.5t-70 43t-93.5 15.5q-67 0 -126.5 -24t-104 -65.5t-70 -97.5t-25.5 -119v-71h519
q30 0 30 30v135zM927 676q0 30 30 30h33q30 0 30 -30v-33q0 -30 -30 -30h-33q-30 0 -30 30v33z" />
    <glyph glyph-name="uni0637" unicode="&#x637;" horiz-adv-x="968" 
d="M846 5q-21 -5 -53 -5h-695q-30 0 -30 30v14q0 30 30 30h101v630q0 30 30 30h16q30 0 30 -30l-1 -374q43 91 126.5 144.5t199.5 53.5q66 0 121.5 -21.5t95 -60t61.5 -91.5t22 -116v-135q0 -31 -4.5 -51t-16.5 -32t-33 -16zM823 239q0 48 -15.5 87t-44 66.5t-70 43
t-93.5 15.5q-66 0 -124.5 -23t-102.5 -63.5t-70.5 -94t-28.5 -115.5v-81h519q30 0 30 30v135z" />
    <glyph glyph-name="uni0638" unicode="&#x638;" horiz-adv-x="968" 
d="M98 0q-30 0 -30 30v14q0 30 30 30h101v630q0 30 30 30h16q30 0 30 -30l-1 -374q43 91 126.5 144.5t199.5 53.5q66 0 121.5 -21.5t95 -60t61.5 -91.5t22 -116v-135q0 -31 -4.5 -51t-16.5 -32t-33 -16.5t-53 -4.5h-695zM808 326q-16 39 -44.5 66.5t-70 43t-93.5 15.5
q-66 0 -124.5 -23t-102.5 -63.5t-70.5 -94t-28.5 -115.5v-81h519q30 0 30 30v135q0 48 -15 87zM569 705q30 0 30 -30v-33q0 -30 -30 -30h-33q-30 0 -30 30v33q0 30 30 30h33z" />
    <glyph glyph-name="uni0639" unicode="&#x639;" horiz-adv-x="686" 
d="M553 423q-6 0 -14 3q-32 13 -60.5 18.5t-57.5 5.5q-42 0 -78 -13.5t-62.5 -39t-41 -61.5t-14.5 -81q0 -46 14.5 -80t41 -56.5t63.5 -33.5t83 -11h161q30 0 30 -30v-14q0 -30 -30 -30h-254q-100 0 -144.5 -32t-44.5 -103q0 -70 44.5 -103t144.5 -33h74q30 0 30 -30v-13
q0 -30 -30 -30h-74q-131 0 -198.5 53t-67.5 156q0 171 184 203q-51 24 -77.5 69.5t-26.5 117.5q0 62 22.5 112.5t60.5 86t89 55t108 19.5q69 0 140 -29q19 -9 19 -25q0 -6 -3 -14l-6 -17q-7 -20 -25 -20z" />
    <glyph glyph-name="uni063A" unicode="&#x63a;" horiz-adv-x="686" 
d="M421 450q-42 0 -78 -13.5t-62.5 -39t-41 -61.5t-14.5 -81q0 -46 14.5 -80t41 -56.5t63.5 -33.5t83 -11h161q30 0 30 -30v-14q0 -30 -30 -30h-254q-100 0 -144.5 -32t-44.5 -103q0 -70 44.5 -103t144.5 -33h74q30 0 30 -30v-13q0 -30 -30 -30h-74q-131 0 -198.5 53
t-67.5 156q0 171 184 203q-51 24 -77.5 69.5t-26.5 117.5q0 62 22.5 112.5t60.5 86t89 55t108 19.5q69 0 140 -29q19 -9 19 -25q0 -6 -3 -14l-6 -17q-7 -20 -25 -20q-6 0 -14 3q-32 13 -60.5 18.5t-57.5 5.5zM387 613q-30 0 -30 30v33q0 30 30 30h33q30 0 30 -30v-33
q0 -30 -30 -30h-33z" />
    <glyph glyph-name="uni0641" unicode="&#x641;" horiz-adv-x="1121" 
d="M1032 21q-12 -12 -32 -16.5t-52 -4.5h-568q-61 0 -117 9.5t-98 38t-67 80.5t-25 136q0 54 18 121q6 25 33 25h16q27 0 27 -23q0 -3 -2 -11q-13 -52 -13 -98q0 -70 18.5 -110.5t50 -61.5t72.5 -26.5t87 -5.5h260q-42 37 -59.5 86t-17.5 100q0 50 16.5 98.5t54 86t98 60.5
t147.5 23h69q32 0 52 -4.5t32 -16.5t16.5 -33t4.5 -53v-317q0 -31 -4.5 -51t-16.5 -32zM966 74q10 0 10 10v357q0 10 -10 10h-89q-68 0 -113.5 -16.5t-73.5 -43t-39.5 -60.5t-11.5 -70q0 -35 11.5 -68.5t39.5 -60t74 -42.5t115 -16h87zM824 706q30 0 30 -30v-33
q0 -30 -30 -30h-33q-30 0 -30 30v33q0 30 30 30h33z" />
    <glyph glyph-name="uni06A4" unicode="&#x6a4;" horiz-adv-x="1121" 
d="M640 74q-42 37 -59.5 86t-17.5 100q0 50 16.5 98.5t54 86t98 60.5t147.5 23h69q32 0 52 -4.5t32 -16.5t16.5 -33t4.5 -53v-317q0 -31 -4.5 -51t-16.5 -32t-32 -16.5t-52 -4.5h-568q-61 0 -117 9.5t-98 38t-67 80.5t-25 136q0 54 18 121q6 25 33 25h16q27 0 27 -23
q0 -3 -2 -11q-13 -52 -13 -98q0 -70 18.5 -110.5t50 -61.5t72.5 -26.5t87 -5.5h260zM877 451q-68 0 -113.5 -16.5t-73.5 -43t-39.5 -60.5t-11.5 -70q0 -35 11.5 -68.5t39.5 -60t74 -42.5t115 -16h87q10 0 10 10v357q0 10 -10 10h-89zM870 613q-30 0 -30 30v33q0 30 30 30h33
q30 0 30 -30v-33q0 -30 -30 -30h-33zM773 643q0 -30 -30 -30h-33q-30 0 -30 30v33q0 30 30 30h33q30 0 30 -30v-33zM790 748q-30 0 -30 30v33q0 30 30 30h33q30 0 30 -30v-33q0 -30 -30 -30h-33z" />
    <glyph glyph-name="uni06A1" unicode="&#x6a1;" horiz-adv-x="1121" 
d="M948 528q32 0 52 -4.5t32 -16.5t16.5 -33t4.5 -53v-317q0 -31 -4.5 -51t-16.5 -32t-32 -16.5t-52 -4.5h-568q-61 0 -117 9.5t-98 38t-67 80.5t-25 136q0 54 18 121q6 25 33 25h16q27 0 27 -23q0 -3 -2 -11q-13 -52 -13 -98q0 -70 18.5 -110.5t50 -61.5t72.5 -26.5
t87 -5.5h260q-42 37 -59.5 86t-17.5 100q0 50 16.5 98.5t54 86t98 60.5t147.5 23h69zM877 451q-68 0 -113.5 -16.5t-73.5 -43t-39.5 -60.5t-11.5 -70q0 -35 11.5 -68.5t39.5 -60t74 -42.5t115 -16h87q10 0 10 10v357q0 10 -10 10h-89z" />
    <glyph glyph-name="uni0642" unicode="&#x642;" horiz-adv-x="888" 
d="M675 -166q36 28 53 72t17 107v92q-29 -48 -76.5 -76.5t-110.5 -28.5q-46 0 -86.5 19t-70.5 53t-47 79.5t-17 99.5q0 60 19.5 110.5t59 87t98 57.5t136.5 21h65q32 0 52 -4.5t32 -16.5t16.5 -33t4.5 -53v-407q0 -157 -93 -233.5t-278 -76.5q-80 0 -149 17t-119.5 54.5
t-79 96.5t-28.5 142q0 23 2.5 47.5t7.5 50.5q5 27 32 27h17q32 0 27 -33q-4 -23 -6 -43.5t-2 -39.5q0 -68 22 -114t61 -74.5t94 -41t121 -12.5q78 0 134 13t92 41zM543 435q-45 -15 -73.5 -41t-42.5 -62.5t-14 -79.5q0 -39 12.5 -72t35 -56.5t53 -36.5t66.5 -13
q32 0 60.5 12.5t50.5 33.5t36.5 50t17.5 62v208q0 10 -10 10h-87q-61 0 -105 -15zM449 676q0 30 30 30h33q30 0 30 -30v-33q0 -30 -30 -30h-33q-30 0 -30 30v33zM639 613q-30 0 -30 30v33q0 30 30 30h33q30 0 30 -30v-33q0 -30 -30 -30h-33z" />
    <glyph glyph-name="uni0643" unicode="&#x643;" horiz-adv-x="954" 
d="M809 704q0 30 30 30h17q30 0 30 -30v-600q0 -31 -4.5 -51t-16.5 -32t-33 -16.5t-53 -4.5h-399q-61 0 -117 9.5t-98 38t-67 80.5t-25 136q0 54 18 121q6 25 33 25h16q27 0 27 -23q0 -3 -2 -11q-13 -52 -13 -98q0 -70 18.5 -110.5t50 -61.5t72.5 -26.5t87 -5.5h399
q30 0 30 30v600zM587 482q17 0 17 -18v-35q0 -8 -4.5 -13t-12.5 -5h-215q-8 0 -13 5t-5 13v35q0 18 18 18h14q-27 29 -27 75q0 23 10 44.5t27.5 37.5t42 25.5t53.5 9.5q17 0 33 -3.5t33 -10.5q8 -3 9 -10t-1 -14l-12 -34q-3 -10 -14 -10q-3 0 -9 2q-8 2 -17 4t-17 2
q-25 0 -44 -13.5t-19 -41.5q0 -29 19.5 -46t48.5 -17h85z" />
    <glyph glyph-name="uni0644" unicode="&#x644;" horiz-adv-x="758" 
d="M690 85q0 -86 -22 -148.5t-63 -103.5t-98 -60.5t-128 -19.5q-57 0 -113 14.5t-99.5 48.5t-70.5 91t-27 142q0 72 22 163q7 26 34 26h15q27 0 27 -24q0 -6 -1 -10q-11 -44 -16 -80.5t-5 -68.5q0 -69 20.5 -113t53.5 -70t75 -36t85 -10q54 0 97 14.5t73.5 45.5t47 80
t16.5 119v619q0 30 30 30h17q30 0 30 -30v-619z" />
    <glyph glyph-name="uni0645" unicode="&#x645;" horiz-adv-x="796" 
d="M577 16q-44 -17 -91 -17q-44 0 -87.5 15t-81.5 46v-53q0 -57 -9.5 -104t-30 -80.5t-53 -51.5t-80.5 -18q-11 0 -23.5 1t-25.5 3q-27 4 -27 33v13q0 28 24 28q10 0 19 -1.5t18 -1.5q65 0 88.5 46.5t23.5 132.5v239q0 62 17 113.5t49 89t77 58.5t100 21q54 0 99 -20.5
t77.5 -57t50 -86.5t17.5 -108q0 -61 -20 -109t-53.5 -81t-77.5 -50zM599 120q24 23 38 57.5t14 78.5q0 42 -11.5 77.5t-33 62t-52 41t-68.5 14.5q-40 0 -71 -15t-53 -42t-33 -64.5t-11 -83.5v-105q35 -35 76.5 -52t82.5 -17q35 0 66.5 12t55.5 36z" />
    <glyph glyph-name="uni0646" unicode="&#x646;" horiz-adv-x="758" 
d="M597 -34q16 49 16 119v295q0 30 30 30h17q30 0 30 -30v-295q0 -86 -22 -148.5t-63 -103.5t-98 -60.5t-128 -19.5q-57 0 -113 14.5t-99.5 48.5t-70.5 91t-27 142q0 72 22 163q7 26 34 26h15q27 0 27 -24q0 -6 -1 -10q-11 -44 -16 -80.5t-5 -68.5q0 -69 20.5 -113t53.5 -70
t75 -36t85 -10q54 0 97 14.5t73.5 45.5t47.5 80zM333 437q0 30 30 30h33q30 0 30 -30v-33q0 -30 -30 -30h-33q-30 0 -30 30v33z" />
    <glyph glyph-name="uni0647" unicode="&#x647;" horiz-adv-x="626" 
d="M497 82q-31 -37 -77 -59.5t-108 -22.5q-61 0 -107 22.5t-76.5 59t-45.5 83t-15 95.5q0 50 15.5 98.5t46.5 86t77 60.5t107 23t106.5 -22.5t76 -60t46 -85t15.5 -97.5q0 -49 -15.5 -96.5t-45.5 -84.5zM481 258q0 36 -10.5 70.5t-32 62t-53 44t-73.5 16.5t-73.5 -16.5
t-52.5 -43t-31.5 -60.5t-10.5 -70q0 -35 10.5 -68.5t31.5 -60t53 -42.5t75 -16q42 0 73.5 16t52.5 41.5t31 59t10 67.5z" />
    <glyph glyph-name="uni0629" unicode="&#x629;" horiz-adv-x="626" 
d="M420 23q-46 -23 -108 -23q-61 0 -107 22.5t-76.5 59t-45.5 83t-15 95.5q0 50 15.5 98.5t46.5 86t77 60.5t107 23t106.5 -22.5t76 -60t46 -85t15.5 -97.5q0 -49 -15.5 -96.5t-46 -84.5t-76.5 -59zM386 435q-32 16 -74 16t-73.5 -16.5t-52.5 -43t-31.5 -60.5t-10.5 -70
q0 -35 10.5 -68.5t31.5 -60t53 -42.5t75 -16q42 0 73.5 16t52.5 41.5t31 59t10 67.5q0 36 -10.5 70.5t-32 62t-52.5 44.5zM383 613q-30 0 -30 30v33q0 30 30 30h33q30 0 30 -30v-33q0 -30 -30 -30h-33zM256 706q30 0 30 -30v-33q0 -30 -30 -30h-33q-30 0 -30 30v33
q0 30 30 30h33z" />
    <glyph glyph-name="uni0648" unicode="&#x648;" horiz-adv-x="619" 
d="M465 -38q11 48 11 116v27q-29 -48 -76.5 -76.5t-110.5 -28.5q-46 0 -86.5 19t-70.5 53t-47 79.5t-17 99.5q0 60 19.5 110.5t59 87t98 57.5t136.5 21h65q32 0 52 -4.5t32 -16.5t16.5 -33t4.5 -53v-344q-1 -161 -65 -243.5t-192 -82.5q-37 0 -81 6q-27 4 -27 33v12
q0 17 9 22.5t24 5.5q17 -2 33 -3t31 -1q51 0 87.5 14t60 44.5t34.5 78.5zM463 183q13 32 13 68v189q0 10 -10 10h-87q-61 0 -105.5 -15t-73 -41t-42.5 -62.5t-14 -79.5q0 -39 12.5 -72t35 -56.5t53 -36.5t66.5 -13q34 0 64 14t52.5 38t35.5 57z" />
    <glyph glyph-name="uni0624" unicode="&#x624;" horiz-adv-x="619" 
d="M186 -199q0 17 9 22.5t24 5.5q17 -2 33 -3t31 -1q51 0 87.5 14t60 44.5t34.5 78.5t11 116v27q-29 -48 -76.5 -76.5t-110.5 -28.5q-46 0 -86.5 19t-70.5 53t-47 79.5t-17 99.5q0 60 19.5 110.5t59 87t98 57.5t136.5 21h65q32 0 52 -4.5t32 -16.5t16.5 -33t4.5 -53v-344
q-1 -161 -65 -243.5t-192 -82.5q-37 0 -81 6q-27 4 -27 33v12zM375 88q30 14 52.5 38t35.5 56.5t13 68.5v189q0 10 -10 10h-87q-61 0 -105.5 -15t-73 -41t-42.5 -62.5t-14 -79.5q0 -39 12.5 -72t35 -56.5t53 -36.5t66.5 -13q34 0 64 14zM381 822q7 -2 8 -8t-1 -12l-10 -28
q-3 -8 -12 -8q-5 0 -8 1q-17 5 -30 5q-22 0 -38.5 -11.5t-16.5 -34.5q0 -24 17 -38t42 -14h74q15 0 15 -15v-29q0 -15 -15 -15h-187q-15 0 -15 15v29q0 15 15 15h13q-24 23 -24 62q0 20 8.5 37.5t24 31t37 21.5t46.5 8q27 0 57 -12z" />
    <glyph glyph-name="uni0649" unicode="&#x649;" horiz-adv-x="890" 
d="M815 -33q0 -106 -73.5 -160t-216.5 -54h-99q-73 0 -136.5 15.5t-111 50t-74.5 89.5t-27 133q0 54 15 121q6 26 33 26h16q27 0 27 -24q0 -6 -1 -9q-12 -58 -12 -105q0 -63 20.5 -106t56.5 -69t86 -37.5t108 -11.5h99q109 0 161 34.5t52 106.5q0 33 -12.5 54t-33 34.5
t-48.5 22.5t-59 17t-63.5 17.5t-62.5 25.5q-59 31 -83.5 71.5t-24.5 102.5q0 48 20.5 87.5t57 68t87.5 44.5t111 16q39 0 81 -7t87 -22q22 -8 22 -27q0 -3 -2 -11l-4 -15q-6 -22 -26 -22q-4 0 -12 2q-42 15 -81 22t-74 7q-87 0 -138.5 -39t-51.5 -104q0 -30 7.5 -50.5
t29 -37t60.5 -31t102 -31.5q35 -9 68.5 -22t60 -34.5t43 -54.5t16.5 -84z" />
    <glyph glyph-name="uni064A" unicode="&#x64a;" horiz-adv-x="890" 
d="M426 -247q-73 0 -136.5 15.5t-111 50t-74.5 89.5t-27 133q0 54 15 121q6 26 33 26h16q27 0 27 -24q0 -6 -1 -9q-12 -58 -12 -105q0 -63 20.5 -106t56.5 -69t86 -37.5t108 -11.5h99q109 0 161 34.5t52 106.5q0 33 -12.5 54t-33 34.5t-48.5 22.5t-59 17t-63.5 17.5
t-62.5 25.5q-59 31 -83.5 71.5t-24.5 102.5q0 48 20.5 87.5t57 68t87.5 44.5t111 16q39 0 81 -7t87 -22q22 -8 22 -27q0 -3 -2 -11l-4 -15q-6 -22 -26 -22q-4 0 -12 2q-42 15 -81 22t-74 7q-87 0 -138.5 -39t-51.5 -104q0 -30 7.5 -50.5t29 -37t60.5 -31t102 -31.5
q35 -9 68.5 -22t60 -34.5t43 -54.5t16.5 -84q0 -106 -73.5 -160t-216.5 -54h-99zM315 -365q0 30 30 30h33q30 0 30 -30v-33q0 -30 -30 -30h-33q-30 0 -30 30v33zM568 -398q0 -30 -30 -30h-33q-30 0 -30 30v33q0 30 30 30h33q30 0 30 -30v-33z" />
    <glyph glyph-name="uni0626" unicode="&#x626;" horiz-adv-x="883" 
d="M92 162q6 26 33 26h16q27 0 27 -24q0 -6 -1 -9q-12 -58 -12 -105q0 -63 20.5 -106t56.5 -69t86 -37.5t108 -11.5h99q109 0 161 34.5t52 106.5q0 33 -12.5 54t-33 34.5t-48.5 22.5t-59 17t-63.5 17.5t-62.5 25.5q-59 31 -83.5 71.5t-24.5 102.5q0 48 20.5 87.5t57 68
t87.5 44.5t111 16q39 0 81 -7t87 -22q22 -8 22 -27q0 -3 -2 -11l-4 -15q-6 -22 -26 -22q-4 0 -12 2q-42 15 -81 22t-74 7q-87 0 -138.5 -39t-51.5 -104q0 -30 7.5 -50.5t29 -37t60.5 -31t102 -31.5q35 -9 68.5 -22t60 -34.5t43 -54.5t16.5 -84q0 -106 -73.5 -160t-216.5 -54
h-99q-73 0 -136.5 15.5t-111 50t-74.5 89.5t-27 133q0 54 15 121zM84 325q-15 0 -15 15v29q0 15 15 15h13q-24 23 -24 62q0 20 8.5 37.5t24 31t37 21.5t46.5 8q27 0 57 -12q7 -2 8 -8t-1 -12l-10 -28q-3 -8 -12 -8q-5 0 -8 1q-17 5 -30 5q-22 0 -38.5 -11.5t-16.5 -34.5
q0 -24 17 -38t42 -14h74q15 0 15 -15v-29q0 -15 -15 -15h-187z" />
    <glyph glyph-name="uni0640" unicode="&#x640;" horiz-adv-x="200" 
d="M-43 37q0 17 11.5 27t31.5 10h200v-74h-200q-20 0 -31.5 10t-11.5 27z" />
    <glyph glyph-name="zero" unicode="0" horiz-adv-x="715" 
d="M573 96q-39 -50 -93.5 -79t-122.5 -29t-122.5 28.5t-93 78t-59 115t-20.5 138.5v2q0 74 21 139.5t60 115t94 78.5t122 29q68 0 122 -28.5t92.5 -78t59 -114.5t20.5 -139v-2q0 -73 -21 -139t-59 -115zM557 239q14 52 14 109v2q0 57 -15 109.5t-43 92.5t-67.5 64t-88.5 24
t-88.5 -23.5t-67 -63t-42.5 -91.5t-15 -110v-2q0 -57 15 -109.5t43 -92.5t68 -64t89 -24t88.5 23.5t67 63t42.5 92.5z" />
    <glyph glyph-name="one" unicode="1" horiz-adv-x="358" 
d="M209 0q-30 0 -30 30v593l-103 -32q-8 -2 -11 -2q-21 0 -27 22l-2 7q-2 8 -2 11q0 19 22 27l125 43q10 4 18.5 5t18.5 1h9q30 0 30 -30v-645q0 -30 -30 -30h-18z" />
    <glyph glyph-name="two" unicode="2" horiz-adv-x="599" 
d="M78 0q-30 0 -30 30v9q0 21 17 37l237 209q40 36 68 65t45 54.5t25 50t8 50.5q0 31 -11.5 55.5t-30.5 42t-44.5 27t-54.5 9.5q-54 0 -93 -24t-77 -72q-11 -14 -23 -14q-9 0 -19 7l-10 7q-14 11 -14 23q0 11 7 19q22 30 45.5 53t51.5 39t62 24.5t76 8.5q47 0 87 -15
t69 -41.5t45 -62.5t16 -79v-2q0 -38 -10.5 -70.5t-32 -64t-55 -64.5t-79.5 -73l-187 -166h341q30 0 30 -30v-12q0 -30 -30 -30h-429z" />
    <glyph glyph-name="three" unicode="3" horiz-adv-x="613" 
d="M465 198q0 33 -14.5 58t-40.5 42t-62 26t-79 9h-32q-13 0 -17 12l-8 24q-1 2 -1 7q0 6 5 13l213 240h-312q-30 0 -30 30v11q0 30 30 30h387q30 0 30 -29v-8q0 -20 -14 -37l-206 -228q46 -4 87.5 -17t73.5 -37t51 -59.5t19 -83.5v-2q0 -47 -18.5 -86t-50 -66.5t-74 -43
t-91.5 -15.5q-79 0 -139 28t-103 74q-9 11 -9 20q0 13 12 23l13 11q11 9 20 9q13 0 23 -12q37 -39 82 -60t102 -21q32 0 60 9.5t48.5 27.5t32.5 43t12 56v2z" />
    <glyph glyph-name="four" unicode="4" horiz-adv-x="671" 
d="M51 202q-3 9 -3 15q0 14 10 25l367 446q8 10 16.5 13.5t19.5 3.5h18q30 0 30 -30v-443h78q30 0 30 -30v-6q0 -30 -30 -30h-78v-136q0 -30 -30 -30h-17q-30 0 -30 30v136h-343q-25 0 -34 24zM432 593l-294 -361h294v361z" />
    <glyph glyph-name="five" unicode="5" horiz-adv-x="612" 
d="M460 277q-13 27 -36 46.5t-55 30t-70 10.5q-37 0 -68 -8t-58 -21q-12 -5 -20 -5q-11 0 -21 7l-13 9q-20 14 -19 37l17 288q2 29 31 29h344q30 0 30 -30v-13q0 -30 -30 -30h-304l-15 -224q31 14 62.5 22.5t75.5 8.5q51 0 95 -14.5t77 -42t51.5 -67.5t18.5 -90v-2
q0 -51 -18.5 -93.5t-51.5 -73t-79 -47t-101 -16.5q-67 0 -125 25.5t-103 65.5q-12 11 -12 21q0 9 10 21l12 13q11 12 21 12q9 0 21 -10q42 -35 86 -55.5t91 -20.5q38 0 69 12t53 32.5t34.5 49t12.5 61.5v2q0 33 -13 60z" />
    <glyph glyph-name="six" unicode="6" horiz-adv-x="647" 
d="M531 595q-11 -13 -22 -13q-9 0 -20 8q-32 24 -66 37t-75 13q-51 0 -89.5 -24.5t-64.5 -66t-39 -96t-13 -113.5v-10q35 51 83 79.5t117 28.5q49 0 93 -15t77 -43t52.5 -68t19.5 -89v-2q0 -51 -19 -93.5t-53 -73.5t-80 -48.5t-99 -17.5q-58 0 -104.5 19t-79.5 52
q-21 21 -37.5 46t-27.5 57t-17 73t-6 95v2q0 80 19.5 149.5t57 120.5t91.5 80.5t123 29.5q55 0 99 -16.5t84 -45.5q13 -9 13 -22q0 -10 -7 -20zM402 359q-32 11 -70 11q-39 0 -71.5 -13t-55.5 -34.5t-35.5 -49t-12.5 -56.5v-2q0 -33 13 -62t36.5 -50t56 -33t71.5 -12
t70 12.5t53 34t34 51t12 62.5v2q0 32 -12.5 59.5t-35 47.5t-53.5 32z" />
    <glyph glyph-name="seven" unicode="7" horiz-adv-x="596" 
d="M541 642q-2 -9 -7 -19l-298 -601q-10 -22 -35 -22h-24q-26 0 -26 20q0 8 4 16l298 592h-355q-30 0 -30 30v12q0 30 30 30h415q30 0 30 -29v-10q0 -11 -2 -19z" />
    <glyph glyph-name="eight" unicode="8" horiz-adv-x="630" 
d="M537 296q41 -43 41 -105v-2q0 -45 -20 -81.5t-55.5 -62.5t-83.5 -40.5t-104 -14.5t-104 14.5t-83.5 40.5t-55.5 62.5t-20 80.5v2q0 63 40.5 106t103.5 66q-24 11 -46 26.5t-38.5 35t-26 44.5t-9.5 55v2q0 41 19.5 74.5t52 58.5t76 38.5t91.5 13.5t91.5 -13.5t76 -38.5
t52 -58.5t19.5 -74.5v-2q0 -30 -9.5 -55t-26 -44.5t-38.5 -35t-46 -26.5q62 -23 103 -66zM387 315q-34 10 -72 10t-71.5 -10t-58 -27.5t-39 -42t-14.5 -53.5v-2q0 -26 12.5 -50t36 -42t57.5 -28.5t77 -10.5t77 10.5t57.5 28.5t36 41.5t12.5 50.5v2q0 29 -14 53.5t-39 42
t-58 27.5zM475 520q0 26 -12 48t-33.5 38.5t-51 25.5t-63.5 9t-63.5 -9t-51 -25t-33.5 -38.5t-12 -48.5v-2q0 -28 12.5 -52t34 -40.5t51 -26t62.5 -9.5t62.5 9.5t51 26t34 40.5t12.5 52v2z" />
    <glyph glyph-name="nine" unicode="9" horiz-adv-x="647" 
d="M506 95q-39 -51 -92.5 -79t-118.5 -28q-60 0 -106.5 19t-86.5 49q-12 9 -12 22q0 10 7 20l10 13q8 11 21 11q12 0 25 -10q35 -26 70 -39t74 -13q51 0 89.5 24.5t65 65t40 93t13.5 109.5v14q-33 -51 -81.5 -81t-116.5 -30q-54 0 -99 16t-77 45t-50 69t-18 87v2
q0 50 18.5 93.5t51.5 75.5t79.5 50.5t102.5 18.5q60 0 105 -19t79 -53q40 -40 63.5 -103t23.5 -168v-2q0 -83 -21 -152.5t-59 -119.5zM389 337q32 13 54.5 35t34.5 50.5t12 58.5v2q0 33 -13 62t-36.5 50.5t-56.5 34t-72 12.5t-70.5 -13.5t-53 -36t-33 -52t-11.5 -62.5v-2
q0 -33 12.5 -61.5t35 -48.5t54.5 -31.5t70 -11.5q40 0 73 14z" />
    <glyph glyph-name="fraction" unicode="&#x2044;" horiz-adv-x="530" 
d="M248 359l222 331q7 10 18 10h20q12 0 12 -8q0 -4 -3 -10l-235 -341l-222 -331q-7 -10 -18 -10h-20q-12 0 -12 8q0 4 3 10z" />
    <glyph glyph-name="uni066B" unicode="&#x66b;" horiz-adv-x="261" 
d="M169 -49q-24 -31 -74 -45q-2 -1 -6 -1q-10 0 -13 11l-2 7q-1 2 -1 6q0 10 10 14q59 25 53 81h-6q-30 0 -30 30v45q0 30 30 30h32q30 0 30 -30v-60q0 -57 -23 -88z" />
    <glyph glyph-name="uni066C" unicode="&#x66c;" horiz-adv-x="236" 
d="M148 -37q-19 -24 -58 -35q-2 -1 -5 -1q-8 0 -11 9l-1 5q-1 2 -1 5q0 8 8 11q48 21 42 65h-4q-24 0 -24 24v36q0 24 24 24h25q24 0 24 -24v-48q0 -46 -19 -71z" />
    <glyph glyph-name="uni0660" unicode="&#x660;" horiz-adv-x="235" 
d="M60 263q0 37 38 37h40q37 0 37 -37v-56q0 -38 -37 -38h-40q-38 0 -38 38v56z" />
    <glyph glyph-name="uni0661" unicode="&#x661;" horiz-adv-x="197" 
d="M60 704q0 30 30 30h17q30 0 30 -30v-674q0 -30 -30 -30h-17q-30 0 -30 30v674z" />
    <glyph glyph-name="uni0662" unicode="&#x662;" horiz-adv-x="640" 
d="M580 627q0 -60 -19 -108t-53 -81.5t-81 -51.5t-103 -18q-62 0 -107.5 21.5t-73.5 62.5l13 -422q2 -30 -29 -30h-17q-29 0 -31 30l-19 674q-2 30 29 30h16q30 0 31 -30l3 -90v-26q5 -71 52.5 -108t120.5 -37q42 0 77 12.5t60.5 36t39.5 57.5t14 78v77q0 30 30 30h17
q30 0 30 -30v-77z" />
    <glyph glyph-name="uni0663" unicode="&#x663;" horiz-adv-x="798" 
d="M635 476q13 19 19.5 50.5t6.5 77.5v100q0 30 30 30h17q30 0 30 -30v-100q0 -120 -47 -179t-122 -59q-58 0 -94.5 30t-51.5 93q-20 -62 -60 -92.5t-94 -30.5q-84 0 -125 59l11 -395q2 -30 -29 -30h-17q-29 0 -31 30l-18 674q-2 30 29 30h16q30 0 31 -30l4 -143
q7 -65 35 -93.5t77 -28.5q57 0 83 37t26 128v100q0 30 30 30h17q30 0 30 -30v-100q0 -88 28 -126.5t83 -38.5q29 0 50.5 8.5t35.5 28.5z" />
    <glyph glyph-name="uni0664" unicode="&#x664;" horiz-adv-x="572" 
d="M293 0q-58 0 -102 18.5t-73 49t-43.5 69.5t-14.5 79q0 31 8.5 61t26 56.5t43.5 47t60 32.5q-54 23 -80 64.5t-26 86.5q0 32 13.5 62.5t40 54.5t66 38.5t92.5 14.5h143q30 0 30 -30v-16q0 -30 -30 -30l-143 -1q-34 0 -59.5 -9.5t-42 -25.5t-25 -36.5t-8.5 -41.5
q0 -22 9 -43t26.5 -37.5t43.5 -26.5t61 -10h138q30 0 30 -30v-17q0 -30 -30 -30h-160q-38 0 -66.5 -11.5t-47 -30t-28 -42.5t-9.5 -50t10 -51t29.5 -44.5t48.5 -31.5t68 -12h190q30 0 30 -30v-17q0 -30 -30 -30h-189z" />
    <glyph glyph-name="uni0665" unicode="&#x665;" horiz-adv-x="608" 
d="M304 684q53 0 98 -27t77.5 -78.5t50.5 -126t18 -169.5q0 -136 -64 -209.5t-182 -73.5t-180 72.5t-62 208.5q0 96 18 170.5t50.5 126.5t77 79t98.5 27zM303 78q168 0 168 205q0 78 -13 138.5t-35.5 101.5t-53 62.5t-65.5 21.5q-36 0 -66.5 -21.5t-53 -63t-35 -102
t-12.5 -139.5q0 -203 166 -203z" />
    <glyph glyph-name="uni0666" unicode="&#x666;" horiz-adv-x="598" 
d="M445 734q59 0 62 -58l31 -645q1 -14 -7.5 -22.5t-22.5 -8.5h-16q-29 0 -30 29l-30 628h-342q-30 0 -30 30v17q0 30 30 30h355z" />
    <glyph glyph-name="uni0667" unicode="&#x667;" horiz-adv-x="671" 
d="M611 712q0 -4 -2 -12l-223 -675q-8 -25 -34 -25h-36q-27 0 -34 25l-220 675q-2 8 -2 12q0 22 27 22h17q27 0 34 -25l197 -598l198 598q8 25 34 25h17q27 0 27 -22z" />
    <glyph glyph-name="uni0668" unicode="&#x668;" horiz-adv-x="662" 
d="M567 0q-27 0 -34 25l-197 598l-198 -598q-8 -25 -34 -25h-17q-27 0 -27 22q0 4 2 12l223 675q8 25 34 25h36q27 0 34 -25l220 -675q2 -8 2 -12q0 -22 -27 -22h-17z" />
    <glyph glyph-name="uni0669" unicode="&#x669;" horiz-adv-x="637" 
d="M535 594q19 -44 21 -97l21 -466q1 -14 -7.5 -22.5t-22.5 -8.5h-16q-29 0 -30 29l-14 334q-27 -48 -76 -75.5t-117 -27.5q-59 0 -103 19.5t-73 52t-43.5 74t-14.5 84.5q0 45 15.5 89t47 78.5t78 55.5t109.5 21q53 0 97 -17t76.5 -48.5t51.5 -74.5zM468 559q-13 30 -36 52
t-54.5 34t-69.5 12q-43 0 -75.5 -14t-54 -37t-32.5 -52.5t-11 -59.5t10.5 -59t32.5 -51.5t54.5 -36.5t76.5 -14q38 0 69.5 11.5t54 32.5t35.5 50t13 64q0 37 -13 68z" />
    <glyph glyph-name="asterisk" unicode="*" horiz-adv-x="430" 
d="M330 455q-4 0 -9 3l-90 64l9 -109v-2q0 -14 -15 -14h-20q-17 0 -15 16l9 109l-90 -64q-4 -3 -9 -3q-7 0 -12 8l-11 19q-3 5 -3 9q0 8 9 12l102 46l-102 47q-9 5 -9 12q0 5 3 9l11 19q4 7 12 7q5 0 9 -3l90 -63l-9 109v2q0 14 15 14h20q17 0 15 -16l-9 -109l90 63q5 3 9 3
q8 0 12 -7l11 -19q3 -4 3 -9q0 -7 -9 -12l-102 -47l102 -46q9 -4 9 -12q0 -4 -3 -9l-11 -19q-5 -8 -12 -8z" />
    <glyph glyph-name="backslash" unicode="\" horiz-adv-x="508" 
d="M53 798q11 0 17 -11l450 -897q2 -6 2 -8q0 -10 -13 -10h-39q-11 0 -17 11l-450 897q-2 6 -2 8q0 10 13 10h39z" />
    <glyph glyph-name="colon" unicode=":" horiz-adv-x="255" 
d="M174 442q0 -30 -30 -30h-32q-30 0 -30 30v45q0 30 30 30h32q30 0 30 -30v-45zM174 30q0 -30 -30 -30h-32q-30 0 -30 30v45q0 30 30 30h32q30 0 30 -30v-45z" />
    <glyph glyph-name="comma" unicode="," horiz-adv-x="245" 
d="M146 -73q-24 -31 -74 -45q-2 -1 -6 -1q-10 0 -13 11l-2 7q-1 2 -1 6q0 10 10 14q59 25 53 81h-6q-30 0 -30 30v45q0 30 30 30h32q30 0 30 -30v-60q0 -57 -23 -88z" />
    <glyph glyph-name="exclam" unicode="!" horiz-adv-x="271" 
d="M151 700q30 0 30 -30v-26l-23 -431q0 -15 -16 -15h-13q-16 0 -16 15l-22 431v26q0 30 30 30h30zM120 0q-30 0 -30 30v45q0 30 30 30h32q30 0 30 -30v-45q0 -30 -30 -30h-32z" />
    <glyph glyph-name="numbersign" unicode="#" horiz-adv-x="700" 
d="M533 458l-36 -212h88q30 0 30 -30v-9q0 -30 -30 -30h-100l-25 -150q-4 -27 -33 -27h-9q-15 0 -22.5 8.5t-5.5 23.5l25 145h-191l-25 -150q-4 -27 -33 -27h-9q-15 0 -22.5 8.5t-5.5 23.5l25 145h-79q-30 0 -30 30v9q0 30 30 30h91l36 212h-88q-30 0 -30 30v9q0 30 30 30
h100l25 146q4 27 33 27h9q32 0 27 -32l-24 -141h191l25 146q4 27 33 27h9q32 0 27 -32l-24 -141h79q30 0 30 -30v-9q0 -30 -30 -30h-91zM427 245l36 214h-190l-37 -214h191z" />
    <glyph glyph-name="period" unicode="." horiz-adv-x="245" 
d="M77 75q0 30 30 30h32q30 0 30 -30v-45q0 -30 -30 -30h-32q-30 0 -30 30v45z" />
    <glyph glyph-name="question" unicode="?" horiz-adv-x="537" 
d="M399 559q-10 23 -29 41t-46 28t-61 10q-48 0 -87.5 -18.5t-73.5 -53.5q-11 -11 -22 -11q-9 0 -21 10l-8 8q-11 11 -11 22q0 10 9 20q41 43 92.5 68.5t123.5 25.5q51 0 92 -15t70.5 -41.5t45.5 -62.5t16 -79v-2q0 -47 -16.5 -82.5t-45 -60t-66 -39.5t-80.5 -21l-9 -94
q-1 -14 -15 -14h-22q-14 0 -16 15l-7 122q-1 29 29 32q83 8 125.5 44.5t42.5 94.5v2q0 27 -10 51zM261 105q30 0 30 -30v-45q0 -30 -30 -30h-32q-30 0 -30 30v45q0 30 30 30h32z" />
    <glyph glyph-name="quotedbl" unicode="&#x22;" horiz-adv-x="440" 
d="M93 686q1 14 16 14h61q8 0 11.5 -4.5t1.5 -12.5l-72 -242q-3 -13 -17 -13h-13q-16 0 -14 16zM289 686q1 14 16 14h60q8 0 11.5 -4.5t1.5 -12.5l-72 -242q-3 -13 -17 -13h-13q-16 0 -14 16z" />
    <glyph glyph-name="quotesingle" unicode="'" horiz-adv-x="245" 
d="M93 686q1 14 16 14h62q8 0 11.5 -4.5t1.5 -12.5l-72 -242q-3 -13 -17 -13h-14q-16 0 -14 16z" />
    <glyph glyph-name="semicolon" unicode=";" horiz-adv-x="255" 
d="M56 -101q-1 2 -1 6q0 10 10 14q59 25 53 81h-6q-30 0 -30 30v45q0 30 30 30h32q30 0 30 -30v-60q0 -57 -23.5 -88t-73.5 -45q-2 -1 -6 -1q-10 0 -13 11zM82 487q0 30 30 30h32q30 0 30 -30v-45q0 -30 -30 -30h-32q-30 0 -30 30v45z" />
    <glyph glyph-name="slash" unicode="/" horiz-adv-x="508" 
d="M438 787q6 11 17 11h39q13 0 13 -10q0 -2 -2 -8l-450 -897q-6 -11 -17 -11h-39q-13 0 -13 10q0 2 2 8z" />
    <glyph glyph-name="underscore" unicode="_" horiz-adv-x="604" 
d="M0 -112q0 15 15 15h574q15 0 15 -15v-33q0 -15 -15 -15h-574q-15 0 -15 15v33z" />
    <glyph glyph-name="braceleft" unicode="{" horiz-adv-x="483" 
d="M299 -107q-39 19 -61.5 43.5t-30.5 55.5t-8 69l1 76q0 29 -6 51.5t-19.5 37.5t-36 23t-56.5 8h-11q-15 0 -15 15v30q0 15 15 15h11q34 0 56.5 8t36 23t19.5 37.5t6 51.5l-1 76q0 38 8 69t30.5 55.5t61.5 43t102 31.5q2 0 3 0.5t2 0.5q10 0 13 -12l5 -23q0 -2 0.5 -3
t0.5 -2q0 -10 -12 -13q-47 -13 -75 -27t-42.5 -32t-19 -41.5t-4.5 -56.5l1 -75q0 -63 -28 -94.5t-76 -46.5q50 -16 77 -47t27 -94l-1 -75q0 -33 4.5 -56.5t19 -41.5t42.5 -32t75 -27q14 -4 11 -18l-5 -23q-3 -12 -13 -12q-1 0 -2 0.5t-3 0.5q-63 13 -102 31z" />
    <glyph glyph-name="braceright" unicode="}" horiz-adv-x="483" 
d="M277 -8q-8 -31 -30.5 -55.5t-61.5 -43t-102 -31.5q-2 0 -3 -0.5t-2 -0.5q-10 0 -13 12l-5 23q0 2 -0.5 3t-0.5 2q0 10 12 13q47 13 75 27t42.5 32t19 41.5t4.5 56.5l-1 75q0 63 27 94t77 47q-48 15 -76 46.5t-28 94.5l1 75q0 33 -4.5 56.5t-19 41.5t-42.5 32t-75 27
q-15 4 -12 18l6 23q3 12 13 12q1 0 2 -0.5t3 -0.5q63 -13 102 -31.5t61.5 -43t30.5 -55.5t8 -69l-1 -76q0 -58 25.5 -89t92.5 -31h11q15 0 15 -15v-30q0 -15 -15 -15h-11q-67 0 -92.5 -30.5t-25.5 -89.5l1 -76q0 -38 -8 -69z" />
    <glyph glyph-name="bracketleft" unicode="[" horiz-adv-x="439" 
d="M94 670q0 30 30 30h226q30 0 30 -30t-30 -30h-183v-710h183q30 0 30 -30t-30 -30h-226q-30 0 -30 30v770z" />
    <glyph glyph-name="bracketright" unicode="]" horiz-adv-x="439" 
d="M273 -70v710h-184q-30 0 -30 30t30 30h227q30 0 30 -30v-770q0 -30 -30 -30h-227q-30 0 -30 30t30 30h184z" />
    <glyph glyph-name="parenleft" unicode="(" horiz-adv-x="434" 
d="M337 705q15 0 24 -15l1 -1q6 -9 6 -18q0 -13 -15 -24q-103 -71 -155 -158.5t-52 -201.5t52 -201.5t155 -158.5q15 -11 15 -24q0 -9 -6 -18l-1 -1q-9 -15 -24 -15q-10 0 -18 5q-121 75 -186 178t-65 235t65 235t186 178q8 5 18 5z" />
    <glyph glyph-name="parenright" unicode=")" horiz-adv-x="434" 
d="M236 86q52 87 52 201t-52 201.5t-155 158.5q-15 11 -15 24q0 9 6 18l1 2q9 15 23 15q9 0 18 -6q122 -75 187 -178t65 -235t-65 -235t-187 -178q-9 -6 -18 -6q-14 0 -23 15l-1 2q-6 9 -6 18q0 13 15 24q103 71 155 159z" />
    <glyph glyph-name="endash" unicode="&#x2013;" horiz-adv-x="528" 
d="M65 309q0 30 30 30h338q30 0 30 -30v-17q0 -30 -30 -30h-338q-30 0 -30 30v17z" />
    <glyph glyph-name="hyphen" unicode="-" horiz-adv-x="408" 
d="M65 311q0 30 30 30h218q30 0 30 -30v-21q0 -30 -30 -30h-218q-30 0 -30 30v21z" />
    <glyph glyph-name="guillemotleft" unicode="&#xab;" horiz-adv-x="550" 
d="M196 453q10 13 23 13q11 0 18 -5l4 -2q16 -10 16 -23q0 -9 -7 -19l-114 -157l115 -160q7 -10 7 -19q0 -13 -16 -23l-4 -2q-10 -5 -17 -5q-14 0 -25 14l-132 177q-8 11 -8 21t8 21zM461 56q-10 -5 -17 -5q-14 0 -25 14l-132 177q-8 11 -8 21t8 21l132 169q11 14 23 14
q9 0 18 -6l4 -2q16 -10 16 -23q0 -9 -7 -19l-114 -157l114 -160q6 -9 6 -18q0 -15 -15 -24z" />
    <glyph glyph-name="guillemotright" unicode="&#xbb;" horiz-adv-x="550" 
d="M475 284q8 -11 8 -21t-8 -21l-132 -177q-11 -14 -25 -14q-7 0 -17 5l-4 2q-15 9 -15 24q0 9 6 18l115 160l-114 157q-7 10 -7 19q0 13 16 23l4 2q8 5 18 5q13 0 23 -13zM79 461q8 5 18 5q13 0 23 -13l132 -169q8 -11 8 -21t-8 -21l-132 -177q-12 -15 -24 -15q-9 0 -18 6
l-3 2q-16 10 -16 23q0 8 7 18l114 161l-114 157q-7 10 -7 19q0 13 16 23z" />
    <glyph glyph-name="guilsinglleft" unicode="&#x2039;" horiz-adv-x="328" 
d="M238 56q-10 -5 -17 -5q-14 0 -25 14l-132 177q-8 11 -8 21t8 21l132 169q10 13 23 13q11 0 18 -5l4 -2q16 -10 16 -23q0 -9 -7 -19l-114 -157l115 -160q7 -10 7 -19q0 -13 -16 -23z" />
    <glyph glyph-name="guilsinglright" unicode="&#x203a;" horiz-adv-x="328" 
d="M121 65q-11 -14 -25 -14q-7 0 -17 5l-4 2q-15 9 -15 24q0 9 6 18l115 160l-114 157q-7 10 -7 19q0 13 16 23l4 2q8 5 18 5q13 0 23 -13l132 -169q8 -11 8 -21t-8 -21z" />
    <glyph glyph-name="quotedblbase" unicode="&#x201e;" horiz-adv-x="445" 
d="M369 15q0 -57 -23.5 -88t-73.5 -45q-2 -1 -6 -1q-10 0 -13 11l-2 7q-1 2 -1 6q0 10 10 14q59 25 53 81h-6q-30 0 -30 30v45q0 30 30 30h32q30 0 30 -30v-60zM60 -81q59 25 53 81h-6q-30 0 -30 30v45q0 30 30 30h32q30 0 30 -30v-60q0 -57 -23.5 -88t-73.5 -45
q-2 -1 -6 -1q-10 0 -13 11l-2 7q-1 2 -1 6q0 10 10 14z" />
    <glyph glyph-name="quotedblleft" unicode="&#x201c;" horiz-adv-x="445" 
d="M374 702q10 0 13 -11l2 -7q1 -2 1 -6q0 -10 -10 -14q-30 -13 -42.5 -32.5t-10.5 -48.5h7q30 0 30 -30v-45q0 -30 -30 -30h-32q-30 0 -30 30v60q0 57 23 88t73 45q2 1 6 1zM72 568q0 57 23 88t73 45q2 1 6 1q10 0 13 -11l2 -7q1 -2 1 -6q0 -10 -10 -14
q-30 -13 -42.5 -32.5t-10.5 -48.5h7q30 0 30 -30v-45q0 -30 -30 -30h-32q-30 0 -30 30v60z" />
    <glyph glyph-name="quotedblright" unicode="&#x201d;" horiz-adv-x="445" 
d="M65 514q59 25 53 81h-6q-30 0 -30 30v45q0 30 30 30h32q30 0 30 -30v-60q0 -57 -23.5 -88t-73.5 -45q-2 -1 -6 -1q-10 0 -13 11l-2 7q-1 2 -1 6q0 10 10 14zM374 610q0 -57 -23.5 -88t-73.5 -45q-2 -1 -6 -1q-10 0 -13 11l-2 7q-1 2 -1 6q0 10 10 14q59 25 53 81h-6
q-30 0 -30 30v45q0 30 30 30h32q30 0 30 -30v-60z" />
    <glyph glyph-name="quoteleft" unicode="&#x2018;" horiz-adv-x="245" 
d="M180 664q-30 -13 -42.5 -32.5t-10.5 -48.5h7q30 0 30 -30v-45q0 -30 -30 -30h-32q-30 0 -30 30v60q0 57 23 88t73 45q2 1 6 1q10 0 13 -11l2 -7q1 -2 1 -6q0 -10 -10 -14z" />
    <glyph glyph-name="quoteright" unicode="&#x2019;" horiz-adv-x="245" 
d="M151 522q-24 -31 -74 -45q-2 -1 -6 -1q-10 0 -13 11l-2 7q-1 2 -1 6q0 10 10 14q59 25 53 81h-6q-30 0 -30 30v45q0 30 30 30h32q30 0 30 -30v-60q0 -57 -23 -88z" />
    <glyph glyph-name="quotesinglbase" unicode="&#x201a;" horiz-adv-x="245" 
d="M146 -73q-24 -31 -74 -45q-2 -1 -6 -1q-10 0 -13 11l-2 7q-1 2 -1 6q0 10 10 14q59 25 53 81h-6q-30 0 -30 30v45q0 30 30 30h32q30 0 30 -30v-60q0 -57 -23 -88z" />
    <glyph glyph-name="uni060C" unicode="&#x60c;" horiz-adv-x="217" 
d="M151 211q1 -2 1 -6q0 -10 -10 -14q-59 -25 -53 -81h6q30 0 30 -30v-45q0 -30 -30 -30h-32q-30 0 -30 30v60q0 57 23.5 88t73.5 45q2 1 6 1q10 0 13 -11z" />
    <glyph glyph-name="uni061B" unicode="&#x61b;" horiz-adv-x="233" 
d="M85 384q-30 0 -30 30v60q0 57 23.5 88t73.5 45q2 1 6 1q10 0 13 -11l2 -7q1 -2 1 -6q0 -10 -10 -14q-59 -25 -53 -81h6q30 0 30 -30v-45q0 -30 -30 -30h-32zM55 47q0 30 30 30h32q30 0 30 -30v-45q0 -30 -30 -30h-32q-30 0 -30 30v45z" />
    <glyph glyph-name="uni061F" unicode="&#x61f;" horiz-adv-x="514" 
d="M344 620q-40 18 -88 18q-34 0 -61 -10t-46 -28t-29 -41.5t-10 -50.5v-2q0 -58 42.5 -94.5t125.5 -44.5q30 -3 29 -32l-7 -122q-2 -15 -16 -15h-22q-14 0 -15 14l-9 94q-43 6 -80.5 21t-66 39.5t-45 60t-16.5 82.5v2q0 43 16 79t45.5 62.5t70.5 41.5t92 15
q72 0 123.5 -25.5t92.5 -68.5q9 -10 9 -20q0 -11 -11 -22l-8 -8q-12 -10 -21 -10q-11 0 -22 11q-34 35 -73 54zM228 75q0 30 30 30h32q30 0 30 -30v-45q0 -30 -30 -30h-32q-30 0 -30 30v45z" />
    <glyph glyph-name="uni066D" unicode="&#x66d;" horiz-adv-x="430" 
d="M330 455q-4 0 -9 3l-90 64l9 -109v-2q0 -14 -15 -14h-20q-17 0 -15 16l9 109l-90 -64q-4 -3 -9 -3q-7 0 -12 8l-11 19q-3 5 -3 9q0 8 9 12l102 46l-102 47q-9 5 -9 12q0 5 3 9l11 19q4 7 12 7q5 0 9 -3l90 -63l-9 109v2q0 14 15 14h20q17 0 15 -16l-9 -109l90 63q5 3 9 3
q8 0 12 -7l11 -19q3 -4 3 -9q0 -7 -9 -12l-102 -47l102 -46q9 -4 9 -12q0 -4 -3 -9l-11 -19q-5 -8 -12 -8z" />
    <glyph glyph-name="uniFD3E" unicode="&#xfd3e;" horiz-adv-x="447" 
d="M337 705q15 0 24 -15l1 -1q6 -9 6 -18q0 -13 -15 -24q-103 -71 -155 -158.5t-52 -201.5t52 -201.5t155 -158.5q15 -11 15 -24q0 -9 -6 -18l-1 -1q-9 -15 -24 -15q-10 0 -18 5q-121 75 -186 178t-65 235t65 235t186 178q8 5 18 5z" />
    <glyph glyph-name="uniFD3F" unicode="&#xfd3f;" horiz-adv-x="447" 
d="M249 86q52 87 52 201t-52 201.5t-155 158.5q-15 11 -15 24q0 9 6 18l1 2q9 15 23 15q9 0 18 -6q122 -75 187 -178t65 -235t-65 -235t-187 -178q-9 -6 -18 -6q-14 0 -23 15l-1 2q-6 9 -6 18q0 13 15 24q103 71 155 159z" />
    <glyph glyph-name="dollar" unicode="$" horiz-adv-x="636" 
d="M500 569q-9 0 -20 8q-60 42 -127 53v-247q114 -25 165 -71t51 -123q0 -40 -15.5 -73.5t-44 -58.5t-67.5 -39.5t-86 -17.5v-83q0 -15 -15 -15h-34q-15 0 -15 15v85q-60 5 -112.5 26.5t-100.5 57.5q-12 11 -12 23q0 10 7 20l8 11q11 14 23 14q10 0 20 -9q39 -32 80 -51
t90 -25v251q-111 26 -162 70.5t-51 123.5v1q0 39 15.5 71.5t43.5 57t66.5 39.5t84.5 17v43q0 15 15 15h34q15 0 15 -15v-45q49 -5 89 -20.5t78 -41.5q14 -11 14 -23q0 -9 -7 -19l-8 -11q-9 -14 -22 -14zM486 224q-6 18 -22 33t-43 27t-68 23v-241q65 4 102 36t37 81v1
q0 22 -6 40zM165 481q6 -18 21 -33t41.5 -27.5t67.5 -23.5v236q-64 -3 -100 -35t-36 -78q0 -21 6 -39z" />
    <glyph glyph-name="plus" unicode="+" horiz-adv-x="625" 
d="M275 564q0 30 30 30h15q30 0 30 -30v-176h177q30 0 30 -30v-12q0 -30 -30 -30h-177v-176q0 -30 -30 -30h-15q-30 0 -30 30v176h-177q-30 0 -30 30v12q0 30 30 30h177v176z" />
    <glyph glyph-name="minus" unicode="&#x2212;" horiz-adv-x="625" 
d="M68 359q0 30 30 30h429q30 0 30 -30v-14q0 -30 -30 -30h-429q-30 0 -30 30v14z" />
    <glyph glyph-name="multiply" unicode="&#xd7;" horiz-adv-x="625" 
d="M528 179q0 -10 -11 -21l-10 -10q-10 -10 -21 -10t-21 10l-153 156l-153 -156q-9 -10 -21 -10q-11 0 -21 10l-8 8q-10 10 -10 21q0 12 10 21l155 153l-155 153q-10 10 -10 21t10 21l10 10q11 11 21 11q12 0 21 -11l153 -156l153 156q11 11 21 11t21 -11l8 -8
q11 -11 11 -21t-11 -21l-156 -153l156 -153q11 -9 11 -21z" />
    <glyph glyph-name="divide" unicode="&#xf7;" horiz-adv-x="625" 
d="M527 387q30 0 30 -30v-10q0 -30 -30 -30h-429q-30 0 -30 30v10q0 30 30 30h429zM333 603q30 0 30 -30v-44q0 -30 -30 -30h-41q-30 0 -30 30v44q0 30 30 30h41zM262 175q0 30 30 30h41q30 0 30 -30v-43q0 -30 -30 -30h-41q-30 0 -30 30v43z" />
    <glyph glyph-name="equal" unicode="=" horiz-adv-x="625" 
d="M545 228q0 -30 -30 -30h-405q-30 0 -30 30v14q0 30 30 30h405q30 0 30 -30v-14zM545 462q0 -30 -30 -30h-405q-30 0 -30 30v14q0 30 30 30h405q30 0 30 -30v-14z" />
    <glyph glyph-name="greater" unicode="&#x3e;" horiz-adv-x="625" 
d="M561 343q0 -23 -22 -35l-412 -204q-8 -4 -16 -4q-19 0 -19 26v13q0 24 22 35l363 177l-363 178q-22 11 -22 35v14q0 26 19 26q8 0 16 -4l412 -204q22 -12 22 -35v-18z" />
    <glyph glyph-name="less" unicode="&#x3c;" horiz-adv-x="625" 
d="M542 564q0 -24 -22 -35l-363 -178l363 -177q22 -11 22 -35v-13q0 -26 -19 -26q-8 0 -16 4l-412 204q-22 12 -22 35v18q0 23 22 35l412 204q10 5 16 5q19 0 19 -26v-15z" />
    <glyph glyph-name="plusminus" unicode="&#xb1;" horiz-adv-x="625" 
d="M549 394q0 -30 -30 -30h-170v-166q0 -30 -30 -30h-13q-30 0 -30 30v166h-169q-30 0 -30 30v10q0 30 30 30h169v166q0 30 30 30h13q30 0 30 -30v-166h170q30 0 30 -30v-10zM519 69q30 0 30 -30v-9q0 -30 -30 -30h-412q-30 0 -30 30v9q0 30 30 30h412z" />
    <glyph glyph-name="asciitilde" unicode="~" horiz-adv-x="474" 
d="M113 335q21 21 55 21q17 0 35 -6.5t37 -14.5q17 -8 33 -14t29 -6q17 0 27 8.5t19 28.5q4 10 13 10q2 0 3 -0.5t3 -0.5l18 -5q10 -3 10 -15q0 -4 -2 -12q-14 -45 -34.5 -64t-52.5 -19q-17 0 -35 6.5t-37 14.5q-17 8 -33.5 14t-28.5 6q-17 0 -27 -8.5t-19 -28.5
q-4 -10 -14 -10q-4 0 -6 1l-18 5q-15 5 -11 19q15 49 36 70z" />
    <glyph glyph-name="percent" unicode="%" horiz-adv-x="834" 
d="M275 365q-29 -15 -65 -15t-65 14.5t-49.5 39t-32 56.5t-11.5 67v2q0 36 11.5 68t32.5 57t50.5 39.5t65.5 14.5q35 0 64 -14.5t49.5 -39t32 -56.5t11.5 -67v-2q0 -36 -11.5 -68t-32.5 -57t-50 -39zM624 350q36 0 65 -14.5t49.5 -39t31.5 -56.5t11 -67v-2q0 -36 -11.5 -68
t-32 -57t-50 -39.5t-65.5 -14.5q-35 0 -64 14.5t-49.5 39t-32 56.5t-11.5 67v2q0 36 11.5 68t32.5 57t50 39.5t65 14.5zM631 691q6 9 18 9h37q13 0 13 -9q0 -4 -3 -9l-257 -349l-236 -324q-6 -9 -18 -9h-38q-12 0 -12 9q0 5 3 9l256 347zM588 58q17 -10 36 -10
q21 0 37.5 9.5t28.5 26t18.5 38.5t6.5 47v2q0 26 -7 48.5t-20 39t-29.5 26t-36.5 9.5t-37 -9.5t-29 -26t-18.5 -38.5t-6.5 -47v-2q0 -26 7 -48.5t20 -39t30 -25.5zM246 643q-17 9 -36 9q-21 0 -37.5 -9.5t-28.5 -26t-18.5 -38.5t-6.5 -47v-2q0 -26 7 -48.5t20 -39t30 -26
t36 -9.5q20 0 37 9.5t29 26t18.5 38.5t6.5 47v2q0 26 -7.5 48.5t-20 39t-29.5 26.5z" />
    <glyph glyph-name="at" unicode="@" horiz-adv-x="980" 
d="M751 110q27 0 52 12t44.5 37.5t31.5 64.5t12 92q0 69 -30.5 134t-84 116t-126.5 81.5t-159 30.5t-159.5 -32t-127.5 -87t-84.5 -128.5t-30.5 -156.5q0 -84 30.5 -157t84.5 -127.5t129.5 -86t165.5 -31.5q72 0 128.5 15.5t111.5 47.5q4 2 6 2q5 0 8 -6l6 -9q2 -4 2 -6
q0 -5 -5 -8q-57 -33 -119 -51.5t-138 -18.5q-96 0 -177.5 34.5t-141.5 94t-93.5 138.5t-33.5 169t34 169.5t93 139t139 94.5t172 35t171.5 -32.5t138.5 -87t92.5 -126.5t33.5 -150q0 -64 -16.5 -110t-42.5 -76t-59.5 -44.5t-68.5 -14.5q-55 0 -90.5 23t-49.5 61
q-29 -34 -69 -59t-96 -25q-37 0 -69.5 13t-57 37t-38.5 57.5t-14 74.5q0 53 20 98.5t53 79t74.5 52.5t83.5 19q29 0 52 -7t41 -18.5t31 -26.5t22 -31l8 40q3 15 11.5 20t22.5 5l8 -1q29 -5 25 -34l-35 -197q-4 -21 -5.5 -37t-1.5 -24q0 -38 22 -59.5t63 -21.5zM614 313
q0 27 -9 50.5t-25.5 40.5t-39 26.5t-48.5 9.5q-36 0 -66 -16t-51.5 -41.5t-34 -58.5t-12.5 -66q0 -60 34 -92.5t88 -32.5q35 0 64.5 16t52 41.5t35 57.5t12.5 65z" />
    </font>
</defs>
</svg>
