<?xml version="1.0" standalone="no"?>
<!DOCTYPE svg PUBLIC "-//W3C//DTD SVG 1.1//EN" "http://www.w3.org/Graphics/SVG/1.1/DTD/svg11.dtd" >
<svg xmlns="http://www.w3.org/2000/svg" xmlns:xlink="http://www.w3.org/1999/xlink" version="1.1">
<metadata>
Created by FontForge 20190801 at Wed Jan 30 14:31:21 2019
 By Jimmy Wärting
Copyright (c) 2018 by Fahd Al Fraikh. All Rights Reserved.
</metadata>
<defs>
<font id="FFShamelFamilySemiRoundMedium" horiz-adv-x="0" >
  <font-face 
    font-family="FFShamelFamily-SemiRoundMedium S"
    font-weight="400"
    font-stretch="normal"
    units-per-em="1000"
    panose-1="0 0 5 0 0 0 0 0 0 0"
    ascent="800"
    descent="-200"
    bbox="-322 -512 1543 980"
    underline-thickness="50"
    underline-position="-100"
    unicode-range="U+000D-FEFC"
  />
<missing-glyph horiz-adv-x="500" 
d="M0 -200v1000h500v-1000h-500zM429 -150l-179 390l-179 -390h358zM250 360l179 390h-358zM222 300l-172 376v-752zM450 676l-172 -376l172 -376v752z" />
    <glyph glyph-name="uniFEFB" unicode="&#xfedf;&#xfe8e;" horiz-adv-x="764" arabic-form="isolated" 
d="M244 118l-43 469q-2 20 9 30t31 10h46q20 0 29 -10t11 -30l46 -469h162q40 0 40 40v536q0 40 40 40h41q40 0 40 -40v-536q0 -49 -6.5 -79.5t-24 -48t-49 -24t-81.5 -6.5h-427q-40 0 -40 40v38q0 40 40 40h136z" />
    <glyph glyph-name="uniFEFC" unicode="&#xfee0;&#xfe8e;" horiz-adv-x="845" arabic-form="final" 
d="M845 0q-75 0 -123.5 23.5t-75.5 68.5q-33 -45 -86.5 -68.5t-124.5 -23.5h-327q-40 0 -40 40v38q0 40 40 40h136l-43 469q-2 20 9 30t31 10h46q20 0 29 -10t11 -30l46 -469h62q72 0 106 34t34 109v433q0 40 40 40h41q40 0 40 -40v-433q0 -75 34.5 -109t114.5 -34v-118z
" />
    <glyph glyph-name="uniFEF7" unicode="&#xfedf;&#xfe84;" horiz-adv-x="764" arabic-form="isolated" 
d="M690 79q-7 -31 -24.5 -48.5t-49 -24t-81.5 -6.5h-427q-40 0 -40 40v38q0 40 40 40h136l-43 469q-2 20 9 30t31 10h46q20 0 29 -10t11 -30l46 -469h162q40 0 40 40v536q0 40 40 40h41q40 0 40 -40v-536q0 -49 -6 -79zM327 864q-4 -13 -17 -13q-6 0 -9 1q-16 6 -31 6
q-22 0 -35 -13t-13 -33q0 -23 16 -36t39 -13h60q20 0 20 -20v-23q0 -20 -20 -20h-168q-20 0 -20 20v23q0 20 20 20h3q-23 21 -23 59q0 23 9.5 42t25.5 33t37 21.5t45 7.5q6 0 18 -1.5t24 -4.5t20.5 -9t8.5 -15q0 -2 -2 -8z" />
    <glyph glyph-name="uniFEF8" unicode="&#xfee0;&#xfe84;" horiz-adv-x="844" arabic-form="final" 
d="M696 261q0 -75 34.5 -109t114.5 -34v-118q-75 0 -123.5 23.5t-75.5 68.5q-33 -45 -86.5 -68.5t-124.5 -23.5h-327q-40 0 -40 40v38q0 40 40 40h136l-43 469q-2 20 9 30t31 10h46q20 0 29 -10t11 -30l46 -469h62q72 0 106 34t34 109v433q0 40 40 40h41q40 0 40 -40v-433z
M328 864q-4 -13 -17 -13q-6 0 -9 1q-16 6 -31 6q-22 0 -35 -13t-13 -33q0 -23 16 -36t39 -13h60q20 0 20 -20v-23q0 -20 -20 -20h-168q-20 0 -20 20v23q0 20 20 20h3q-23 21 -23 59q0 23 9.5 42t25.5 33t37 21.5t45 7.5q6 0 18 -1.5t24 -4.5t20.5 -9t8.5 -15q0 -2 -2 -8z
" />
    <glyph glyph-name="uniFEF9" unicode="&#xfedf;&#xfe88;" horiz-adv-x="764" arabic-form="isolated" 
d="M690 79q-7 -31 -24.5 -48.5t-49 -24t-81.5 -6.5h-427q-40 0 -40 40v38q0 40 40 40h136l-43 469q-2 20 9 30t31 10h46q20 0 29 -10t11 -30l46 -469h162q40 0 40 40v536q0 40 40 40h41q40 0 40 -40v-536q0 -49 -6 -79zM325 -109q0 -2 -2 -8l-8 -24q-4 -13 -17 -13
q-6 0 -9 1q-16 6 -31 6q-22 0 -35 -13t-13 -33q0 -23 16 -36t39 -13h60q20 0 20 -20v-23q0 -20 -20 -20h-168q-20 0 -20 20v23q0 20 20 20h3q-23 21 -23 59q0 23 9.5 42t25.5 33t37 21.5t45 7.5q6 0 18 -1.5t24 -4.5t20.5 -9t8.5 -15z" />
    <glyph glyph-name="uniFEFA" unicode="&#xfee0;&#xfe88;" horiz-adv-x="844" arabic-form="final" 
d="M696 261q0 -75 34.5 -109t114.5 -34v-118q-75 0 -123.5 23.5t-75.5 68.5q-33 -45 -86.5 -68.5t-124.5 -23.5h-327q-40 0 -40 40v38q0 40 40 40h136l-43 469q-2 20 9 30t31 10h46q20 0 29 -10t11 -30l46 -469h62q72 0 106 34t34 109v433q0 40 40 40h41q40 0 40 -40v-433z
M325 -109q0 -2 -2 -8l-8 -24q-4 -13 -17 -13q-6 0 -9 1q-16 6 -31 6q-22 0 -35 -13t-13 -33q0 -23 16 -36t39 -13h60q20 0 20 -20v-23q0 -20 -20 -20h-168q-20 0 -20 20v23q0 20 20 20h3q-23 21 -23 59q0 23 9.5 42t25.5 33t37 21.5t45 7.5q6 0 18 -1.5t24 -4.5t20.5 -9
t8.5 -15z" />
    <glyph glyph-name="uniFEF5" unicode="&#xfedf;&#xfe82;" horiz-adv-x="764" arabic-form="isolated" 
d="M617 7q-32 -7 -82 -7h-427q-40 0 -40 40v38q0 40 40 40h136l-43 469q-2 20 9 30t31 10h46q20 0 29 -10t11 -30l46 -469h162q40 0 40 40v536q0 40 40 40h41q40 0 40 -40v-536q0 -49 -6.5 -79.5t-24 -48t-48.5 -23.5zM326 828q4 4 10 4h34q6 0 10.5 -4.5t4.5 -10.5v-18
q0 -46 -23.5 -72.5t-64.5 -26.5q-34 0 -58 14t-41 25t-27 18.5t-19 7.5q-12 0 -16 -10t-4 -23v-17q0 -6 -4.5 -10.5t-10.5 -4.5h-35q-6 0 -10.5 4.5t-4.5 10.5v17q0 45 21.5 71t59.5 26q29 0 49 -13t37 -25t31 -19t32 -7q13 0 18.5 7t5.5 27v18q0 6 5 11z" />
    <glyph glyph-name="uniFEF6" unicode="&#xfee0;&#xfe82;" horiz-adv-x="844" arabic-form="final" 
d="M575 694q0 40 40 40h41q40 0 40 -40v-433q0 -75 34.5 -109t114.5 -34v-118q-75 0 -123.5 23.5t-75.5 68.5q-33 -45 -86.5 -68.5t-124.5 -23.5h-327q-40 0 -40 40v38q0 40 40 40h136l-43 469q-2 20 9 30t31 10h46q20 0 29 -10t11 -30l46 -469h62q72 0 106 34t34 109v433z
M321 817q0 6 4.5 10.5t10.5 4.5h34q6 0 10.5 -4.5t4.5 -10.5v-18q0 -46 -23.5 -72.5t-64.5 -26.5q-34 0 -58 14t-41 25t-27 18.5t-19 7.5q-12 0 -16 -10t-4 -23v-17q0 -6 -4.5 -10.5t-10.5 -4.5h-35q-6 0 -10.5 4.5t-4.5 10.5v17q0 45 21.5 71t59.5 26q29 0 49 -13t37 -25
t31 -19t32 -7q13 0 18.5 7t5.5 27v18z" />
    <glyph glyph-name="uniFE8E" unicode="&#x627;" horiz-adv-x="328" arabic-form="final" 
d="M229 0q-50 0 -81.5 6.5t-49 24t-24 48t-6.5 79.5v536q0 40 40 40h41q40 0 40 -40v-536q0 -40 40 -40h99v-118h-99z" />
    <glyph glyph-name="uniFE84" unicode="&#x623;" horiz-adv-x="328" arabic-form="final" 
d="M328 0h-99q-50 0 -81.5 6.5t-49 24t-24 48t-6.5 79.5v476q0 40 40 40h41q40 0 40 -40v-476q0 -40 40 -40h99v-118zM211 950q0 -2 -2 -8l-8 -24q-4 -13 -17 -13q-6 0 -9 1q-16 6 -31 6q-22 0 -35 -13t-13 -33q0 -23 16 -36t39 -13h60q20 0 20 -20v-23q0 -20 -20 -20h-168
q-20 0 -20 20v23q0 20 20 20h3q-23 21 -23 59q0 23 9.5 42t25.5 33t37 21.5t45 7.5q6 0 18 -1.5t24 -4.5t20.5 -9t8.5 -15z" />
    <glyph glyph-name="uniFE88" unicode="&#x625;" horiz-adv-x="328" arabic-form="final" 
d="M328 0h-99q-50 0 -81.5 6.5t-49 24t-24 48t-6.5 79.5v536q0 40 40 40h41q40 0 40 -40v-536q0 -40 40 -40h99v-118zM217 -118q0 -2 -2 -8l-8 -24q-4 -13 -17 -13q-6 0 -9 1q-16 6 -31 6q-22 0 -35 -13t-13 -33q0 -23 16 -36t39 -13h60q20 0 20 -20v-23q0 -20 -20 -20h-168
q-20 0 -20 20v23q0 20 20 20h3q-23 21 -23 59q0 23 9.5 42t25.5 33t37 21.5t45 7.5q6 0 18 -1.5t24 -4.5t20.5 -9t8.5 -15z" />
    <glyph glyph-name="uniFE82" unicode="&#x622;" horiz-adv-x="328" arabic-form="final" 
d="M328 0h-99q-50 0 -81.5 6.5t-49 24t-24 48t-6.5 79.5v536q0 40 40 40h41q40 0 40 -40v-536q0 -40 40 -40h99v-118zM240 952q0 6 4.5 10.5t10.5 4.5h34q6 0 10.5 -4.5t4.5 -10.5v-18q0 -46 -23.5 -72.5t-64.5 -26.5q-34 0 -58 14t-41 25t-27 18.5t-19 7.5q-12 0 -16 -10
t-4 -23v-17q0 -6 -4.5 -10.5t-10.5 -4.5h-35q-6 0 -10.5 4.5t-4.5 10.5v17q0 45 21.5 71t59.5 26q29 0 49 -13t37 -25t31 -19t32 -7q13 0 18.5 7t5.5 27v18z" />
    <glyph glyph-name="uni066E.init" unicode="&#x66e;" horiz-adv-x="329" 
d="M231 31q-18 -18 -49.5 -24.5t-81.5 -6.5h-100q-28 0 -46.5 17.5t-18.5 43.5t18 41.5t47 15.5h100q40 0 40 40v272q0 40 40 40h41q40 0 40 -40v-272q0 -49 -6.5 -79.5t-23.5 -47.5z" />
    <glyph glyph-name="uni066E.medi" unicode="&#x66e;" horiz-adv-x="410" 
d="M140 430q0 40 40 40h41q40 0 40 -40v-169q0 -75 34.5 -109t114.5 -34v-118q-75 0 -123.5 23.5t-75.5 68.5q-33 -45 -86.5 -68.5t-124.5 -23.5q-28 0 -46.5 17.5t-18.5 43.5t18 41.5t47 15.5q72 0 106 34t34 109v169z" />
    <glyph glyph-name="uni066E.fina" unicode="&#x66e;" horiz-adv-x="1079" 
d="M930 261q0 -75 34.5 -109t114.5 -34v-118q-75 0 -123.5 23.5t-75.5 68.5q-33 -45 -87 -68.5t-124 -23.5h-266q-75 0 -136 15.5t-104 49.5t-66.5 88.5t-23.5 132.5q0 47 14 101q10 33 46 33h31q36 0 36 -31q0 -3 -0.5 -6t-1.5 -7q-7 -34 -7 -68q0 -59 13.5 -96t40 -58
t66.5 -28.5t92 -7.5h266q72 0 106 35.5t34 107.5v169q0 40 40 40h41q40 0 40 -40v-169z" />
    <glyph glyph-name="uniFE90" unicode="&#x628;" horiz-adv-x="1079" arabic-form="final" 
d="M880 92q-33 -45 -87 -68.5t-124 -23.5h-266q-75 0 -136 15.5t-104 49.5t-66.5 88.5t-23.5 132.5q0 47 14 101q10 33 46 33h31q36 0 36 -31q0 -3 -0.5 -6t-1.5 -7q-7 -34 -7 -68q0 -59 13.5 -96t40 -58t66.5 -28.5t92 -7.5h266q72 0 106 35.5t34 107.5v169q0 40 40 40h41
q40 0 40 -40v-169q0 -75 34.5 -109t114.5 -34v-118q-75 0 -123.5 23.5t-75.5 68.5zM520 -103q37 0 37 -36v-53q0 -36 -37 -36h-52q-37 0 -37 36v53q0 36 37 36h52z" />
    <glyph glyph-name="uniFE92" unicode="&#x628;" horiz-adv-x="410" arabic-form="medial" 
d="M-65 61q0 26 18 41.5t47 15.5q72 0 106 34t34 109v169q0 40 40 40h41q40 0 40 -40v-169q0 -75 34.5 -109t114.5 -34v-118q-75 0 -123.5 23.5t-75.5 68.5q-33 -45 -86.5 -68.5t-124.5 -23.5q-28 0 -46.5 17.5t-18.5 43.5zM141 -138q0 36 37 36h52q37 0 37 -36v-53
q0 -36 -37 -36h-52q-37 0 -37 36v53z" />
    <glyph glyph-name="uniFE91" unicode="&#x628;" horiz-adv-x="329" arabic-form="initial" 
d="M-47 18q-18 17 -18 43t18 41.5t47 15.5h100q40 0 40 40v272q0 40 40 40h41q40 0 40 -40v-272q0 -49 -6.5 -79.5t-24 -48t-49 -24t-81.5 -6.5h-100q-28 0 -47 18zM91 -139q0 36 37 36h52q37 0 37 -36v-53q0 -36 -37 -36h-52q-37 0 -37 36v53z" />
    <glyph glyph-name="uniFB57" unicode="&#x67e;" horiz-adv-x="1079" arabic-form="final" 
d="M880 92q-33 -45 -87 -68.5t-124 -23.5h-266q-75 0 -136 15.5t-104 49.5t-66.5 88.5t-23.5 132.5q0 47 14 101q10 33 46 33h31q36 0 36 -31q0 -3 -0.5 -6t-1.5 -7q-7 -34 -7 -68q0 -59 13.5 -96t40 -58t66.5 -28.5t92 -7.5h266q72 0 106 35.5t34 107.5v169q0 40 40 40h41
q40 0 40 -40v-169q0 -75 34.5 -109t114.5 -34v-118q-75 0 -123.5 23.5t-75.5 68.5zM562 -314q0 -36 -37 -36h-52q-37 0 -37 36v53q0 36 37 36h52q37 0 37 -36v-53zM536 -126q0 36 37 36h52q37 0 37 -36v-53q0 -36 -37 -36h-52q-37 0 -37 36v53zM336 -126q0 36 37 36h52
q37 0 37 -36v-53q0 -36 -37 -36h-52q-37 0 -37 36v53z" />
    <glyph glyph-name="uniFB59" unicode="&#x67e;" horiz-adv-x="410" arabic-form="medial" 
d="M296 152q34 -34 114 -34v-118q-75 0 -123.5 23.5t-75.5 68.5q-33 -45 -86.5 -68.5t-124.5 -23.5q-28 0 -46.5 17.5t-18.5 43.5t18 41.5t47 15.5q72 0 106 34t34 109v169q0 40 40 40h41q40 0 40 -40v-169q0 -75 35 -109zM263 -314q0 -36 -37 -36h-52q-37 0 -37 36v53
q0 36 37 36h52q37 0 37 -36v-53zM326 -90q37 0 37 -36v-53q0 -36 -37 -36h-52q-37 0 -37 36v53q0 36 37 36h52zM37 -126q0 36 37 36h52q37 0 37 -36v-53q0 -36 -37 -36h-52q-37 0 -37 36v53z" />
    <glyph glyph-name="uniFB58" unicode="&#x67e;" horiz-adv-x="393" arabic-form="initial" 
d="M255 79q-7 -31 -24.5 -48.5t-49 -24t-81.5 -6.5h-100q-28 0 -46.5 17.5t-18.5 43.5t18 41.5t47 15.5h100q40 0 40 40v272q0 40 40 40h41q40 0 40 -40v-272q0 -49 -6 -79zM263 -314q0 -36 -37 -36h-52q-37 0 -37 36v53q0 36 37 36h52q37 0 37 -36v-53zM274 -215
q-37 0 -37 36v53q0 36 37 36h52q37 0 37 -36v-53q0 -36 -37 -36h-52zM37 -126q0 36 37 36h52q37 0 37 -36v-53q0 -36 -37 -36h-52q-37 0 -37 36v53z" />
    <glyph glyph-name="uniFE96" unicode="&#x62a;" horiz-adv-x="1079" arabic-form="final" 
d="M403 0q-75 0 -136 15.5t-104 49.5t-66.5 88.5t-23.5 132.5q0 47 14 101q10 33 46 33h31q36 0 36 -31q0 -3 -0.5 -6t-1.5 -7q-7 -34 -7 -68q0 -59 13.5 -96t40 -58t66.5 -28.5t92 -7.5h266q72 0 106 35.5t34 107.5v169q0 40 40 40h41q40 0 40 -40v-169q0 -75 34.5 -109
t114.5 -34v-118q-75 0 -123.5 23.5t-75.5 68.5q-33 -45 -87 -68.5t-124 -23.5h-266zM652 566q0 -36 -37 -36h-52q-37 0 -37 36v53q0 36 37 36h52q37 0 37 -36v-53zM435 655q37 0 37 -36v-53q0 -36 -37 -36h-52q-37 0 -37 36v53q0 36 37 36h52z" />
    <glyph glyph-name="uniFE98" unicode="&#x62a;" horiz-adv-x="410" arabic-form="medial" 
d="M287 24q-49 23 -76 68q-33 -45 -86.5 -68.5t-124.5 -23.5q-28 0 -46.5 17.5t-18.5 43.5t18 41.5t47 15.5q72 0 106 34t34 109v169q0 40 40 40h41q40 0 40 -40v-169q0 -75 34.5 -109t114.5 -34v-118q-75 0 -123 24zM139 675q37 0 37 -36v-53q0 -36 -37 -36h-52
q-37 0 -37 36v53q0 36 37 36h52zM319 675q37 0 37 -36v-53q0 -36 -37 -36h-52q-37 0 -37 36v53q0 36 37 36h52z" />
    <glyph glyph-name="uniFE97" unicode="&#x62a;" horiz-adv-x="376" arabic-form="initial" 
d="M261 158q0 -49 -6.5 -79.5t-24 -48t-49 -24t-81.5 -6.5h-100q-28 0 -46.5 17.5t-18.5 43.5t18 41.5t47 15.5h100q40 0 40 40v272q0 40 40 40h41q40 0 40 -40v-272zM40 639q0 36 37 36h52q37 0 37 -36v-53q0 -36 -37 -36h-52q-37 0 -37 36v53zM257 550q-37 0 -37 36v53
q0 36 37 36h52q37 0 37 -36v-53q0 -36 -37 -36h-52z" />
    <glyph glyph-name="uniFE9A" unicode="&#x62b;" horiz-adv-x="1079" arabic-form="final" 
d="M880 92q-33 -45 -87 -68.5t-124 -23.5h-266q-75 0 -136 15.5t-104 49.5t-66.5 88.5t-23.5 132.5q0 47 14 101q10 33 46 33h31q36 0 36 -31q0 -3 -0.5 -6t-1.5 -7q-7 -34 -7 -68q0 -59 13.5 -96t40 -58t66.5 -28.5t92 -7.5h266q72 0 106 35.5t34 107.5v169q0 40 40 40h41
q40 0 40 -40v-169q0 -75 34.5 -109t114.5 -34v-118q-75 0 -123.5 23.5t-75.5 68.5zM336 619q0 36 37 36h52q37 0 37 -36v-53q0 -36 -37 -36h-52q-37 0 -37 36v53zM562 701q0 -36 -37 -36h-52q-37 0 -37 36v53q0 36 37 36h52q37 0 37 -36v-53zM625 655q37 0 37 -36v-53
q0 -36 -37 -36h-52q-37 0 -37 36v53q0 36 37 36h52z" />
    <glyph glyph-name="uniFE9C" unicode="&#x62b;" horiz-adv-x="410" arabic-form="medial" 
d="M296 152q34 -34 114 -34v-118q-75 0 -123.5 23.5t-75.5 68.5q-33 -45 -86.5 -68.5t-124.5 -23.5q-28 0 -46.5 17.5t-18.5 43.5t18 41.5t47 15.5q72 0 106 34t34 109v169q0 40 40 40h41q40 0 40 -40v-169q0 -75 35 -109zM326 672q37 0 37 -36v-53q0 -36 -37 -36h-52
q-37 0 -37 36v53q0 36 37 36h52zM37 636q0 36 37 36h52q37 0 37 -36v-53q0 -36 -37 -36h-52q-37 0 -37 36v53zM263 718q0 -36 -37 -36h-52q-37 0 -37 36v53q0 36 37 36h52q37 0 37 -36v-53z" />
    <glyph glyph-name="uniFE9B" unicode="&#x62b;" horiz-adv-x="394" arabic-form="initial" 
d="M255 79q-7 -31 -24.5 -48.5t-49 -24t-81.5 -6.5h-100q-28 0 -46.5 17.5t-18.5 43.5t18 41.5t47 15.5h100q40 0 40 40v272q0 40 40 40h41q40 0 40 -40v-272q0 -49 -6 -79zM327 673q37 0 37 -36v-53q0 -36 -37 -36h-52q-37 0 -37 36v53q0 36 37 36h52zM127 673q37 0 37 -36
v-53q0 -36 -37 -36h-52q-37 0 -37 36v53q0 36 37 36h52zM264 719q0 -36 -37 -36h-52q-37 0 -37 36v53q0 36 37 36h52q37 0 37 -36v-53z" />
    <glyph glyph-name="uniFE9E" unicode="&#x62c;" horiz-adv-x="769" arabic-form="final" 
d="M520 305q-22 45 -60 70q-36 24 -78 33.5t-85 9.5q-39 0 -77 -6q-3 -1 -10 -1q-32 0 -35 35l-4 39q-3 39 35 45q23 4 47 6t49 2q59 0 117 -14.5t112 -50.5q57 -38 92.5 -105.5t53.5 -171.5q2 -13 4.5 -27t7 -25.5t13 -18.5t21.5 -7h46v-118h-393q-90 0 -128.5 -26.5
t-38.5 -86.5t38.5 -87t128.5 -27q40 0 40 -40v-37q0 -40 -40 -40q-140 0 -214 59.5t-74 171.5t74 171.5t214 59.5l3 -1v1h191q-7 24 -13 58q-15 83 -37 129zM502 -228q-37 0 -37 36v53q0 36 37 36h52q37 0 37 -36v-53q0 -36 -37 -36h-52z" />
    <glyph glyph-name="uniFEA0" unicode="&#x62c;" horiz-adv-x="654" arabic-form="medial" 
d="M491 368q35 -68 53 -172q2 -13 4.5 -27t7 -25.5t13 -18.5t21.5 -7h64v-118h-654q-25 0 -43 18t-18 43q0 24 17 39.5t43 17.5h438q-7 24 -13 58q-14 81 -36.5 127.5t-60.5 71.5q-37 24 -79 33.5t-84 9.5q-39 0 -77 -6q-3 -1 -10 -1q-32 0 -35 35l-4 39q-3 39 35 45
q24 4 48 6t49 2q59 0 116.5 -14.5t111.5 -50.5q57 -38 93 -105zM334 -103q37 0 37 -36v-53q0 -36 -37 -36h-52q-37 0 -37 36v53q0 36 37 36h52z" />
    <glyph glyph-name="uniFE9F" unicode="&#x62c;" horiz-adv-x="696" arabic-form="initial" 
d="M491 368q35 -68 53 -172q2 -13 4.5 -27t7 -25.5t13 -18.5t21.5 -7q38 0 38 -38v-40q0 -40 -40 -40h-588q-25 0 -43 18t-18 43q0 24 17 39.5t43 17.5h438q-7 24 -13 58q-14 81 -36.5 127.5t-60.5 71.5q-37 24 -79 33.5t-84 9.5q-39 0 -77 -6q-3 -1 -10 -1q-32 0 -35 35
l-4 39q-3 39 35 45q24 4 48 6t49 2q59 0 116.5 -14.5t111.5 -50.5q57 -38 93 -105zM322 -103q37 0 37 -36v-53q0 -36 -37 -36h-52q-37 0 -37 36v53q0 36 37 36h52z" />
    <glyph glyph-name="uniFB7B" unicode="&#x686;" horiz-adv-x="769" arabic-form="final" 
d="M677 196q2 -13 4.5 -27t7 -25.5t13 -18.5t21.5 -7h46v-118h-393q-90 0 -128.5 -26.5t-38.5 -86.5t38.5 -87t128.5 -27q40 0 40 -40v-37q0 -40 -40 -40q-140 0 -214 59.5t-74 171.5t74 171.5t214 59.5l3 -1v1h191q-7 24 -13 58q-15 83 -37 128.5t-60 70.5q-36 24 -78 33.5
t-85 9.5q-39 0 -77 -6q-3 -1 -10 -1q-32 0 -35 35l-4 39q-3 39 35 45q23 4 47 6t49 2q59 0 117 -14.5t112 -50.5q57 -38 92.5 -105.5t53.5 -171.5zM620 -255q0 -30 -30 -30h-43q-31 0 -31 30v44q0 29 31 29h43q30 0 30 -29v-44zM538 -144q0 -29 -31 -29h-43q-30 0 -30 29v44
q0 30 30 30h43q31 0 31 -30v-44zM672 -70q31 0 31 -30v-44q0 -29 -31 -29h-43q-30 0 -30 29v44q0 30 30 30h43z" />
    <glyph glyph-name="uniFB7D" unicode="&#x686;" horiz-adv-x="654" arabic-form="medial" 
d="M569 125q8 -7 21 -7h64v-118h-654q-25 0 -43 18t-18 43q0 24 17 39.5t43 17.5h438q-7 24 -13 58q-14 81 -36.5 127.5t-60.5 71.5q-37 24 -79 33.5t-84 9.5q-39 0 -77 -6q-3 -1 -10 -1q-32 0 -35 35l-4 39q-3 39 35 45q24 4 48 6t49 2q59 0 116.5 -14.5t111.5 -50.5
q57 -38 92.5 -105.5t53.5 -171.5q2 -13 4.5 -27t7 -25.5t13.5 -18.5zM346 -123q0 36 37 36h52q37 0 37 -36v-53q0 -36 -37 -36h-52q-37 0 -37 36v53zM146 -123q0 36 37 36h52q37 0 37 -36v-53q0 -36 -37 -36h-52q-37 0 -37 36v53zM372 -311q0 -36 -37 -36h-52q-37 0 -37 36
v53q0 36 37 36h52q37 0 37 -36v-53z" />
    <glyph glyph-name="uniFB7C" unicode="&#x686;" horiz-adv-x="696" arabic-form="initial" 
d="M569 125q8 -7 21 -7q38 0 38 -38v-40q0 -40 -40 -40h-588q-25 0 -43 18t-18 43q0 24 17 39.5t43 17.5h438q-7 24 -13 58q-14 81 -36.5 127.5t-60.5 71.5q-37 24 -79 33.5t-84 9.5q-39 0 -77 -6q-3 -1 -10 -1q-32 0 -35 35l-4 39q-3 39 35 45q24 4 48 6t49 2
q59 0 116.5 -14.5t111.5 -50.5q57 -38 92.5 -105.5t53.5 -171.5q2 -13 4.5 -27t7 -25.5t13.5 -18.5zM139 -125q0 36 37 36h52q37 0 37 -36v-53q0 -36 -37 -36h-52q-37 0 -37 36v53zM339 -125q0 36 37 36h52q37 0 37 -36v-53q0 -36 -37 -36h-52q-37 0 -37 36v53zM276 -349
q-37 0 -37 36v53q0 36 37 36h52q37 0 37 -36v-53q0 -36 -37 -36h-52z" />
    <glyph glyph-name="uniFEA2" unicode="&#x62d;" horiz-adv-x="769" arabic-form="final" 
d="M677 196q2 -13 4.5 -27t7 -25.5t13 -18.5t21.5 -7h46v-118h-393q-90 0 -128.5 -26.5t-38.5 -86.5t38.5 -87t128.5 -27h86q40 0 40 -40v-37q0 -40 -40 -40h-86q-140 0 -214 59.5t-74 171.5t74 171.5t214 59.5l3 -1v1h191q-7 24 -13 58q-15 83 -37 128.5t-60 70.5
q-36 24 -78 33.5t-85 9.5q-39 0 -77 -6q-3 -1 -10 -1q-32 0 -35 35l-4 39q-3 39 35 45q23 4 47 6t49 2q59 0 117 -14.5t112 -50.5q57 -38 92.5 -105.5t53.5 -171.5z" />
    <glyph glyph-name="uniFEA4" unicode="&#x62d;" horiz-adv-x="654" arabic-form="medial" 
d="M0 0q-25 0 -43 18t-18 43q0 24 17 39.5t43 17.5h438q-7 24 -13 58q-14 81 -36.5 127.5t-60.5 71.5q-37 24 -79 33.5t-84 9.5q-39 0 -77 -6q-3 -1 -10 -1q-32 0 -35 35l-4 39q-3 39 35 45q24 4 48 6t49 2q59 0 116.5 -14.5t111.5 -50.5q57 -38 92.5 -105.5t53.5 -171.5
q2 -13 4.5 -27t7 -25.5t13 -18.5t21.5 -7h64v-118h-654z" />
    <glyph glyph-name="uniFEA3" unicode="&#x62d;" horiz-adv-x="696" arabic-form="initial" 
d="M628 40q0 -40 -40 -40h-588q-25 0 -43 18t-18 43q0 24 17 39.5t43 17.5h438q-7 24 -13 58q-14 81 -36.5 127.5t-60.5 71.5q-37 24 -79 33.5t-84 9.5q-39 0 -77 -6q-3 -1 -10 -1q-32 0 -35 35l-4 39q-3 39 35 45q24 4 48 6t49 2q59 0 116.5 -14.5t111.5 -50.5
q57 -38 92.5 -105.5t53.5 -171.5q2 -13 4.5 -27t7 -25.5t13 -18.5t21.5 -7q38 0 38 -38v-40z" />
    <glyph glyph-name="uniFEA6" unicode="&#x62e;" horiz-adv-x="769" arabic-form="final" 
d="M302 538q59 0 117 -14.5t112 -50.5q57 -38 92.5 -105.5t53.5 -171.5q2 -13 4.5 -27t7 -25.5t13 -18.5t21.5 -7h46v-118h-393q-90 0 -128.5 -26.5t-38.5 -86.5t38.5 -87t128.5 -27h86q40 0 40 -40v-37q0 -40 -40 -40h-86q-140 0 -214 59.5t-74 171.5t74 171.5t214 59.5
l3 -1v1h191q-7 24 -13 58q-15 83 -37 128.5t-60 70.5q-36 24 -78 33.5t-85 9.5q-39 0 -77 -6q-3 -1 -10 -1q-32 0 -35 35l-4 39q-3 39 35 45q23 4 47 6t49 2zM461 634q0 -36 -37 -36h-52q-37 0 -37 36v53q0 36 37 36h52q37 0 37 -36v-53z" />
    <glyph glyph-name="uniFEA8" unicode="&#x62e;" horiz-adv-x="654" arabic-form="medial" 
d="M491 368q35 -68 53 -172q2 -13 4.5 -27t7 -25.5t13 -18.5t21.5 -7h64v-118h-654q-25 0 -43 18t-18 43q0 24 17 39.5t43 17.5h438q-7 24 -13 58q-14 81 -36.5 127.5t-60.5 71.5q-37 24 -79 33.5t-84 9.5q-39 0 -77 -6q-3 -1 -10 -1q-32 0 -35 35l-4 39q-3 39 35 45
q24 4 48 6t49 2q59 0 116.5 -14.5t111.5 -50.5q57 -38 93 -105zM337 723q37 0 37 -36v-53q0 -36 -37 -36h-52q-37 0 -37 36v53q0 36 37 36h52z" />
    <glyph glyph-name="uniFEA7" unicode="&#x62e;" horiz-adv-x="696" arabic-form="initial" 
d="M491 368q35 -68 53 -172q2 -13 4.5 -27t7 -25.5t13 -18.5t21.5 -7q38 0 38 -38v-40q0 -40 -40 -40h-588q-25 0 -43 18t-18 43q0 24 17 39.5t43 17.5h438q-7 24 -13 58q-14 81 -36.5 127.5t-60.5 71.5q-37 24 -79 33.5t-84 9.5q-39 0 -77 -6q-3 -1 -10 -1q-32 0 -35 35
l-4 39q-3 39 35 45q24 4 48 6t49 2q59 0 116.5 -14.5t111.5 -50.5q57 -38 93 -105zM305 723q37 0 37 -36v-53q0 -36 -37 -36h-52q-37 0 -37 36v53q0 36 37 36h52z" />
    <glyph glyph-name="uniFEAA" unicode="&#x62f;" horiz-adv-x="663" arabic-form="final" 
d="M124 499q0 40 40 40h30q85 0 153.5 -19t117 -57.5t74.5 -96.5t26 -136v-112h98v-118h-555q-40 0 -40 40v38q0 40 40 40h336v109q0 53 -15 89.5t-46 59t-78.5 32.5t-112.5 10h-28q-40 0 -40 40v41z" />
    <glyph glyph-name="uniFEAC" unicode="&#x630;" horiz-adv-x="663" arabic-form="final" 
d="M663 0h-555q-40 0 -40 40v38q0 40 40 40h336v109q0 53 -15 89.5t-46 59t-78.5 32.5t-112.5 10h-28q-40 0 -40 40v41q0 40 40 40h30q85 0 153.5 -19t117 -57.5t74.5 -96.5t26 -136v-112h98v-118zM253 687q0 36 37 36h52q37 0 37 -36v-53q0 -36 -37 -36h-52q-37 0 -37 36
v53z" />
    <glyph glyph-name="uniFEAE" unicode="&#x631;" horiz-adv-x="379" arabic-form="final" 
d="M96 -100q35 0 49 22t14 78v430q0 40 40 40h41q40 0 40 -40v-312h99v-118h-99q0 -110 -41.5 -163t-129.5 -53q-34 0 -69 7q-33 6 -33 35q0 3 0.5 6t1.5 7l8 34q7 31 38 31q7 0 11 -1q17 -3 30 -3z" />
    <glyph glyph-name="uniFEB0" unicode="&#x632;" horiz-adv-x="379" arabic-form="final" 
d="M280 0q0 -110 -41.5 -163t-129.5 -53q-34 0 -69 7q-33 6 -33 35q0 3 0.5 6t1.5 7l8 34q7 31 38 31q7 0 11 -1q17 -3 30 -3q35 0 49 22t14 78v430q0 40 40 40h41q40 0 40 -40v-312h99v-118h-99zM243 673q37 0 37 -36v-53q0 -36 -37 -36h-52q-37 0 -37 36v53q0 36 37 36h52
z" />
    <glyph glyph-name="uniFEB2" unicode="&#x633;" horiz-adv-x="1543" arabic-form="final" 
d="M1274 23q-45 -23 -101 -23t-95 21.5t-62 62.5q-29 -41 -70.5 -62.5t-92.5 -21.5h-129q-26 -126 -111.5 -186.5t-211.5 -60.5q-61 0 -120.5 16t-107 52t-76.5 95t-29 146q0 33 4.5 71.5t15.5 81.5q9 34 45 34h31q36 0 36 -31q0 -3 -0.5 -6t-1.5 -7q-7 -32 -10 -62.5
t-3 -58.5q0 -48 11.5 -87.5t37.5 -67.5t67 -43.5t100 -15.5q49 0 88.5 12.5t67 40.5t42 73.5t14.5 110.5v359q0 40 40 40h41q40 0 40 -40v-348h99q54 0 82 34t28 109v205q0 40 40 40h41q40 0 40 -40v-205q0 -72 28.5 -107.5t80.5 -35.5q47 0 73.5 34.5t26.5 108.5v238
q0 40 40 40h41q40 0 40 -40v-238q0 -75 34.5 -109t114.5 -34v-118q-73 0 -121 22.5t-75 65.5q-29 -43 -73 -65z" />
    <glyph glyph-name="uniFEB4" unicode="&#x633;" horiz-adv-x="1070" arabic-form="medial" 
d="M800 499q0 40 40 40h41q40 0 40 -40v-238q0 -75 34.5 -109t114.5 -34v-118q-73 0 -121 22.5t-75 65.5q-29 -43 -73.5 -65.5t-100.5 -22.5q-57 0 -95.5 21.5t-62.5 63.5q-29 -42 -73 -63.5t-99 -21.5q-58 0 -97.5 23t-62.5 67q-34 -44 -87 -67t-123 -23q-29 0 -47 16.5
t-18 42.5t18 42.5t47 16.5q72 0 106 34t34 109v205q0 40 40 40h41q40 0 40 -40v-205q0 -72 28.5 -107.5t80.5 -35.5q47 0 73.5 34t26.5 109v205q0 40 40 40h41q40 0 40 -40v-205q0 -72 28.5 -107.5t80.5 -35.5q47 0 73.5 34.5t26.5 108.5v238z" />
    <glyph glyph-name="uniFEB3" unicode="&#x633;" horiz-adv-x="989" arabic-form="initial" 
d="M800 499q0 40 40 40h41q40 0 40 -40v-341q0 -49 -6.5 -79.5t-24 -48t-49 -24t-81.5 -6.5h-50q-61 0 -102 22t-65 63q-29 -42 -73 -63.5t-100 -21.5q-58 0 -97.5 23t-62.5 67q-34 -44 -87 -67t-123 -23q-29 0 -47 16.5t-18 42.5t18 42.5t47 16.5q72 0 106 34t34 109v205
q0 40 40 40h41q40 0 40 -40v-205q0 -72 28.5 -107.5t80.5 -35.5q47 0 73.5 34t26.5 109v205q0 40 40 40h41q40 0 40 -40v-205q0 -143 119 -143h50q40 0 40 40v341z" />
    <glyph glyph-name="uniFEB6" unicode="&#x634;" horiz-adv-x="1543" arabic-form="final" 
d="M1078 22q-39 21 -62 62q-29 -41 -70.5 -62.5t-92.5 -21.5h-129q-26 -126 -111.5 -186.5t-211.5 -60.5q-61 0 -120.5 16t-107 52t-76.5 95t-29 146q0 33 4.5 71.5t15.5 81.5q9 34 45 34h31q36 0 36 -31q0 -3 -0.5 -6t-1.5 -7q-7 -32 -10 -62.5t-3 -58.5q0 -48 11.5 -87.5
t37.5 -67.5t67 -43.5t100 -15.5q49 0 88.5 12.5t67 40.5t42 73.5t14.5 110.5v359q0 40 40 40h41q40 0 40 -40v-348h99q54 0 82 34t28 109v205q0 40 40 40h41q40 0 40 -40v-205q0 -72 28.5 -107.5t80.5 -35.5q47 0 73.5 34.5t26.5 108.5v238q0 40 40 40h41q40 0 40 -40v-238
q0 -75 34.5 -109t114.5 -34v-118q-73 0 -121 22.5t-75 65.5q-29 -43 -73.5 -65.5t-100.5 -22.5t-95 22zM1100 618q-37 0 -37 36v53q0 36 37 36h52q37 0 37 -36v-53q0 -36 -37 -36h-52zM819 707q0 36 37 36h52q37 0 37 -36v-53q0 -36 -37 -36h-52q-37 0 -37 36v53zM1029 884
q37 0 37 -36v-53q0 -36 -37 -36h-52q-37 0 -37 36v53q0 36 37 36h52z" />
    <glyph glyph-name="uniFEB8" unicode="&#x634;" horiz-adv-x="1070" arabic-form="medial" 
d="M620 154q28 -36 80 -36q47 0 73.5 34.5t26.5 108.5v238q0 40 40 40h41q40 0 40 -40v-238q0 -75 34.5 -109t114.5 -34v-118q-73 0 -121 22.5t-75 65.5q-29 -43 -73.5 -65.5t-100.5 -22.5q-57 0 -95.5 21.5t-62.5 63.5q-29 -42 -73 -63.5t-99 -21.5q-58 0 -97.5 23
t-62.5 67q-34 -44 -87 -67t-123 -23q-29 0 -47 16.5t-18 42.5t18 42.5t47 16.5q72 0 106 34t34 109v205q0 40 40 40h41q40 0 40 -40v-205q0 -72 28.5 -107.5t80.5 -35.5q47 0 73.5 34t26.5 109v205q0 40 40 40h41q40 0 40 -40v-205q0 -72 29 -107zM348 707q0 36 37 36h52
q37 0 37 -36v-53q0 -36 -37 -36h-52q-37 0 -37 36v53zM592 707q0 36 37 36h52q37 0 37 -36v-53q0 -36 -37 -36h-52q-37 0 -37 36v53zM595 795q0 -36 -37 -36h-52q-37 0 -37 36v53q0 36 37 36h52q37 0 37 -36v-53z" />
    <glyph glyph-name="uniFEB7" unicode="&#x634;" horiz-adv-x="989" arabic-form="initial" 
d="M608 22q-41 22 -65 63q-29 -42 -73 -63.5t-100 -21.5q-58 0 -97.5 23t-62.5 67q-34 -44 -87 -67t-123 -23q-29 0 -47 16.5t-18 42.5t18 42.5t47 16.5q72 0 106 34t34 109v205q0 40 40 40h41q40 0 40 -40v-205q0 -72 28.5 -107.5t80.5 -35.5q47 0 73.5 34t26.5 109v205
q0 40 40 40h41q40 0 40 -40v-205q0 -143 119 -143h50q40 0 40 40v341q0 40 40 40h41q40 0 40 -40v-341q0 -49 -6.5 -79.5t-24 -48t-49 -24t-81.5 -6.5h-50q-61 0 -102 22zM468 654q0 -36 -37 -36h-52q-37 0 -37 36v53q0 36 37 36h52q37 0 37 -36v-53zM589 795q0 -36 -37 -36
h-52q-37 0 -37 36v53q0 36 37 36h52q37 0 37 -36v-53zM675 743q37 0 37 -36v-53q0 -36 -37 -36h-52q-37 0 -37 36v53q0 36 37 36h52z" />
    <glyph glyph-name="uniFEBA" unicode="&#x635;" horiz-adv-x="1508" arabic-form="final" 
d="M1311 90q-34 -43 -87.5 -66.5t-124.5 -23.5h-375q-26 -126 -111.5 -186.5t-211.5 -60.5q-61 0 -120.5 16t-107 52t-76.5 95t-29 146q0 33 5 71.5t16 81.5q7 34 44 34h31q36 0 36 -31q0 -3 -0.5 -6t-1.5 -7q-7 -32 -10 -62.5t-3 -58.5q0 -48 11.5 -87.5t37.5 -67.5
t67 -43.5t100 -15.5q49 0 88.5 12.5t67 40.5t42 73.5t14.5 110.5v392q0 40 40 40h41q40 0 40 -40v-141q42 85 118.5 132.5t185.5 47.5q66 0 125 -21.5t102.5 -59.5t69 -91t25.5 -115v-12q5 -63 39.5 -92t108.5 -29v-118q-75 0 -123 23t-74 67zM759 245q-25 -52 -25 -112v-15
h365q73 0 106.5 33t33.5 100q0 38 -15 68.5t-42 52t-63.5 33.5t-80.5 12q-61 0 -116 -22t-97 -60t-66 -90z" />
    <glyph glyph-name="uniFEBC" unicode="&#x635;" horiz-adv-x="960" arabic-form="medial" 
d="M676 24q-54 -24 -125 -24h-551q-29 0 -47 16.5t-18 42.5t18 42.5t47 16.5h67v381q0 40 40 40h40q40 0 40 -40v-140q42 85 118 132t185 47q66 0 125 -21.5t102.5 -59.5t69 -91t25.5 -115v-12q5 -63 39.5 -92t108.5 -29v-118q-75 0 -123 23t-74 67q-34 -43 -87 -66z
M676 320q-15 30 -42 51.5t-63.5 33.5t-80.5 12q-60 0 -114 -21t-95.5 -58t-67 -87t-27.5 -108v-25h365q73 0 106.5 33t33.5 100q0 38 -15 69z" />
    <glyph glyph-name="uniFEBB" unicode="&#x635;" horiz-adv-x="880" arabic-form="initial" 
d="M787 366q25 -53 25 -115v-93q0 -49 -6.5 -79.5t-24 -48t-49 -24t-81.5 -6.5h-651q-29 0 -47 16.5t-18 42.5t18 42.5t47 16.5h67v381q0 40 40 40h40q40 0 40 -40v-140q42 85 118 132t185 47q66 0 125 -21.5t102.5 -59.5t69.5 -91zM691 251q0 38 -15 68.5t-42 52
t-63.5 33.5t-80.5 12q-60 0 -114 -21t-95.5 -58t-67 -87t-27.5 -108v-25h465q40 0 40 40v93z" />
    <glyph glyph-name="uniFEBE" unicode="&#x636;" horiz-adv-x="1508" arabic-form="final" 
d="M1266 457q43 -38 68.5 -91t25.5 -115v-12q5 -63 39.5 -92t108.5 -29v-118q-75 0 -123 23t-74 67q-34 -43 -87.5 -66.5t-124.5 -23.5h-375q-26 -126 -111.5 -186.5t-211.5 -60.5q-61 0 -120.5 16t-107 52t-76.5 95t-29 146q0 33 5 71.5t16 81.5q7 34 44 34h31q36 0 36 -31
q0 -3 -0.5 -6t-1.5 -7q-7 -32 -10 -62.5t-3 -58.5q0 -48 11.5 -87.5t37.5 -67.5t67 -43.5t100 -15.5q49 0 88.5 12.5t67 40.5t42 73.5t14.5 110.5v392q0 40 40 40h41q40 0 40 -40v-141q42 85 118.5 132.5t185.5 47.5q66 0 125 -21.5t103 -59.5zM1206 151q33 33 33 100
q0 38 -15 68.5t-42 52t-63.5 33.5t-80.5 12q-61 0 -116 -22t-97 -60t-66.5 -90t-24.5 -112v-15h365q73 0 107 33zM1053 649q0 -36 -37 -36h-52q-37 0 -37 36v53q0 36 37 36h52q37 0 37 -36v-53z" />
    <glyph glyph-name="uniFEC0" unicode="&#x636;" horiz-adv-x="960" arabic-form="medial" 
d="M718 457q43 -38 68.5 -91t25.5 -115v-12q5 -63 39.5 -92t108.5 -29v-118q-75 0 -123 23t-74 67q-34 -43 -87.5 -66.5t-124.5 -23.5h-551q-29 0 -47 16.5t-18 42.5t18 42.5t47 16.5h67v381q0 40 40 40h40q40 0 40 -40v-140q42 85 118 132t185 47q66 0 125 -21.5t103 -59.5
zM634 372q-27 21 -63.5 33t-80.5 12q-60 0 -114 -21t-95.5 -58t-67 -87t-27.5 -108v-25h365q73 0 106.5 33t33.5 100q0 38 -15 68.5t-42 52.5zM382 700q0 36 37 36h52q37 0 37 -36v-53q0 -36 -37 -36h-52q-37 0 -37 36v53z" />
    <glyph glyph-name="uniFEBF" unicode="&#x636;" horiz-adv-x="880" arabic-form="initial" 
d="M0 0q-29 0 -47 16.5t-18 42.5t18 42.5t47 16.5h67v381q0 40 40 40h40q40 0 40 -40v-140q42 85 118 132t185 47q66 0 125 -21.5t102.5 -59.5t69 -91t25.5 -115v-93q0 -49 -6.5 -79.5t-24 -48t-49 -24t-81.5 -6.5h-651zM691 251q0 38 -15 68.5t-42 52t-63.5 33.5t-80.5 12
q-60 0 -114 -21t-95.5 -58t-67 -87t-27.5 -108v-25h465q40 0 40 40v93zM471 736q37 0 37 -36v-53q0 -36 -37 -36h-52q-37 0 -37 36v53q0 36 37 36h52z" />
    <glyph glyph-name="uniFEC2" unicode="&#x637;" horiz-adv-x="1093" arabic-form="final" 
d="M920 366q25 -53 25 -115v-12q5 -63 39.5 -92t108.5 -29v-118q-75 0 -123 23t-74 67q-34 -43 -87.5 -66.5t-124.5 -23.5h-576q-40 0 -40 40v38q0 40 40 40h92v576q0 40 40 40h40q40 0 40 -40l-1 -335q42 84 118.5 131.5t185.5 47.5q66 0 125 -21.5t102.5 -59.5t69.5 -91z
M809 320q-15 30 -42 51.5t-63.5 33.5t-80.5 12q-60 0 -114.5 -21t-96 -58.5t-66.5 -87.5t-27 -109v-23h365q73 0 106.5 33t33.5 100q0 38 -15 69z" />
    <glyph glyph-name="uniFEC4" unicode="&#x637;" horiz-adv-x="960" arabic-form="medial" 
d="M676 24q-54 -24 -125 -24h-551q-29 0 -47 16.5t-18 42.5t18 42.5t47 16.5h67v576q0 40 40 40h40q40 0 40 -40l-1 -335q42 84 118.5 131.5t185.5 47.5q66 0 125 -21.5t102.5 -59.5t69 -91t25.5 -115v-12q5 -63 39.5 -92t108.5 -29v-118q-75 0 -123 23t-74 67
q-34 -43 -87 -66zM676 320q-15 30 -42 51.5t-63.5 33.5t-80.5 12q-60 0 -114.5 -21t-96 -58.5t-66.5 -87.5t-27 -109v-23h365q73 0 106.5 33t33.5 100q0 38 -15 69z" />
    <glyph glyph-name="uniFEC3" unicode="&#x637;" horiz-adv-x="880" arabic-form="initial" 
d="M787 366q25 -53 25 -115v-93q0 -49 -6.5 -79.5t-24 -48t-49 -24t-81.5 -6.5h-651q-29 0 -47 16.5t-18 42.5t18 42.5t47 16.5h67v576q0 40 40 40h40q40 0 40 -40l-1 -335q42 84 118.5 131.5t185.5 47.5q66 0 125 -21.5t102.5 -59.5t69.5 -91zM691 251q0 38 -15 68.5
t-42 52t-63.5 33.5t-80.5 12q-60 0 -114.5 -21t-96 -58.5t-66.5 -87.5t-27 -109v-23h465q40 0 40 40v93z" />
    <glyph glyph-name="uniFEC6" unicode="&#x638;" horiz-adv-x="1093" arabic-form="final" 
d="M809 24q-54 -24 -125 -24h-576q-40 0 -40 40v38q0 40 40 40h92v576q0 40 40 40h40q40 0 40 -40l-1 -335q42 84 118.5 131.5t185.5 47.5q66 0 125 -21.5t102.5 -59.5t69 -91t25.5 -115v-12q5 -63 39.5 -92t108.5 -29v-118q-75 0 -123 23t-74 67q-34 -43 -87 -66zM767 372
q-27 21 -63.5 33t-80.5 12q-60 0 -114.5 -21t-96 -58.5t-66.5 -87.5t-27 -109v-23h365q73 0 106.5 33t33.5 100q0 38 -15 68.5t-42 52.5zM513 701q0 36 37 36h52q37 0 37 -36v-53q0 -36 -37 -36h-52q-37 0 -37 36v53z" />
    <glyph glyph-name="uniFEC8" unicode="&#x638;" horiz-adv-x="960" arabic-form="medial" 
d="M718 457q43 -38 68.5 -91t25.5 -115v-12q5 -63 39.5 -92t108.5 -29v-118q-75 0 -123 23t-74 67q-34 -43 -87.5 -66.5t-124.5 -23.5h-551q-29 0 -47 16.5t-18 42.5t18 42.5t47 16.5h67v576q0 40 40 40h40q40 0 40 -40l-1 -335q42 84 118.5 131.5t185.5 47.5
q66 0 125 -21.5t103 -59.5zM634 372q-27 21 -63.5 33t-80.5 12q-60 0 -114.5 -21t-96 -58.5t-66.5 -87.5t-27 -109v-23h365q73 0 106.5 33t33.5 100q0 38 -15 68.5t-42 52.5zM391 700q0 36 37 36h52q37 0 37 -36v-53q0 -36 -37 -36h-52q-37 0 -37 36v53z" />
    <glyph glyph-name="uniFEC7" unicode="&#x638;" horiz-adv-x="880" arabic-form="initial" 
d="M0 0q-29 0 -47 16.5t-18 42.5t18 42.5t47 16.5h67v576q0 40 40 40h40q40 0 40 -40l-1 -335q42 84 118.5 131.5t185.5 47.5q66 0 125 -21.5t102.5 -59.5t69 -91t25.5 -115v-93q0 -49 -6.5 -79.5t-24 -48t-49 -24t-81.5 -6.5h-651zM691 251q0 38 -15 68.5t-42 52
t-63.5 33.5t-80.5 12q-60 0 -114.5 -21t-96 -58.5t-66.5 -87.5t-27 -109v-23h465q40 0 40 40v93zM480 736q37 0 37 -36v-53q0 -36 -37 -36h-52q-37 0 -37 36v53q0 36 37 36h52z" />
    <glyph glyph-name="uniFECA" unicode="&#x639;" horiz-adv-x="802" arabic-form="final" 
d="M456 43q-8 10 -14 19q-6 -9 -14 -19.5t-20 -20t-28.5 -16t-39.5 -6.5q-82 0 -116.5 -28.5t-34.5 -84.5q0 -60 38.5 -87t128.5 -27h86q40 0 40 -40v-37q0 -40 -40 -40h-86q-140 0 -214 59.5t-74 171.5q0 97 55.5 154.5t160.5 71.5l-104 95q-17 15 -19.5 24.5t-2.5 28.5
q0 60 22 111t60.5 88t90 58t111.5 21t112 -21t90.5 -58t60.5 -88t22 -111q0 -18 -5 -30t-17 -23l-100 -90h197v-118h-258q-23 0 -39.5 6.5t-28.5 16t-20 20.5zM505 407q-29 11 -63 11t-63 -11t-50.5 -31.5t-35 -49t-15.5 -63.5l164 -151l164 151q-2 35 -15.5 63.5t-35 49
t-50.5 31.5z" />
    <glyph glyph-name="uniFECC" unicode="&#x639;" horiz-adv-x="720" arabic-form="medial" 
d="M720 118v-118h-258q-23 0 -39.5 6.5t-28.5 16t-20 20t-14 19.5q-6 -9 -14 -19.5t-20 -20t-28.5 -16t-39.5 -6.5h-258q-28 0 -46.5 17.5t-18.5 43.5t18 41.5t47 15.5h197l-99 89q-16 16 -19 25.5t-3 28.5q0 60 22 111t60.5 88t90 58t111.5 21t112 -21t90.5 -58t60.5 -88
t22 -111q-1 -18 -6 -30.5t-17 -23.5l-99 -89h197zM474 376q-22 20 -51 31t-63 11t-63 -11t-50.5 -31.5t-35 -49t-15.5 -63.5l164 -151l164 151q-2 35 -15.5 63.5t-34.5 49.5z" />
    <glyph glyph-name="uniFECB" unicode="&#x639;" horiz-adv-x="608" arabic-form="initial" 
d="M0 0q-27 0 -46 17t-19 42t19 42t46 17h94q-71 46 -71 151q0 62 23 112t63 85.5t94.5 54.5t117.5 19q41 0 80 -7.5t84 -23.5q28 -9 28 -33q0 -4 -1 -8.5t-3 -9.5l-13 -33q-10 -27 -34 -27q-4 0 -8.5 1t-9.5 3q-32 11 -61 16t-58 5q-39 0 -72 -11t-57.5 -31t-38 -49.5
t-13.5 -66.5q0 -77 44 -112t136 -35h176q40 0 40 -40v-38q0 -40 -40 -40h-500z" />
    <glyph glyph-name="uniFECE" unicode="&#x63a;" horiz-adv-x="802" arabic-form="final" 
d="M802 0h-258q-23 0 -39.5 6.5t-28.5 16t-20 20t-14 19.5q-6 -9 -14 -19.5t-20 -20t-28.5 -16t-39.5 -6.5q-82 0 -116.5 -28.5t-34.5 -84.5q0 -60 38.5 -87t128.5 -27h86q40 0 40 -40v-37q0 -40 -40 -40h-86q-140 0 -214 59.5t-74 171.5q0 97 55.5 154.5t160.5 71.5
l-104 95q-17 15 -19.5 24.5t-2.5 28.5q0 60 22 111t60.5 88t90 58t111.5 21t112 -21t90.5 -58t60.5 -88t22 -111q0 -18 -5 -30t-17 -23l-100 -90h197v-118zM591 327q-14 28 -35.5 48.5t-50.5 31.5t-63 11t-63 -11t-50.5 -31.5t-35 -49t-15.5 -63.5l164 -151l164 151
q-2 35 -15 64zM504 634q0 -36 -37 -36h-52q-37 0 -37 36v53q0 36 37 36h52q37 0 37 -36v-53z" />
    <glyph glyph-name="uniFED0" unicode="&#x63a;" horiz-adv-x="720" arabic-form="medial" 
d="M462 0q-23 0 -39.5 6.5t-28.5 16t-20 20t-14 19.5q-6 -9 -14 -19.5t-20 -20t-28.5 -16t-39.5 -6.5h-258q-28 0 -46.5 17.5t-18.5 43.5t18 41.5t47 15.5h197l-99 89q-16 16 -19 25.5t-3 28.5q0 60 22 111t60.5 88t90 58t111.5 21t112 -21t90.5 -58t60.5 -88t22 -111
q-1 -18 -6 -30.5t-17 -23.5l-99 -89h197v-118h-258zM423 407q-29 11 -63 11t-63 -11t-50.5 -31.5t-35 -49t-15.5 -63.5l164 -151l164 151q-2 35 -15.5 63.5t-35 49t-50.5 31.5zM334 598q-37 0 -37 36v53q0 36 37 36h52q37 0 37 -36v-53q0 -36 -37 -36h-52z" />
    <glyph glyph-name="uniFECF" unicode="&#x63a;" horiz-adv-x="608" arabic-form="initial" 
d="M462 398q-4 0 -8.5 1t-9.5 3q-32 11 -61 16t-58 5q-39 0 -72 -11t-57.5 -31t-38 -49.5t-13.5 -66.5q0 -77 44 -112t136 -35h176q40 0 40 -40v-38q0 -40 -40 -40h-500q-27 0 -46 17t-19 42t19 42t46 17h94q-71 46 -71 151q0 62 23 112t63 85.5t94.5 54.5t117.5 19
q41 0 80 -7.5t84 -23.5q28 -9 28 -33q0 -4 -1 -8.5t-3 -9.5l-13 -33q-10 -27 -34 -27zM341 723q37 0 37 -36v-53q0 -36 -37 -36h-52q-37 0 -37 36v53q0 36 37 36h52z" />
    <glyph glyph-name="uniFED2" unicode="&#x641;" horiz-adv-x="1177" arabic-form="final" 
d="M1080 137q0 -10 -1 -19h98v-118h-775q-65 0 -125 11t-106 41t-73.5 83t-27.5 138q0 51 17 114q10 33 46 33h30q36 0 36 -32q0 -8 -1 -12q-4 -19 -6 -36t-2 -34q0 -58 13.5 -95t40 -57.5t66.5 -28t92 -7.5h204q-23 33 -33.5 71t-10.5 77q0 51 17.5 100t58 87.5t105.5 62
t159 23.5h18q50 0 81 -6.5t48.5 -24t24 -49t6.5 -81.5v-241zM945 118q15 0 15 15v270q0 15 -15 15h-45q-64 0 -106.5 -13t-67.5 -34.5t-35 -48.5t-10 -55t10 -55t35 -48t68 -33.5t108 -12.5h43zM793 598q-37 0 -37 36v53q0 36 37 36h52q37 0 37 -36v-53q0 -36 -37 -36h-52z
" />
    <glyph glyph-name="uniFED4" unicode="&#x641;" horiz-adv-x="681" arabic-form="medial" 
d="M550 509q17 -18 23.5 -49.5t6.5 -81.5v-241q0 -10 -1 -19h102v-118h-681q-29 0 -47 16t-18 42q0 28 17.5 44t47.5 16h106q-23 33 -33.5 71t-10.5 77q0 51 17.5 100t58 87.5t105.5 62t159 23.5h18q50 0 81 -6.5t49 -23.5zM400 418q-64 0 -106.5 -13t-67.5 -34.5t-35 -48.5
t-10 -55t10 -55t35 -48t68 -33.5t108 -12.5h43q15 0 15 15v270q0 15 -15 15h-45zM349 723q37 0 37 -36v-53q0 -36 -37 -36h-52q-37 0 -37 36v53q0 36 37 36h52z" />
    <glyph glyph-name="uniFED3" unicode="&#x641;" horiz-adv-x="649" arabic-form="initial" 
d="M501 533q31 -7 48.5 -24.5t24 -49t6.5 -81.5v-220q0 -49 -6.5 -79.5t-24 -48t-48.5 -24t-81 -6.5h-420q-29 0 -47 16t-18 42q0 28 17.5 44t47.5 16h106q-23 33 -33.5 71t-10.5 77q0 51 17.5 100t58 87.5t105.5 62t159 23.5h18q50 0 81 -6zM400 418q-64 0 -106.5 -13
t-67.5 -34.5t-35 -48.5t-10 -55t10 -55t35 -48t68 -33.5t108 -12.5h43q15 0 15 15v270q0 15 -15 15h-45zM260 687q0 36 37 36h52q37 0 37 -36v-53q0 -36 -37 -36h-52q-37 0 -37 36v53z" />
    <glyph glyph-name="uniFB6B" unicode="&#x6a4;" horiz-adv-x="1177" arabic-form="final" 
d="M277 11q-60 11 -106 41t-73.5 83t-27.5 138q0 51 17 114q10 33 46 33h30q36 0 36 -32q0 -8 -1 -12q-4 -19 -6 -36t-2 -34q0 -58 13.5 -95t40 -57.5t66.5 -28t92 -7.5h204q-23 33 -33.5 71t-10.5 77q0 51 17.5 100t58 87.5t105.5 62t159 23.5h18q50 0 81 -6.5t48.5 -24
t24 -49t6.5 -81.5v-241q0 -10 -1 -19h98v-118h-775q-65 0 -125 11zM794 405q-43 -13 -68 -34.5t-35 -48.5t-10 -55t10 -55t35 -48t68 -33.5t108 -12.5h43q15 0 15 15v270q0 15 -15 15h-45q-64 0 -106 -13zM695 601q-37 0 -37 36v53q0 36 37 36h52q37 0 37 -36v-53
q0 -36 -37 -36h-52zM895 601q-37 0 -37 36v53q0 36 37 36h52q37 0 37 -36v-53q0 -36 -37 -36h-52zM795 736q-37 0 -37 36v53q0 36 37 36h52q37 0 37 -36v-53q0 -36 -37 -36h-52z" />
    <glyph glyph-name="uniFB6D" unicode="&#x6a4;" horiz-adv-x="681" arabic-form="medial" 
d="M550 509q17 -18 23.5 -49.5t6.5 -81.5v-241q0 -10 -1 -19h102v-118h-681q-29 0 -47 16t-18 42q0 28 17.5 44t47.5 16h106q-23 33 -33.5 71t-10.5 77q0 51 17.5 100t58 87.5t105.5 62t159 23.5h18q50 0 81 -6.5t49 -23.5zM460 403q0 15 -15 15h-45q-64 0 -106.5 -13
t-67.5 -34.5t-35 -48.5t-10 -55t10 -55t35 -48t68 -33.5t108 -12.5h43q15 0 15 15v270zM248 725q37 0 37 -36v-53q0 -36 -37 -36h-52q-37 0 -37 36v53q0 36 37 36h52zM348 860q37 0 37 -36v-53q0 -36 -37 -36h-52q-37 0 -37 36v53q0 36 37 36h52zM396 600q-37 0 -37 36v53
q0 36 37 36h52q37 0 37 -36v-53q0 -36 -37 -36h-52z" />
    <glyph glyph-name="uniFB6C" unicode="&#x6a4;" horiz-adv-x="649" arabic-form="initial" 
d="M501 7q-31 -7 -81 -7h-420q-29 0 -47 16t-18 42q0 28 17.5 44t47.5 16h106q-23 33 -33.5 71t-10.5 77q0 51 17.5 100t58 87.5t105.5 62t159 23.5h18q50 0 81 -6.5t48.5 -24t24 -49t6.5 -81.5v-220q0 -49 -6.5 -79.5t-24 -48t-48.5 -23.5zM460 403q0 15 -15 15h-45
q-64 0 -106.5 -13t-67.5 -34.5t-35 -48.5t-10 -55t10 -55t35 -48t68 -33.5t108 -12.5h43q15 0 15 15v270zM397 601q-37 0 -37 36v53q0 36 37 36h52q37 0 37 -36v-53q0 -36 -37 -36h-52zM249 726q37 0 37 -36v-53q0 -36 -37 -36h-52q-37 0 -37 36v53q0 36 37 36h52zM297 736
q-37 0 -37 36v53q0 36 37 36h52q37 0 37 -36v-53q0 -36 -37 -36h-52z" />
    <glyph glyph-name="uni06A1.init" unicode="&#x6a1;" horiz-adv-x="649" 
d="M550 509q17 -18 23.5 -49.5t6.5 -81.5v-220q0 -49 -6.5 -79.5t-24 -48t-48.5 -24t-81 -6.5h-420q-29 0 -47 16t-18 42q0 28 17.5 44t47.5 16h106q-23 33 -33.5 71t-10.5 77q0 51 17.5 100t58 87.5t105.5 62t159 23.5h18q50 0 81 -6.5t49 -23.5zM460 403q0 15 -15 15h-45
q-64 0 -106.5 -13t-67.5 -34.5t-35 -48.5t-10 -55t10 -55t35 -48t68 -33.5t108 -12.5h43q15 0 15 15v270z" />
    <glyph glyph-name="uni06A1.medi" unicode="&#x6a1;" horiz-adv-x="681" 
d="M550 509q17 -18 23.5 -49.5t6.5 -81.5v-241q0 -10 -1 -19h102v-118h-681q-29 0 -47 16t-18 42q0 28 17.5 44t47.5 16h106q-23 33 -33.5 71t-10.5 77q0 51 17.5 100t58 87.5t105.5 62t159 23.5h18q50 0 81 -6.5t49 -23.5zM181 267q0 -28 10 -55t35 -48t68 -33.5t108 -12.5
h43q15 0 15 15v270q0 15 -15 15h-45q-64 0 -106.5 -13t-67.5 -34.5t-35 -48.5t-10 -55z" />
    <glyph glyph-name="uni06A1.fina" unicode="&#x6a1;" horiz-adv-x="1177" 
d="M920 539q50 0 81 -6.5t48.5 -24t24 -49t6.5 -81.5v-241q0 -10 -1 -19h98v-118h-775q-65 0 -125 11t-106 41t-73.5 83t-27.5 138q0 51 17 114q10 33 46 33h30q36 0 36 -32q0 -8 -1 -12q-4 -19 -6 -36t-2 -34q0 -58 13.5 -95t40 -57.5t66.5 -28t92 -7.5h204
q-23 33 -33.5 71t-10.5 77q0 51 17.5 100t58 87.5t105.5 62t159 23.5h18zM945 118q15 0 15 15v270q0 15 -15 15h-45q-64 0 -106.5 -13t-67.5 -34.5t-35 -48.5t-10 -55t10 -55t35 -48t68 -33.5t108 -12.5h43z" />
    <glyph glyph-name="uniFED6" unicode="&#x642;" horiz-adv-x="943" arabic-form="final" 
d="M735 -223q-97 -74 -274 -74q-81 0 -152 18.5t-124 57.5t-83.5 99t-30.5 143q0 44 9 93q8 35 44 35h32q41 0 36 -43q-3 -30 -3 -56q0 -113 66 -169.5t206 -56.5q128 0 190.5 40t71.5 136h-56q-94 0 -158 22.5t-104 60t-57.5 85t-17.5 97.5q0 51 18 100t58.5 88t105 62.5
t157.5 23.5h15q49 0 80 -6.5t48.5 -24t24 -48.5t6.5 -80v-262h100v-118h-100q-11 -149 -108 -223zM667 419q-64 -1 -107 -14t-68.5 -34t-36 -48t-10.5 -55t10.5 -55t36.5 -48t69 -34t108 -13h55v286q0 15 -15 15h-42zM561 637q0 -36 -37 -36h-52q-37 0 -37 36v53q0 36 37 36
h52q37 0 37 -36v-53zM652 601q-37 0 -37 36v53q0 36 37 36h52q37 0 37 -36v-53q0 -36 -37 -36h-52z" />
    <glyph glyph-name="uniFED8" unicode="&#x642;" horiz-adv-x="681" arabic-form="medial" 
d="M580 137q0 -10 -1 -19h102v-118h-681q-29 0 -47 16t-18 42q0 28 17.5 44t47.5 16h106q-23 33 -33.5 71t-10.5 77q0 51 17.5 100t58 87.5t105.5 62t159 23.5h18q50 0 81 -6.5t48.5 -24t24 -49t6.5 -81.5v-241zM400 418q-64 0 -106.5 -13t-67.5 -34.5t-35 -48.5t-10 -55
t10 -55t35 -48t68 -33.5t108 -12.5h43q15 0 15 15v270q0 15 -15 15h-45zM259 723q37 0 37 -36v-53q0 -36 -37 -36h-52q-37 0 -37 36v53q0 36 37 36h52zM439 723q37 0 37 -36v-53q0 -36 -37 -36h-52q-37 0 -37 36v53q0 36 37 36h52z" />
    <glyph glyph-name="uniFED7" unicode="&#x642;" horiz-adv-x="649" arabic-form="initial" 
d="M580 158q0 -49 -6.5 -79.5t-24 -48t-48.5 -24t-81 -6.5h-420q-29 0 -47 16t-18 42q0 28 17.5 44t47.5 16h106q-23 33 -33.5 71t-10.5 77q0 51 17.5 100t58 87.5t105.5 62t159 23.5h18q50 0 81 -6.5t48.5 -24t24 -49t6.5 -81.5v-220zM400 418q-64 0 -106.5 -13
t-67.5 -34.5t-35 -48.5t-10 -55t10 -55t35 -48t68 -33.5t108 -12.5h43q15 0 15 15v270q0 15 -15 15h-45zM170 687q0 36 37 36h52q37 0 37 -36v-53q0 -36 -37 -36h-52q-37 0 -37 36v53zM387 598q-37 0 -37 36v53q0 36 37 36h52q37 0 37 -36v-53q0 -36 -37 -36h-52z" />
    <glyph glyph-name="uniFEDA" unicode="&#x643;" horiz-adv-x="1079" arabic-form="final" 
d="M809 694q0 40 40 40h41q40 0 40 -40v-433q0 -75 34.5 -109t114.5 -34v-118q-75 0 -123.5 23.5t-75.5 68.5q-33 -45 -86.5 -68.5t-124.5 -23.5h-267q-65 0 -125 11t-106 41t-73.5 83t-27.5 138q0 51 17 114q10 33 46 33h30q36 0 36 -32q0 -8 -1 -12q-4 -19 -6 -36t-2 -34
q0 -58 13.5 -95t40 -57.5t66.5 -28t92 -7.5h267q72 0 106 34t34 109v433zM522 613q-29 0 -46 -17t-17 -44q0 -30 20.5 -47.5t52.5 -17.5h80q26 0 26 -27v-30q0 -27 -26 -27h-224q-27 0 -27 27v30q0 27 27 27h4q-31 28 -31 78q0 31 12.5 56.5t34 44t50 28.5t59.5 10
q8 0 24 -1.5t32 -6t27.5 -12.5t11.5 -20q0 -2 -1 -5l-13 -38q-6 -17 -22 -17q-8 0 -12 1q-11 5 -22 6.5t-20 1.5z" />
    <glyph glyph-name="uniFEDC" unicode="&#x643;" horiz-adv-x="668" arabic-form="medial" 
d="M490 623q-92 -14 -177 -46.5t-147 -76.5q80 -10 145 -32.5t111 -57.5t72 -81t27 -103q7 -57 42.5 -82.5t104.5 -25.5v-118q-72 0 -118.5 21t-73.5 61q-68 -82 -231 -82h-245q-30 0 -45 18.5t-15 40.5q0 23 15 41t45 18h245q43 0 72.5 5.5t48 17.5t26.5 31.5t8 47.5
q0 77 -77.5 119t-217.5 53q-37 3 -44 37l-17 85q-1 5 -1 13q0 21 19 39q80 67 179.5 109.5t230.5 63.5q3 1 9 1q32 0 37 -34l6 -38q1 -3 1 -9q0 -31 -35 -36z" />
    <glyph glyph-name="uniFEDB" unicode="&#x643;" horiz-adv-x="598" arabic-form="initial" 
d="M490 623q-92 -14 -177 -46.5t-147 -76.5q81 -10 147 -34.5t112 -63t71 -91.5t25 -121v-32q0 -49 -6.5 -79.5t-24 -48t-49 -24t-81.5 -6.5h-360q-30 0 -45 18.5t-15 40.5q0 23 15 41t45 18h360q40 0 40 40v32q0 50 -20 85.5t-57.5 59.5t-92.5 37.5t-126 19.5q-36 3 -43 37
l-17 85q-1 5 -1 13q0 21 19 39q80 67 179.5 109.5t230.5 63.5q3 1 9 1q32 0 37 -34l6 -38q1 -3 1 -9q0 -31 -35 -36z" />
    <glyph glyph-name="uniFEDE" unicode="&#x644;" horiz-adv-x="833" arabic-form="final" 
d="M724 0q-26 -126 -111.5 -186.5t-211.5 -60.5q-61 0 -120.5 16t-107 52t-76.5 95t-29 146q0 33 5 71.5t16 81.5q7 34 44 34h31q36 0 36 -31q0 -3 -0.5 -6t-1.5 -7q-7 -32 -10 -62.5t-3 -58.5q0 -48 11.5 -87.5t37.5 -67.5t67 -43.5t100 -15.5q49 0 88.5 12.5t67 40.5
t42 73.5t14.5 110.5v587q0 40 40 40h41q40 0 40 -40v-576h99v-118h-109z" />
    <glyph glyph-name="uniFEE0" unicode="&#x644;" horiz-adv-x="410" arabic-form="medial" 
d="M221 734q40 0 40 -40v-433q0 -75 34.5 -109t114.5 -34v-118q-75 0 -123.5 23.5t-75.5 68.5q-33 -45 -86.5 -68.5t-124.5 -23.5q-29 0 -47 16.5t-18 42.5t18 42.5t47 16.5q72 0 106 34t34 109v433q0 40 40 40h41z" />
    <glyph glyph-name="uniFEDF" unicode="&#x644;" horiz-adv-x="329" arabic-form="initial" 
d="M231 31q-18 -18 -49.5 -24.5t-81.5 -6.5h-100q-29 0 -47 16.5t-18 42.5t18 42.5t47 16.5h100q40 0 40 40v536q0 40 40 40h41q40 0 40 -40v-536q0 -49 -6.5 -79.5t-23.5 -47.5z" />
    <glyph glyph-name="uniFEE2" unicode="&#x645;" horiz-adv-x="903" arabic-form="final" 
d="M681 463q34 -37 54 -87.5t20 -110.5v-10q0 -5 -1 -10q4 -66 39 -96.5t110 -30.5v-118q-76 0 -125 24t-75 70q-35 -47 -86.5 -71t-109.5 -24q-37 0 -74 10t-72 31v-11q-1 -137 -50.5 -206t-158.5 -69q-23 0 -47 3q-19 2 -28 13.5t-9 29.5v36q0 20 8 28.5t28 8.5
q20 -3 36 -3q59 0 80 39.5t21 119.5v206q0 69 19 125.5t53 96t81.5 61t104.5 21.5q54 0 100.5 -20t81.5 -56zM634 265q0 36 -10 64t-28 48t-42 30.5t-53 10.5q-66 0 -103 -47t-36 -136v-71q30 -25 64 -37t66 -12q29 0 54.5 9.5t45 28.5t31 47t11.5 65z" />
    <glyph glyph-name="uniFEE4" unicode="&#x645;" horiz-adv-x="768" arabic-form="medial" 
d="M601 376q19 -50 19 -108v-11q0 -6 -1 -11q4 -66 38.5 -97t110.5 -31v-118q-77 0 -126 24.5t-75 71.5q-35 -48 -87 -73t-110 -25q-51 0 -101.5 20.5t-95.5 63.5q-28 -40 -72 -61t-101 -21q-28 0 -46.5 17.5t-18.5 43.5t18 41.5t47 15.5q32 0 54.5 13.5t32.5 37.5
q7 17 11 31t7.5 29.5t7 34.5t10.5 46q27 109 88.5 169t152.5 60q54 0 101 -20.5t81.5 -57t54.5 -85.5zM499 268q0 33 -10 60.5t-28 47.5t-43 31t-54 11q-48 0 -76.5 -31.5t-46.5 -95.5q-9 -32 -13 -54l-9 -43q34 -40 72.5 -59t75.5 -19q27 0 51 10t42 29.5t28.5 48
t10.5 64.5z" />
    <glyph glyph-name="uniFEE3" unicode="&#x645;" horiz-adv-x="688" arabic-form="initial" 
d="M545 70q-35 -35 -80.5 -53.5t-94.5 -18.5q-51 0 -101.5 20.5t-95.5 63.5q-28 -40 -72 -61t-101 -21q-28 0 -46.5 17.5t-18.5 43.5t18 41.5t47 15.5q32 0 54.5 13.5t32.5 37.5q7 17 11 31t7.5 29.5t7 34.5t10.5 46q27 109 88.5 169t152.5 60q54 0 101 -20.5t81.5 -57
t54 -86t19.5 -107.5q0 -64 -20.5 -114t-54.5 -84zM499 268q0 33 -10 60.5t-28 47.5t-43 31t-54 11q-48 0 -76.5 -31.5t-46.5 -95.5q-9 -32 -13 -54l-9 -43q34 -40 72.5 -59t75.5 -19q27 0 51 10t42 29.5t28.5 48t10.5 64.5z" />
    <glyph glyph-name="uniFEE6" unicode="&#x646;" horiz-adv-x="833" arabic-form="final" 
d="M694 420q40 0 40 -40v-262h99v-118h-109q-26 -126 -111.5 -186.5t-211.5 -60.5q-61 0 -120.5 16t-107 52t-76.5 95t-29 146q0 33 5 71.5t16 81.5q7 34 44 34h31q36 0 36 -31q0 -3 -0.5 -6t-1.5 -7q-13 -64 -13 -121q0 -48 11.5 -87.5t37.5 -67.5t67 -43.5t100 -15.5
q49 0 88.5 12.5t67 40.5t42 73.5t14.5 110.5v273q0 40 40 40h41zM338 448q0 36 37 36h52q37 0 37 -36v-53q0 -36 -37 -36h-52q-37 0 -37 36v53z" />
    <glyph glyph-name="uniFEE8" unicode="&#x646;" horiz-adv-x="410" arabic-form="medial" 
d="M-65 61q0 26 18 41.5t47 15.5q72 0 106 34t34 109v169q0 40 40 40h41q40 0 40 -40v-169q0 -75 34.5 -109t114.5 -34v-118q-75 0 -123.5 23.5t-75.5 68.5q-33 -45 -86.5 -68.5t-124.5 -23.5q-28 0 -46.5 17.5t-18.5 43.5zM137 639q0 36 37 36h52q37 0 37 -36v-53
q0 -36 -37 -36h-52q-37 0 -37 36v53z" />
    <glyph glyph-name="uniFEE7" unicode="&#x646;" horiz-adv-x="337" arabic-form="initial" 
d="M-47 18q-18 17 -18 43t18 41.5t47 15.5h100q40 0 40 40v272q0 40 40 40h41q40 0 40 -40v-272q0 -49 -6.5 -79.5t-24 -48t-49 -24t-81.5 -6.5h-100q-28 0 -47 18zM226 675q37 0 37 -36v-53q0 -36 -37 -36h-52q-37 0 -37 36v53q0 36 37 36h52z" />
    <glyph glyph-name="uniFEEA" unicode="&#x647;" horiz-adv-x="723" arabic-form="final" 
d="M583 158q0 -40 40 -40h100v-118h-100q-43 0 -72 4.5t-47.5 17t-27.5 34t-12 54.5q-26 -45 -68 -67.5t-103 -22.5q-52 0 -93.5 19.5t-70.5 52t-45 75.5t-16 90q0 70 25.5 122.5t69 87.5t103 52.5t126.5 17.5q17 0 34.5 -1.5t35.5 -3.5v12q0 40 40 40h41q40 0 40 -40v-386z
M196 213q8 -23 24 -40t39.5 -27t53.5 -10q35 0 62.5 13.5t46.5 38t29.5 58.5t10.5 76v96q-34 6 -67 6q-44 0 -82 -10.5t-66 -31.5t-44 -51.5t-16 -71.5q0 -24 9 -46z" />
    <glyph glyph-name="uniFEEC" unicode="&#x647;" horiz-adv-x="878" arabic-form="medial" 
d="M588 388q-22 40 -62.5 70t-96.5 47t-124 17q-43 0 -89.5 -7.5t-96.5 -23.5q-9 -3 -17 -3q-25 0 -34 28l-12 37q-3 9 -3 16q0 26 29 35q61 20 118 28.5t111 8.5q93 0 170.5 -25.5t133 -71.5t86 -108t30.5 -136q0 -11 -0.5 -21t-1.5 -20q1 -74 35.5 -107.5t113.5 -33.5
v-118q-81 0 -130.5 27t-74.5 78q-38 -51 -98 -78t-138 -27h-437q-25 0 -43 18t-18 43q0 24 17 39.5t43 17.5h77q-16 39 -16 86q0 39 13 77t39 68t64 48.5t89 18.5t89.5 -18t64 -47t38.5 -66.5t13 -76.5v-88q68 9 104 55t36 125q0 47 -22 88zM328 269q-11 13 -27.5 21
t-37.5 8t-36.5 -7.5t-26 -20.5t-16 -29t-5.5 -33t5.5 -33t16 -29t26.5 -20.5t38 -7.5h85v86q0 17 -5.5 34t-16.5 31z" />
    <glyph glyph-name="uniFEEB" unicode="&#x647;" horiz-adv-x="799" arabic-form="initial" 
d="M608 250q0 66 -22 117t-61.5 85.5t-95.5 52t-124 17.5q-43 0 -89.5 -7.5t-96.5 -23.5q-9 -3 -17 -3q-25 0 -34 28l-12 37q-3 9 -3 16q0 26 29 35q61 20 118 28.5t111 8.5q93 0 170.5 -26.5t133 -76.5t86 -123t30.5 -165v-92q0 -49 -6.5 -79.5t-24.5 -48t-49.5 -24
t-82.5 -6.5h-568q-25 0 -43 18t-18 43q0 24 17 39.5t43 17.5h77q-16 39 -16 86q0 39 13 77t39 68t64 48.5t89 18.5t89.5 -18t64 -47t38.5 -66.5t13 -76.5v-90h98q40 0 40 40v92zM345 238q-6 17 -17 30.5t-27.5 21.5t-37.5 8t-36.5 -7.5t-26 -20.5t-16 -29t-5.5 -33t5.5 -33
t16 -29t26.5 -20.5t38 -7.5h85v86q0 17 -5 34z" />
    <glyph glyph-name="uniFE94" unicode="&#x629;" horiz-adv-x="722" arabic-form="final" 
d="M583 158q0 -40 40 -40h100v-118h-100q-43 0 -72 4.5t-47.5 17t-27.5 34t-12 54.5q-26 -45 -68 -67.5t-103 -22.5q-52 0 -93.5 19.5t-70.5 52t-45 75.5t-16 90q0 70 25.5 122.5t69 87.5t103 52.5t126.5 17.5q17 0 34.5 -1.5t35.5 -3.5v12q0 40 40 40h41q40 0 40 -40v-386z
M452 246q10 34 10 76v96q-34 6 -67 6q-44 0 -82 -10.5t-66 -31.5t-44 -51.5t-16 -71.5q0 -24 8.5 -46.5t24.5 -39.5t39.5 -27t53.5 -10q35 0 62.5 13.5t46.5 38t30 58.5zM200 722q0 36 37 36h52q37 0 37 -36v-53q0 -36 -37 -36h-52q-37 0 -37 36v53zM417 633q-37 0 -37 36
v53q0 36 37 36h52q37 0 37 -36v-53q0 -36 -37 -36h-52z" />
    <glyph glyph-name="uniFEEE" unicode="&#x648;" horiz-adv-x="678" arabic-form="final" 
d="M483 -184q-75 -62 -196 -62q-38 0 -79 6q-19 2 -28 13.5t-9 29.5v36q0 38 37 38q14 0 26.5 -1t25.5 -1q75 0 124.5 30t66.5 95h-49q-94 0 -158 22.5t-104 60t-57.5 85t-17.5 97.5q0 51 18 100t58.5 88t105 62.5t157.5 23.5h15q49 0 80 -6.5t48.5 -24t24 -48.5t6.5 -80
v-262h100v-118h-104q-17 -121 -91 -184zM459 404q0 15 -15 15h-42q-64 0 -107 -13.5t-68.5 -34.5t-36 -48t-10.5 -55t10.5 -55t36.5 -48t69 -34t108 -13h55v286z" />
    <glyph glyph-name="uniFE86" unicode="&#x624;" horiz-adv-x="678" arabic-form="final" 
d="M402 0q-94 0 -158 22.5t-104 60t-57.5 85t-17.5 97.5q0 51 18 100t58.5 88t105 62.5t157.5 23.5h15q49 0 80 -6.5t48.5 -24t24 -48.5t6.5 -80v-262h100v-118h-104q-17 -121 -91.5 -183.5t-195.5 -62.5q-38 0 -79 6q-19 2 -28 13.5t-9 29.5v36q0 38 37 38q14 0 26.5 -1
t25.5 -1q75 0 124.5 30t66.5 95h-49zM402 419q-64 0 -107 -13.5t-68.5 -34.5t-36 -48t-10.5 -55t10.5 -55t36.5 -48t69 -34t108 -13h55v286q0 15 -15 15h-42zM348 838q12 -3 20.5 -9t8.5 -15q0 -2 -2 -8l-8 -24q-4 -13 -17 -13q-6 0 -9 1q-16 6 -31 6q-22 0 -35 -13t-13 -33
q0 -23 16 -36t39 -13h60q20 0 20 -20v-23q0 -20 -20 -20h-168q-20 0 -20 20v23q0 20 20 20h3q-23 21 -23 59q0 23 9.5 42t25.5 33t37 21.5t45 7.5q6 0 18 -1.5t24 -4.5z" />
    <glyph glyph-name="uniFEF0" unicode="&#x649;" horiz-adv-x="870" arabic-form="final" 
d="M661 26q-17 5 -41 11l-74 16q-34 9 -34 38q0 7 1 11l6 29q6 32 37 32q8 0 12 -1q50 -10 89.5 -18.5t74 -14t68 -8.5t70.5 -3v-118h-18q7 -27 7 -61q0 -122 -85 -178t-267 -56h-59q-78 0 -147 18t-120.5 56.5t-81 98.5t-29.5 145q0 65 19 142q9 34 44 34h31q36 0 36 -32
q0 -8 -1 -12q-5 -29 -8 -55t-3 -51q0 -109 61.5 -168t198.5 -59h59q68 0 112.5 6t71 19.5t37 36t10.5 55.5q0 31 -15 53t-62 34z" />
    <glyph glyph-name="uniFEF2" unicode="&#x64a;" horiz-adv-x="870" arabic-form="final" 
d="M774 -239q-85 -56 -267 -56h-59q-78 0 -147 18t-120.5 56.5t-81 98.5t-29.5 145q0 65 19 142q9 34 44 34h31q36 0 36 -32q0 -8 -1 -12q-5 -29 -8 -55t-3 -51q0 -109 61.5 -168t198.5 -59h59q68 0 112.5 6t71 19.5t37 36t10.5 55.5q0 31 -15 53t-62 34q-17 5 -41 11
l-74 16q-34 9 -34 38q0 7 1 11l6 29q6 32 37 32q8 0 12 -1q50 -10 89.5 -18.5t74 -14t68 -8.5t70.5 -3v-118h-18q7 -27 7 -61q0 -122 -85 -178zM316 -423q0 36 37 36h52q37 0 37 -36v-53q0 -36 -37 -36h-52q-37 0 -37 36v53zM533 -512q-37 0 -37 36v53q0 36 37 36h52
q37 0 37 -36v-53q0 -36 -37 -36h-52z" />
    <glyph glyph-name="uniFEF4" unicode="&#x64a;" horiz-adv-x="410" arabic-form="medial" 
d="M287 24q-49 23 -76 68q-33 -45 -86.5 -68.5t-124.5 -23.5q-28 0 -46.5 17.5t-18.5 43.5t18 41.5t47 15.5q72 0 106 34t34 109v169q0 40 40 40h41q40 0 40 -40v-169q0 -75 34.5 -109t114.5 -34v-118q-75 0 -123 24zM316 -102q37 0 37 -36v-53q0 -36 -37 -36h-52
q-37 0 -37 36v53q0 36 37 36h52zM136 -102q37 0 37 -36v-53q0 -36 -37 -36h-52q-37 0 -37 36v53q0 36 37 36h52z" />
    <glyph glyph-name="uniFEF3" unicode="&#x64a;" horiz-adv-x="359" arabic-form="initial" 
d="M255 79q-7 -31 -24.5 -48.5t-49 -24t-81.5 -6.5h-100q-28 0 -46.5 17.5t-18.5 43.5t18 41.5t47 15.5h100q40 0 40 40v272q0 40 40 40h41q40 0 40 -40v-272q0 -49 -6 -79zM23 -138q0 36 37 36h52q37 0 37 -36v-53q0 -36 -37 -36h-52q-37 0 -37 36v53zM329 -191
q0 -36 -37 -36h-52q-37 0 -37 36v53q0 36 37 36h52q37 0 37 -36v-53z" />
    <glyph glyph-name="uniFE8A" unicode="&#x626;" horiz-adv-x="870" arabic-form="final" 
d="M519 131q6 32 37 32q8 0 12 -1q50 -10 89.5 -18.5t74 -14t68 -8.5t70.5 -3v-118h-18q7 -27 7 -61q0 -122 -85 -178t-267 -56h-59q-78 0 -147 18t-120.5 56.5t-81 98.5t-29.5 145q0 65 19 142q9 34 44 34h31q36 0 36 -32q0 -8 -1 -12q-5 -29 -8 -55t-3 -51
q0 -109 61.5 -168t198.5 -59h59q68 0 112.5 6t71 19.5t37 36t10.5 55.5q0 31 -15 53t-62 34q-17 5 -41 11l-74 16q-34 9 -34 38q0 7 1 11zM69 450q0 23 9.5 42t25.5 33t37 21.5t45 7.5q6 0 18 -1.5t24 -4.5t20.5 -9t8.5 -15q0 -2 -2 -8l-8 -24q-4 -13 -17 -13q-6 0 -9 1
q-16 6 -31 6q-22 0 -35 -13t-13 -33q0 -23 16 -36t39 -13h60q20 0 20 -20v-23q0 -20 -20 -20h-168q-20 0 -20 20v23q0 20 20 20h3q-23 21 -23 59z" />
    <glyph glyph-name="uniFE8C" unicode="&#x626;" horiz-adv-x="410" arabic-form="medial" 
d="M261 261q0 -75 34.5 -109t114.5 -34v-118q-75 0 -123.5 23.5t-75.5 68.5q-33 -45 -86.5 -68.5t-124.5 -23.5q-28 0 -46.5 17.5t-18.5 43.5t18 41.5t47 15.5q72 0 106 34t34 109v169q0 40 40 40h41q40 0 40 -40v-169zM264 761q8 -6 8 -15q0 -2 -2 -8l-8 -24
q-4 -13 -17 -13q-6 0 -9 1q-16 6 -31 6q-22 0 -35 -13t-13 -33q0 -23 16 -36t39 -13h60q20 0 20 -20v-23q0 -20 -20 -20h-168q-20 0 -20 20v23q0 20 20 20h3q-23 21 -23 59q0 23 9.5 42t25.5 33t37 21.5t45 7.5q6 0 18 -1.5t24 -4.5t21 -9z" />
    <glyph glyph-name="uniFE8B" unicode="&#x626;" horiz-adv-x="322" arabic-form="initial" 
d="M255 79q-7 -31 -24.5 -48.5t-49 -24t-81.5 -6.5h-100q-28 0 -46.5 17.5t-18.5 43.5t18 41.5t47 15.5h100q40 0 40 40v272q0 40 40 40h41q40 0 40 -40v-272q0 -49 -6 -79zM236 702q-16 6 -31 6q-22 0 -35 -13t-13 -33q0 -23 16 -36t39 -13h60q20 0 20 -20v-23
q0 -20 -20 -20h-168q-20 0 -20 20v23q0 20 20 20h3q-23 21 -23 59q0 23 9.5 42t25.5 33t37 21.5t45 7.5q6 0 18 -1.5t24 -4.5t20.5 -9t8.5 -15q0 -2 -2 -8l-8 -24q-4 -13 -17 -13q-6 0 -9 1z" />
    <glyph glyph-name=".notdef" horiz-adv-x="500" 
d="M0 -200v1000h500v-1000h-500zM429 -150l-179 390l-179 -390h358zM250 360l179 390h-358zM222 300l-172 376v-752zM450 676l-172 -376l172 -376v752z" />
    <glyph glyph-name="uni0000" 
 />
    <glyph glyph-name="uni0000" 
 />
    <glyph glyph-name="uni000D" horiz-adv-x="250" 
 />
    <glyph glyph-name="space" unicode=" " horiz-adv-x="200" 
 />
    <glyph glyph-name="uni0000" 
 />
    <glyph glyph-name="uni000D" unicode="&#xd;" horiz-adv-x="250" 
 />
    <glyph glyph-name="uni0621" unicode="&#x621;" horiz-adv-x="610" 
d="M420 336q-9 0 -18 3q-41 11 -74 11q-29 0 -54.5 -7.5t-44 -23t-29.5 -38.5t-11 -54q0 -26 12.5 -45.5t32.5 -32.5t45 -19.5t51 -6.5h5q3 0 8 1q29 4 59 5.5t62 1.5q9 0 19 -0.5t20 -0.5q39 -2 39 -41v-33q0 -39 -38 -39q-88 0 -168 -12.5t-163 -44.5q-12 -5 -20 -5
q-21 0 -32 26l-12 29q-4 9 -4 19q0 23 26 34q10 5 20 8.5t20 7.5q-57 22 -80 64t-23 97q0 54 21.5 97.5t57.5 73.5t83.5 46.5t99.5 16.5q12 0 37 -2t50.5 -8t44.5 -17t19 -29q0 -10 -6 -22l-20 -37q-14 -23 -35 -23z" />
    <glyph glyph-name="uni0627" unicode="&#x627;" horiz-adv-x="257" 
d="M68 694q0 40 40 40h41q40 0 40 -40v-654q0 -40 -40 -40h-41q-40 0 -40 40v654z" />
    <glyph glyph-name="uni0623" unicode="&#x623;" horiz-adv-x="261" 
d="M191 40q0 -40 -40 -40h-41q-40 0 -40 40v594q0 40 40 40h41q40 0 40 -40v-594zM186 905q-6 0 -9 1q-16 6 -31 6q-22 0 -35 -13t-13 -33q0 -23 16 -36t39 -13h60q20 0 20 -20v-23q0 -20 -20 -20h-168q-20 0 -20 20v23q0 20 20 20h3q-23 21 -23 59q0 23 9.5 42t25.5 33
t37 21.5t45 7.5q6 0 18 -1.5t24 -4.5t20.5 -9t8.5 -15q0 -2 -2 -8l-8 -24q-4 -13 -17 -13z" />
    <glyph glyph-name="uni0625" unicode="&#x625;" horiz-adv-x="261" 
d="M189 40q0 -40 -40 -40h-41q-40 0 -40 40v654q0 40 40 40h41q40 0 40 -40v-654zM176 -164q-6 0 -9 1q-16 6 -31 6q-22 0 -35 -13t-13 -33q0 -23 16 -36t39 -13h60q20 0 20 -20v-23q0 -20 -20 -20h-168q-20 0 -20 20v23q0 20 20 20h3q-23 21 -23 59q0 23 9.5 42t25.5 33
t37 21.5t45 7.5q6 0 18 -1.5t24 -4.5t20.5 -9t8.5 -15q0 -2 -2 -8l-8 -24q-4 -13 -17 -13z" />
    <glyph glyph-name="uni0622" unicode="&#x622;" horiz-adv-x="257" 
d="M149 734q40 0 40 -40v-654q0 -40 -40 -40h-41q-40 0 -40 40v654q0 40 40 40h41zM278 967q6 0 10.5 -4.5t4.5 -10.5v-18q0 -46 -23.5 -72.5t-64.5 -26.5q-34 0 -58 14t-41 25t-27 18.5t-19 7.5q-12 0 -16 -10t-4 -23v-17q0 -6 -4.5 -10.5t-10.5 -4.5h-35q-6 0 -10.5 4.5
t-4.5 10.5v17q0 45 21.5 71t59.5 26q29 0 49 -13t37 -25t31 -19t32 -7q13 0 18.5 7t5.5 27v18q0 6 4.5 10.5t10.5 4.5h34z" />
    <glyph glyph-name="uni066E" unicode="&#x66e;" horiz-adv-x="998" 
d="M930 158q0 -49 -6.5 -79.5t-24 -48t-49 -24t-81.5 -6.5h-366q-75 0 -136 15.5t-104 49.5t-66.5 88.5t-23.5 132.5q0 47 14 101q10 33 46 33h31q36 0 36 -31q0 -3 -0.5 -6t-1.5 -7q-7 -34 -7 -68q0 -59 13.5 -96t40 -58t66.5 -28.5t92 -7.5h366q40 0 40 40v272q0 40 40 40
h41q40 0 40 -40v-272z" />
    <glyph glyph-name="uni0628" unicode="&#x628;" horiz-adv-x="998" 
d="M890 470q40 0 40 -40v-272q0 -49 -6.5 -79.5t-24 -48t-49 -24t-81.5 -6.5h-366q-75 0 -136 15.5t-104 49.5t-66.5 88.5t-23.5 132.5q0 47 14 101q10 33 46 33h31q36 0 36 -31q0 -3 -0.5 -6t-1.5 -7q-7 -34 -7 -68q0 -59 13.5 -96t40 -58t66.5 -28.5t92 -7.5h366
q40 0 40 40v272q0 40 40 40h41zM525 -103q37 0 37 -36v-53q0 -36 -37 -36h-52q-37 0 -37 36v53q0 36 37 36h52z" />
    <glyph glyph-name="uni067E" unicode="&#x67e;" horiz-adv-x="998" 
d="M900 31q-18 -18 -49.5 -24.5t-81.5 -6.5h-366q-75 0 -136 15.5t-104 49.5t-66.5 88.5t-23.5 132.5q0 47 14 101q10 33 46 33h31q36 0 36 -31q0 -3 -0.5 -6t-1.5 -7q-7 -34 -7 -68q0 -59 13.5 -96t40 -58t66.5 -28.5t92 -7.5h366q40 0 40 40v272q0 40 40 40h41
q40 0 40 -40v-272q0 -49 -6.5 -79.5t-23.5 -47.5zM562 -314q0 -36 -37 -36h-52q-37 0 -37 36v53q0 36 37 36h52q37 0 37 -36v-53zM536 -126q0 36 37 36h52q37 0 37 -36v-53q0 -36 -37 -36h-52q-37 0 -37 36v53zM425 -90q37 0 37 -36v-53q0 -36 -37 -36h-52q-37 0 -37 36v53
q0 36 37 36h52z" />
    <glyph glyph-name="uni062A" unicode="&#x62a;" horiz-adv-x="998" 
d="M403 0q-75 0 -136 15.5t-104 49.5t-66.5 88.5t-23.5 132.5q0 47 14 101q10 33 46 33h31q36 0 36 -31q0 -3 -0.5 -6t-1.5 -7q-7 -34 -7 -68q0 -59 13.5 -96t40 -58t66.5 -28.5t92 -7.5h366q40 0 40 40v272q0 40 40 40h41q40 0 40 -40v-272q0 -49 -6.5 -79.5t-24 -48
t-49 -24t-81.5 -6.5h-366zM652 566q0 -36 -37 -36h-52q-37 0 -37 36v53q0 36 37 36h52q37 0 37 -36v-53zM435 655q37 0 37 -36v-53q0 -36 -37 -36h-52q-37 0 -37 36v53q0 36 37 36h52z" />
    <glyph glyph-name="uni062B" unicode="&#x62b;" horiz-adv-x="998" 
d="M900 31q-18 -18 -49.5 -24.5t-81.5 -6.5h-366q-75 0 -136 15.5t-104 49.5t-66.5 88.5t-23.5 132.5q0 47 14 101q10 33 46 33h31q36 0 36 -31q0 -3 -0.5 -6t-1.5 -7q-7 -34 -7 -68q0 -59 13.5 -96t40 -58t66.5 -28.5t92 -7.5h366q40 0 40 40v272q0 40 40 40h41
q40 0 40 -40v-272q0 -49 -6.5 -79.5t-23.5 -47.5zM336 619q0 36 37 36h52q37 0 37 -36v-53q0 -36 -37 -36h-52q-37 0 -37 36v53zM562 701q0 -36 -37 -36h-52q-37 0 -37 36v53q0 36 37 36h52q37 0 37 -36v-53zM625 655q37 0 37 -36v-53q0 -36 -37 -36h-52q-37 0 -37 36v53
q0 36 37 36h52z" />
    <glyph glyph-name="uni062C" unicode="&#x62c;" horiz-adv-x="829" 
d="M520 305q-22 45 -60 70q-36 24 -78 33.5t-85 9.5q-39 0 -77 -6q-3 -1 -10 -1q-32 0 -35 35l-4 39q-3 39 35 45q23 4 47 6t49 2q59 0 117 -14.5t112 -50.5q57 -38 92.5 -105.5t53.5 -171.5q2 -13 4.5 -27t7 -25.5t13 -18.5t21.5 -7q38 0 38 -38v-40q0 -40 -40 -40h-345
q-90 0 -128.5 -26.5t-38.5 -86.5t38.5 -87t128.5 -27q40 0 40 -40v-37q0 -40 -40 -40q-140 0 -214 59.5t-74 171.5t74 171.5t214 59.5l3 -1v1h191q-7 24 -13 58q-15 83 -37 129zM502 -228q-37 0 -37 36v53q0 36 37 36h52q37 0 37 -36v-53q0 -36 -37 -36h-52z" />
    <glyph glyph-name="uni0686" unicode="&#x686;" horiz-adv-x="829" 
d="M677 196q2 -13 4.5 -27t7 -25.5t13 -18.5t21.5 -7q38 0 38 -38v-40q0 -40 -40 -40h-345q-90 0 -128.5 -26.5t-38.5 -86.5t38.5 -87t128.5 -27h2q40 0 40 -40v-37q0 -40 -40 -40h-2q-140 0 -214 59.5t-74 171.5t74 171.5t214 59.5l3 -1v1h191q-7 24 -13 58
q-15 83 -37 128.5t-60 70.5q-36 24 -78 33.5t-85 9.5q-39 0 -77 -6q-3 -1 -10 -1q-32 0 -35 35l-4 39q-3 39 35 45q23 4 47 6t49 2q59 0 117 -14.5t112 -50.5q57 -38 92.5 -105.5t53.5 -171.5zM547 -285q-31 0 -31 30v44q0 29 31 29h43q30 0 30 -29v-44q0 -30 -30 -30h-43z
M434 -100q0 30 30 30h43q31 0 31 -30v-44q0 -29 -31 -29h-43q-30 0 -30 29v44zM599 -100q0 30 30 30h43q31 0 31 -30v-44q0 -29 -31 -29h-43q-30 0 -30 29v44z" />
    <glyph glyph-name="uni062D" unicode="&#x62d;" horiz-adv-x="829" 
d="M677 196q2 -13 4.5 -27t7 -25.5t13 -18.5t21.5 -7q38 0 38 -38v-40q0 -40 -40 -40h-345q-90 0 -128.5 -26.5t-38.5 -86.5t38.5 -87t128.5 -27h86q40 0 40 -40v-37q0 -40 -40 -40h-86q-140 0 -214 59.5t-74 171.5t74 171.5t214 59.5l3 -1v1h191q-7 24 -13 58
q-15 83 -37 128.5t-60 70.5q-36 24 -78 33.5t-85 9.5q-39 0 -77 -6q-3 -1 -10 -1q-32 0 -35 35l-4 39q-3 39 35 45q23 4 47 6t49 2q59 0 117 -14.5t112 -50.5q57 -38 92.5 -105.5t53.5 -171.5z" />
    <glyph glyph-name="uni062E" unicode="&#x62e;" horiz-adv-x="829" 
d="M502 -304q0 -40 -40 -40h-86q-140 0 -214 59.5t-74 171.5t74 171.5t214 59.5l3 -1v1h191q-7 24 -13 58q-15 83 -37 128.5t-60 70.5q-36 24 -78 33.5t-85 9.5q-39 0 -77 -6q-3 -1 -10 -1q-32 0 -35 35l-4 39q-3 39 35 45q23 4 47 6t49 2q59 0 117 -14.5t112 -50.5
q57 -38 92.5 -105.5t53.5 -171.5q2 -13 4.5 -27t7 -25.5t13 -18.5t21.5 -7q38 0 38 -38v-40q0 -40 -40 -40h-345q-90 0 -128.5 -26.5t-38.5 -86.5t38.5 -87t128.5 -27h86q40 0 40 -40v-37zM478 634q0 -36 -37 -36h-52q-37 0 -37 36v53q0 36 37 36h52q37 0 37 -36v-53z" />
    <glyph glyph-name="uni062F" unicode="&#x62f;" horiz-adv-x="633" 
d="M68 78q0 40 40 40h296q40 0 40 40v69q0 53 -15 89.5t-46 59t-78.5 32.5t-112.5 10h-28q-40 0 -40 40v41q0 40 40 40h30q85 0 153.5 -19t117 -57.5t74.5 -96.5t26 -136v-72q0 -49 -6.5 -79.5t-24 -48t-49 -24t-81.5 -6.5h-296q-40 0 -40 40v38z" />
    <glyph glyph-name="uni0630" unicode="&#x630;" horiz-adv-x="632" 
d="M539 366q26 -58 26 -136v-72q0 -49 -6.5 -79.5t-24 -48t-49 -24t-81.5 -6.5h-296q-40 0 -40 40v38q0 40 40 40h296q40 0 40 40v69q0 53 -15 89.5t-46 59t-78.5 32.5t-112.5 10h-28q-40 0 -40 40v41q0 40 40 40h30q85 0 153.5 -19t117 -57.5t74.5 -96.5zM253 687
q0 36 37 36h52q37 0 37 -36v-53q0 -36 -37 -36h-52q-37 0 -37 36v53z" />
    <glyph glyph-name="uni0631" unicode="&#x631;" horiz-adv-x="333" 
d="M159 430q0 40 40 40h41q40 0 40 -40v-430q0 -110 -41.5 -163t-129.5 -53q-34 0 -69 7q-33 6 -33 35q0 3 0.5 6t1.5 7l8 34q7 31 38 31q7 0 11 -1q17 -3 30 -3q35 0 49 22t14 78v430z" />
    <glyph glyph-name="uni0632" unicode="&#x632;" horiz-adv-x="356" 
d="M8 -168q0 3 1 7l8 34q7 31 38 31q7 0 11 -1q17 -3 30 -3q35 0 49 22t14 78v430q0 40 40 40h41q40 0 40 -40v-430q0 -110 -41.5 -163t-129.5 -53q-34 0 -69 7q-33 6 -33 35q0 3 1 6zM156 637q0 36 37 36h52q37 0 37 -36v-53q0 -36 -37 -36h-52q-37 0 -37 36v53z" />
    <glyph glyph-name="uni0633" unicode="&#x633;" horiz-adv-x="1462" 
d="M1354 539q40 0 40 -40v-341q0 -49 -6.5 -79.5t-24 -48t-49 -24t-81.5 -6.5h-50q-60 0 -101 21.5t-66 63.5q-29 -42 -70.5 -63.5t-92.5 -21.5h-129q-26 -126 -111.5 -186.5t-211.5 -60.5q-61 0 -120.5 16t-107 52t-76.5 95t-29 146q0 33 5 71.5t16 81.5q7 34 44 34h31
q36 0 36 -31q0 -3 -0.5 -6t-1.5 -7q-7 -32 -10 -62.5t-3 -58.5q0 -48 11.5 -87.5t37.5 -67.5t67 -43.5t100 -15.5q49 0 88.5 12.5t67 40.5t42 73.5t14.5 110.5v359q0 40 40 40h41q40 0 40 -40v-348h99q54 0 82 34t28 109v205q0 40 40 40h41q40 0 40 -40v-205
q0 -143 119 -143h50q40 0 40 40v341q0 40 40 40h41z" />
    <glyph glyph-name="uni0634" unicode="&#x634;" horiz-adv-x="1462" 
d="M915 152q28 34 28 109v205q0 40 40 40h41q40 0 40 -40v-205q0 -143 119 -143h50q40 0 40 40v341q0 40 40 40h41q40 0 40 -40v-341q0 -49 -6.5 -79.5t-24 -48t-49 -24t-81.5 -6.5h-50q-60 0 -101 21.5t-66 63.5q-29 -42 -70.5 -63.5t-92.5 -21.5h-129
q-26 -126 -111.5 -186.5t-211.5 -60.5q-61 0 -120.5 16t-107 52t-76.5 95t-29 146q0 33 5 71.5t16 81.5q7 34 44 34h31q36 0 36 -31q0 -3 -0.5 -6t-1.5 -7q-7 -32 -10 -62.5t-3 -58.5q0 -48 11.5 -87.5t37.5 -67.5t67 -43.5t100 -15.5q49 0 88.5 12.5t67 40.5t42 73.5
t14.5 110.5v359q0 40 40 40h41q40 0 40 -40v-348h99q54 0 82 34zM1028 884q37 0 37 -36v-53q0 -36 -37 -36h-52q-37 0 -37 36v53q0 36 37 36h52zM1188 654q0 -36 -37 -36h-52q-37 0 -37 36v53q0 36 37 36h52q37 0 37 -36v-53zM907 743q37 0 37 -36v-53q0 -36 -37 -36h-52
q-37 0 -37 36v53q0 36 37 36h52z" />
    <glyph glyph-name="uni0635" unicode="&#x635;" horiz-adv-x="1428" 
d="M1330 30q-18 -17 -49.5 -23.5t-81.5 -6.5h-475q-26 -126 -111.5 -186.5t-211.5 -60.5q-61 0 -120.5 16t-107 52t-76.5 95t-29 146q0 33 5 71.5t16 81.5q7 34 44 34h31q36 0 36 -31q0 -3 -0.5 -6t-1.5 -7q-7 -32 -10 -62.5t-3 -58.5q0 -48 11.5 -87.5t37.5 -67.5t67 -43.5
t100 -15.5q49 0 88.5 12.5t67 40.5t42 73.5t14.5 110.5v391q0 40 40 40h41q40 0 40 -40v-140q42 85 118.5 132.5t185.5 47.5q66 0 125 -21.5t102.5 -59.5t69 -91t25.5 -115v-95q0 -48 -6.5 -78.5t-23.5 -47.5zM1199 118q40 0 40 40v93q0 38 -15 68.5t-42 52t-63.5 33.5
t-80.5 12q-61 0 -116 -22t-97 -60t-66.5 -90t-24.5 -112v-15h465z" />
    <glyph glyph-name="uni0636" unicode="&#x636;" horiz-adv-x="1428" 
d="M1266 457q43 -38 68.5 -91t25.5 -115v-95q0 -48 -6.5 -78.5t-24 -47.5t-49 -23.5t-81.5 -6.5h-475q-26 -126 -111.5 -186.5t-211.5 -60.5q-61 0 -120.5 16t-107 52t-76.5 95t-29 146q0 33 5 71.5t16 81.5q7 34 44 34h31q36 0 36 -31q0 -3 -0.5 -6t-1.5 -7
q-7 -32 -10 -62.5t-3 -58.5q0 -48 11.5 -87.5t37.5 -67.5t67 -43.5t100 -15.5q49 0 88.5 12.5t67 40.5t42 73.5t14.5 110.5v391q0 40 40 40h41q40 0 40 -40v-140q42 85 118.5 132.5t185.5 47.5q66 0 125 -21.5t103 -59.5zM1182 372q-27 21 -63.5 33t-80.5 12q-61 0 -116 -22
t-97 -60t-66.5 -90t-24.5 -112v-15h465q40 0 40 40v93q0 38 -15 68.5t-42 52.5zM932 702q0 36 37 36h52q37 0 37 -36v-53q0 -36 -37 -36h-52q-37 0 -37 36v53z" />
    <glyph glyph-name="uni0637" unicode="&#x637;" horiz-adv-x="1013" 
d="M920 366q25 -53 25 -115v-93q0 -49 -6.5 -79.5t-24 -48t-49 -24t-81.5 -6.5h-676q-40 0 -40 40v38q0 40 40 40h92v576q0 40 40 40h40q40 0 40 -40l-1 -335q42 84 118.5 131.5t185.5 47.5q66 0 125 -21.5t102.5 -59.5t69.5 -91zM319 118h465q40 0 40 40v93q0 38 -15 68.5
t-42 52t-63.5 33.5t-80.5 12q-60 0 -114.5 -21t-96 -58.5t-66.5 -87.5t-27 -109v-23z" />
    <glyph glyph-name="uni0638" unicode="&#x638;" horiz-adv-x="1013" 
d="M108 0q-40 0 -40 40v38q0 40 40 40h92v576q0 40 40 40h40q40 0 40 -40l-1 -335q42 84 118.5 131.5t185.5 47.5q66 0 125 -21.5t102.5 -59.5t69 -91t25.5 -115v-93q0 -49 -6.5 -79.5t-24 -48t-49 -24t-81.5 -6.5h-676zM809 320q-15 30 -42 51.5t-63.5 33.5t-80.5 12
q-60 0 -114.5 -21t-96 -58.5t-66.5 -87.5t-27 -109v-23h465q40 0 40 40v93q0 38 -15 69zM602 737q37 0 37 -36v-53q0 -36 -37 -36h-52q-37 0 -37 36v53q0 36 37 36h52z" />
    <glyph glyph-name="uni0639" unicode="&#x639;" horiz-adv-x="733" 
d="M587 398q-4 0 -8.5 1t-9.5 3q-32 11 -61 16t-58 5q-39 0 -72 -11t-57.5 -31t-38 -49.5t-13.5 -66.5q0 -77 44 -112t136 -35h176q40 0 40 -40v-38q0 -40 -40 -40h-269q-91 0 -129 -26t-38 -87q0 -60 38.5 -87t128.5 -27h86q40 0 40 -40v-37q0 -40 -40 -40h-86
q-140 0 -214 59.5t-74 171.5q0 87 44.5 142t129.5 76q-94 45 -94 164q0 62 23 112t63 85.5t94.5 54.5t117.5 19q41 0 80 -7.5t84 -23.5q28 -9 28 -33q0 -4 -1 -8.5t-3 -9.5l-13 -33q-10 -27 -34 -27z" />
    <glyph glyph-name="uni063A" unicode="&#x63a;" horiz-adv-x="733" 
d="M482 -304q0 -40 -40 -40h-86q-140 0 -214 59.5t-74 171.5q0 87 44.5 142t129.5 76q-94 45 -94 164q0 62 23 112t63 85.5t94.5 54.5t117.5 19q41 0 80 -7.5t84 -23.5q28 -9 28 -33q0 -4 -1 -8.5t-3 -9.5l-13 -33q-10 -27 -34 -27q-4 0 -8.5 1t-9.5 3q-32 11 -61 16t-58 5
q-39 0 -72 -11t-57.5 -31t-38 -49.5t-13.5 -66.5q0 -77 44 -112t136 -35h176q40 0 40 -40v-38q0 -40 -40 -40h-269q-91 0 -129 -26t-38 -87q0 -60 38.5 -87t128.5 -27h86q40 0 40 -40v-37zM401 598q-37 0 -37 36v53q0 36 37 36h52q37 0 37 -36v-53q0 -36 -37 -36h-52z" />
    <glyph glyph-name="uni0641" unicode="&#x641;" horiz-adv-x="1148" 
d="M1001 7q-31 -7 -81 -7h-518q-65 0 -125 11t-106 41t-73.5 83t-27.5 138q0 51 17 114q10 33 46 33h30q36 0 36 -32q0 -8 -1 -12q-4 -19 -6 -36t-2 -34q0 -58 13.5 -95t40 -57.5t66.5 -28t92 -7.5h204q-23 33 -33.5 71t-10.5 77q0 51 17.5 100t58 87.5t105.5 62t159 23.5
h18q50 0 81 -6.5t48.5 -24t24 -49t6.5 -81.5v-220q0 -49 -6.5 -79.5t-24 -48t-48.5 -23.5zM794 405q-43 -13 -68 -34.5t-35 -48.5t-10 -55t10 -55t35 -48t68 -33.5t108 -12.5h43q15 0 15 15v270q0 15 -15 15h-45q-64 0 -106 -13zM846 723q37 0 37 -36v-53q0 -36 -37 -36h-52
q-37 0 -37 36v53q0 36 37 36h52z" />
    <glyph glyph-name="uni06A4" unicode="&#x6a4;" horiz-adv-x="1148" 
d="M198 376q-4 -19 -6 -36t-2 -34q0 -58 13.5 -95t40 -57.5t66.5 -28t92 -7.5h204q-23 33 -33.5 71t-10.5 77q0 51 17.5 100t58 87.5t105.5 62t159 23.5h18q50 0 81 -6.5t48.5 -24t24 -49t6.5 -81.5v-220q0 -49 -6.5 -79.5t-24 -48t-48.5 -24t-81 -6.5h-518q-65 0 -125 11
t-106 41t-73.5 83t-27.5 138q0 51 17 114q10 33 46 33h30q36 0 36 -32q0 -8 -1 -12zM900 418q-64 0 -106.5 -13t-67.5 -34.5t-35 -48.5t-10 -55t10 -55t35 -48t68 -33.5t108 -12.5h43q15 0 15 15v270q0 15 -15 15h-45zM744 726q37 0 37 -36v-53q0 -36 -37 -36h-52
q-37 0 -37 36v53q0 36 37 36h52zM855 690q0 36 37 36h52q37 0 37 -36v-53q0 -36 -37 -36h-52q-37 0 -37 36v53zM844 861q37 0 37 -36v-53q0 -36 -37 -36h-52q-37 0 -37 36v53q0 36 37 36h52z" />
    <glyph glyph-name="uni06A1" unicode="&#x6a1;" horiz-adv-x="1148" 
d="M920 539q50 0 81 -6.5t48.5 -24t24 -49t6.5 -81.5v-220q0 -49 -6.5 -79.5t-24 -48t-48.5 -24t-81 -6.5h-518q-65 0 -125 11t-106 41t-73.5 83t-27.5 138q0 51 17 114q10 33 46 33h30q36 0 36 -32q0 -8 -1 -12q-4 -19 -6 -36t-2 -34q0 -58 13.5 -95t40 -57.5t66.5 -28
t92 -7.5h204q-23 33 -33.5 71t-10.5 77q0 51 17.5 100t58 87.5t105.5 62t159 23.5h18zM945 118q15 0 15 15v270q0 15 -15 15h-45q-64 0 -106.5 -13t-67.5 -34.5t-35 -48.5t-10 -55t10 -55t35 -48t68 -33.5t108 -12.5h43z" />
    <glyph glyph-name="uni0642" unicode="&#x642;" horiz-adv-x="912" 
d="M710 -63q15 40 15 98v48q-26 -38 -65 -60.5t-92 -22.5q-60 0 -105 22t-74.5 58.5t-44.5 83t-15 95.5q0 52 17.5 102t58 89.5t105.5 64t160 24.5h15q49 0 80 -6.5t48.5 -24t24 -49t6.5 -81.5v-343q0 -166 -98.5 -249t-284.5 -83q-81 0 -152 18.5t-124 57.5t-83.5 99
t-30.5 143q0 44 9 93q8 35 44 35h32q41 0 36 -43q-3 -30 -3 -56q0 -113 66 -169.5t206 -56.5q70 0 120 11.5t82 36.5t47 65zM668 418q-65 0 -108 -13t-68 -34t-35 -48t-10 -55t9 -55t26.5 -48t44.5 -34t63 -13q25 0 49 12t43 32.5t31 49t12 61.5v130q0 15 -15 15h-42z
M435 689q0 36 37 36h52q37 0 37 -36v-53q0 -36 -37 -36h-52q-37 0 -37 36v53zM704 725q37 0 37 -36v-53q0 -36 -37 -36h-52q-37 0 -37 36v53q0 36 37 36h52z" />
    <glyph glyph-name="uni0643" unicode="&#x643;" horiz-adv-x="998" 
d="M890 734q40 0 40 -40v-536q0 -49 -6.5 -79.5t-24 -48t-49 -24t-81.5 -6.5h-367q-65 0 -125 11t-106 41t-73.5 83t-27.5 138q0 51 17 114q10 33 46 33h30q36 0 36 -32q0 -8 -1 -12q-4 -19 -6 -36t-2 -34q0 -58 13.5 -95t40 -57.5t66.5 -28t92 -7.5h367q40 0 40 40v536
q0 40 40 40h41zM522 613q-29 0 -46 -17t-17 -44q0 -30 20.5 -47.5t52.5 -17.5h80q26 0 26 -27v-30q0 -27 -26 -27h-224q-27 0 -27 27v30q0 27 27 27h4q-31 28 -31 78q0 31 12.5 56.5t34 44t50 28.5t59.5 10q8 0 24 -1.5t32 -6t27.5 -12.5t11.5 -20q0 -2 -1 -5l-13 -38
q-6 -17 -22 -17q-8 0 -12 1q-11 5 -22 6.5t-20 1.5z" />
    <glyph glyph-name="uni0644" unicode="&#x644;" horiz-adv-x="802" 
d="M734 107q0 -90 -24 -157t-67.5 -110.5t-105 -65t-136.5 -21.5q-61 0 -120.5 16t-107 52t-76.5 95t-29 146q0 33 5 71.5t16 81.5q7 34 44 34h31q36 0 36 -31q0 -3 -0.5 -6t-1.5 -7q-7 -32 -10 -62.5t-3 -58.5q0 -48 11.5 -87.5t37.5 -67.5t67 -43.5t100 -15.5
q49 0 88.5 12.5t67 40.5t42 73.5t14.5 110.5v587q0 40 40 40h41q40 0 40 -40v-587z" />
    <glyph glyph-name="uni0645" unicode="&#x645;" horiz-adv-x="823" 
d="M681 463q34 -37 54 -87.5t20 -110.5q0 -64 -20.5 -114t-55 -83.5t-79 -51t-93.5 -17.5q-37 0 -74 10t-72 31v-11q-1 -137 -50.5 -206t-158.5 -69q-23 0 -47 3q-19 2 -28 13.5t-9 29.5v36q0 20 8 28.5t28 8.5q20 -3 36 -3q59 0 80 39.5t21 119.5v206q0 69 19 125.5t53 96
t81.5 61t104.5 21.5q54 0 100.5 -20t81.5 -56zM634 265q0 36 -10 64t-28 48t-42 30.5t-53 10.5q-66 0 -103 -47t-36 -136v-71q30 -25 64 -37t66 -12q29 0 54.5 9.5t45 28.5t31 47t11.5 65z" />
    <glyph glyph-name="uni0646" unicode="&#x646;" horiz-adv-x="802" 
d="M538 -226q-62 -21 -137 -21q-61 0 -120.5 16t-107 52t-76.5 95t-29 146q0 33 5 71.5t16 81.5q7 34 44 34h31q36 0 36 -31q0 -3 -0.5 -6t-1.5 -7q-13 -64 -13 -121q0 -48 11.5 -87.5t37.5 -67.5t67 -43.5t100 -15.5q49 0 88.5 12.5t67 40.5t42 73.5t14.5 110.5v273
q0 40 40 40h41q40 0 40 -40v-273q0 -90 -24 -157t-67.5 -110.5t-104.5 -65.5zM338 448q0 36 37 36h52q37 0 37 -36v-53q0 -36 -37 -36h-52q-37 0 -37 36v53z" />
    <glyph glyph-name="uni0647" unicode="&#x647;" horiz-adv-x="654" 
d="M522 84q-33 -38 -82 -61t-114 -23t-113.5 23t-80.5 60.5t-48 85t-16 97.5q0 51 16.5 100t49 87.5t81.5 62t113 23.5q65 0 113 -23t80.5 -61t48.5 -86.5t16 -99.5t-16 -99t-48 -86zM466 264q0 29 -9 56.5t-26.5 49t-43.5 35t-61 13.5q-34 0 -60 -13t-43.5 -34.5
t-26.5 -48.5t-9 -55t9 -55t26.5 -48t44 -33.5t61.5 -12.5t61 12.5t43 33t25.5 46.5t8.5 54z" />
    <glyph glyph-name="uni0629" unicode="&#x629;" horiz-adv-x="654" 
d="M440 23q-49 -23 -114 -23t-113.5 23t-80.5 60.5t-48 85t-16 97.5q0 51 16.5 100t49 87.5t81.5 62t113 23.5q65 0 113 -23t80.5 -61t48.5 -86.5t16 -99.5t-16 -99t-48.5 -86t-81.5 -61zM432 164q17 20 25.5 46t8.5 54q0 29 -9 56.5t-26.5 49t-43.5 35t-61 13.5
q-34 0 -60 -13t-43.5 -34.5t-26.5 -48.5t-9 -55t9 -55t26.5 -48t44 -33.5t61.5 -12.5t61 12.5t43 33.5zM399 598q-37 0 -37 36v53q0 36 37 36h52q37 0 37 -36v-53q0 -36 -37 -36h-52zM182 687q0 36 37 36h52q37 0 37 -36v-53q0 -36 -37 -36h-52q-37 0 -37 36v53z" />
    <glyph glyph-name="uni0648" unicode="&#x648;" horiz-adv-x="651" 
d="M504 533q31 -7 48.5 -24.5t24 -49t6.5 -81.5v-311q0 -153 -77 -233t-214 -80q-38 0 -80 6q-19 2 -28 13.5t-9 29.5v37q0 37 37 37q15 0 27.5 -1t25.5 -1q100 0 149.5 46.5t49.5 146.5v15q-26 -38 -65 -60.5t-92 -22.5q-60 0 -105 22t-74.5 58.5t-44.5 83t-15 95.5
q0 52 17.5 102t58 89.5t105.5 64t160 24.5h15q49 0 80 -6zM452 212q12 28 12 61v130q0 15 -15 15h-42q-65 0 -108 -13t-68 -34t-35 -48t-10 -55t9 -55t26.5 -48t44.5 -34t63 -13q25 0 49 12t43 32.5t31 49.5z" />
    <glyph glyph-name="uni0624" unicode="&#x624;" horiz-adv-x="651" 
d="M202 22q-45 22 -74.5 58.5t-44.5 83t-15 95.5q0 52 17.5 102t58 89.5t105.5 64t160 24.5h15q49 0 80 -6.5t48.5 -24t24 -49t6.5 -81.5v-311q0 -153 -77 -233t-214 -80q-38 0 -80 6q-19 2 -28 13.5t-9 29.5v37q0 37 37 37q15 0 27.5 -1t25.5 -1q100 0 149.5 46.5
t49.5 146.5v15q-26 -38 -65 -60.5t-92 -22.5q-60 0 -105 22zM186 268q0 -28 9 -55t26.5 -48t44.5 -34t63 -13q25 0 49 12t43 32.5t31 49t12 61.5v130q0 15 -15 15h-42q-65 0 -108 -13t-68 -34t-35 -48t-10 -55zM339 843q12 -2 24 -5t20.5 -9t8.5 -15q0 -2 -2 -8l-8 -24
q-4 -13 -17 -13q-6 0 -9 1q-16 6 -31 6q-22 0 -35 -13t-13 -33q0 -23 16 -36t39 -13h60q20 0 20 -20v-23q0 -20 -20 -20h-168q-20 0 -20 20v23q0 20 20 20h3q-23 21 -23 59q0 23 9.5 42t25.5 33t37 21.5t45 7.5q6 0 18 -1z" />
    <glyph glyph-name="uni0649" unicode="&#x649;" horiz-adv-x="939" 
d="M834 507q28 -11 28 -34q0 -8 -3 -17l-11 -33q-9 -27 -34 -27q-8 0 -17 3q-41 13 -78 19t-70 6q-81 0 -129 -33t-48 -88q0 -21 6.5 -38t26.5 -32t56 -29t94 -30q35 -9 71 -23t65.5 -37t48.5 -58t19 -87q0 -100 -80 -158t-232 -58h-99q-76 0 -144 17t-119 53t-80.5 92.5
t-29.5 135.5q0 26 3 54t11 60q7 34 44 34h31q37 0 37 -34q0 -6 -1 -10q-4 -20 -5.5 -39.5t-1.5 -36.5q0 -102 61.5 -155.5t193.5 -53.5h99q100 0 145.5 26.5t45.5 72.5q0 38 -23.5 55t-61 27t-85.5 21t-97 37q-60 32 -90 81.5t-30 112.5q0 51 22.5 94.5t62.5 74.5t95.5 48.5
t121.5 17.5q85 0 181 -31z" />
    <glyph glyph-name="uni064A" unicode="&#x64a;" horiz-adv-x="939" 
d="M649 424q-81 0 -129 -33t-48 -88q0 -21 6.5 -38t26.5 -32t56 -29t94 -30q35 -9 71 -23t65.5 -37t48.5 -58t19 -87q0 -100 -80 -158t-232 -58h-99q-76 0 -144 17t-119 53t-80.5 92.5t-29.5 135.5q0 26 3 54t11 60q7 34 44 34h31q37 0 37 -34q0 -6 -1 -10
q-4 -20 -5.5 -39.5t-1.5 -36.5q0 -102 61.5 -155.5t193.5 -53.5h99q100 0 145.5 26.5t45.5 72.5q0 38 -23.5 55t-61 27t-85.5 21t-97 37q-60 32 -90 81.5t-30 112.5q0 51 22.5 94.5t62.5 74.5t95.5 48.5t121.5 17.5q85 0 181 -31q28 -11 28 -34q0 -8 -3 -17l-11 -33
q-9 -27 -34 -27q-8 0 -17 3q-41 13 -78 19t-70 6zM617 -436q0 -36 -37 -36h-52q-37 0 -37 36v53q0 36 37 36h52q37 0 37 -36v-53zM400 -347q37 0 37 -36v-53q0 -36 -37 -36h-52q-37 0 -37 36v53q0 36 37 36h52z" />
    <glyph glyph-name="uni0626" unicode="&#x626;" horiz-adv-x="939" 
d="M75 51q0 26 3 54t11 60q7 34 44 34h31q37 0 37 -34q0 -6 -1 -10q-4 -20 -5.5 -39.5t-1.5 -36.5q0 -102 61.5 -155.5t193.5 -53.5h99q100 0 145.5 26.5t45.5 72.5q0 38 -23.5 55t-61 27t-85.5 21t-97 37q-60 32 -90 81.5t-30 112.5q0 51 22.5 94.5t62.5 74.5t95.5 48.5
t121.5 17.5q85 0 181 -31q28 -11 28 -34q0 -8 -3 -17l-11 -33q-9 -27 -34 -27q-8 0 -17 3q-41 13 -78 19t-70 6q-81 0 -129 -33t-48 -88q0 -21 6.5 -38t26.5 -32t56 -29t94 -30q35 -9 71 -23t65.5 -37t48.5 -58t19 -87q0 -100 -80 -158t-232 -58h-99q-76 0 -144 17t-119 53
t-80.5 92.5t-29.5 135.5zM88 328q-20 0 -20 20v23q0 20 20 20h3q-23 21 -23 59q0 23 9.5 42t25.5 33t37 21.5t45 7.5q6 0 18 -1.5t24 -4.5t20.5 -9t8.5 -15q0 -2 -2 -8l-8 -24q-4 -13 -17 -13q-6 0 -9 1q-16 6 -31 6q-22 0 -35 -13t-13 -33q0 -23 16 -36t39 -13h60
q20 0 20 -20v-23q0 -20 -20 -20h-168z" />
    <glyph glyph-name="uni0640" unicode="&#x640;" horiz-adv-x="200" 
d="M-65 59q0 26 18 42.5t47 16.5h200v-118h-200q-29 0 -47 16.5t-18 42.5z" />
    <glyph glyph-name="zero" unicode="0" horiz-adv-x="724" 
d="M583 94q-40 -49 -96.5 -77.5t-125.5 -28.5t-125 28t-96 77t-61.5 114.5t-21.5 140.5v2q0 75 22 141t62 115t96.5 77.5t125.5 28.5t125 -28t95.5 -77t61.5 -114.5t22 -140.5v-2q0 -75 -22 -141t-62 -115zM528 252q12 45 12 96v2q0 52 -13 97.5t-36 79.5t-56 54t-74 20
q-40 0 -73 -19.5t-56 -53t-35.5 -79t-12.5 -97.5v-2q0 -52 12.5 -97.5t36 -79.5t56.5 -54t74 -20t73.5 19.5t55.5 53.5t36 80z" />
    <glyph glyph-name="one" unicode="1" horiz-adv-x="396" 
d="M218 0q-40 0 -40 40v540l-87 -24q-10 -2 -15 -2q-26 0 -34 30l-6 23q-2 10 -2 14q0 27 29 36l128 40q23 8 49 8h20q40 0 40 -40v-625q0 -40 -40 -40h-42z" />
    <glyph glyph-name="two" unicode="2" horiz-adv-x="613" 
d="M447 298q-34 -32 -81 -70l-144 -120h293q40 0 40 -40v-28q0 -40 -40 -40h-426q-40 0 -40 40v27q0 30 23 49l218 186q36 31 61 55.5t40.5 46t22.5 42.5t7 45q0 52 -32.5 80.5t-80.5 28.5q-41 0 -72.5 -18.5t-63.5 -55.5q-14 -17 -30 -17q-12 0 -26 11l-25 20
q-18 14 -18 31q0 12 10 25q23 27 46.5 48.5t51.5 36t61.5 22t74.5 7.5q51 0 93.5 -15t73 -42.5t47.5 -66t17 -85.5v-2q0 -41 -11 -74.5t-33.5 -64.5t-56.5 -62z" />
    <glyph glyph-name="three" unicode="3" horiz-adv-x="618" 
d="M539 295q17 -35 17 -83v-2q0 -48 -17.5 -89t-50 -70.5t-77.5 -46t-100 -16.5q-79 0 -138.5 26t-102.5 68q-13 13 -13 27q0 16 15 29l28 26q14 12 27 12t29 -14q33 -31 71 -47t86 -16q52 0 86.5 29t34.5 77v2q0 52 -43.5 80t-117.5 28h-22q-35 0 -44 34l-3 13q-1 5 -1.5 9
t-0.5 8q0 21 15 36l168 178h-263q-40 0 -40 40v27q0 40 40 40h383q40 0 40 -40v-23q0 -29 -20 -50l-175 -179q40 -5 77 -18t65.5 -36.5t46.5 -58.5z" />
    <glyph glyph-name="four" unicode="4" horiz-adv-x="682" 
d="M44 215q-1 5 -1.5 8.5t-0.5 8.5q0 19 14 36l350 414q19 23 49 23h35q40 0 40 -40v-407h60q40 0 40 -40v-21q0 -40 -40 -40h-60v-117q0 -40 -40 -40h-38q-40 0 -40 40v117h-318q-35 0 -44 34zM412 258v277l-230 -277h230z" />
    <glyph glyph-name="five" unicode="5" horiz-adv-x="623" 
d="M220 591l-11 -164q25 9 50.5 14.5t60.5 5.5q51 0 95.5 -13.5t77.5 -41t52 -68.5t19 -97v-2q0 -54 -19 -97.5t-53 -74.5t-82 -48t-106 -17q-69 0 -125 22t-102 59q-16 12 -16 28q0 15 12 28l24 28q13 16 29 16q12 0 28 -11q35 -28 72 -43t77 -15q63 0 101 33t38 88v2
q0 54 -40.5 85t-104.5 31q-28 0 -53 -5.5t-47 -13.5q-15 -5 -25 -5q-16 0 -30 10l-22 14q-25 17 -24 50l16 272q2 39 41 39h340q40 0 40 -40v-29q0 -40 -40 -40h-273z" />
    <glyph glyph-name="six" unicode="6" horiz-adv-x="656" 
d="M440 6q-48 -18 -103 -18q-65 0 -112.5 19.5t-82.5 54.5q-20 20 -35.5 44.5t-26.5 56t-17 72.5t-6 94v2q0 80 19 149.5t56.5 121t94 81t130.5 29.5q57 0 100.5 -14.5t81.5 -40.5q19 -12 19 -30q0 -11 -9 -25l-21 -30q-13 -19 -30 -19q-11 0 -26 10q-27 17 -55 27t-64 10
q-46 0 -77.5 -21.5t-51.5 -54t-29 -72t-10 -75.5q31 32 71 51.5t97 19.5q51 0 95.5 -14.5t77.5 -43t52 -69t19 -93.5v-2q0 -52 -20 -96t-55 -75.5t-82 -48.5zM474 223q0 53 -38.5 87.5t-104.5 34.5q-33 0 -59 -10t-44.5 -26.5t-28.5 -39t-10 -47.5v-2q0 -54 39.5 -89.5
t105.5 -35.5t103 36t37 90v2z" />
    <glyph glyph-name="seven" unicode="7" horiz-adv-x="609" 
d="M260 29q-15 -29 -47 -29h-53q-17 0 -26 7.5t-9 19.5q0 9 6 21l289 544h-312q-40 0 -40 40v28q0 40 40 40h412q40 0 40 -40v-27q0 -14 -2.5 -25t-9.5 -24z" />
    <glyph glyph-name="eight" unicode="8" horiz-adv-x="630" 
d="M582 193q0 -47 -20 -84.5t-56 -64t-85 -40.5t-106 -14t-106 14.5t-85 40.5t-56 63.5t-20 82.5v2q0 63 33 104t93 66q-45 23 -73.5 60t-28.5 96v2q0 40 18.5 74.5t50.5 60t77 40t97 14.5q53 0 97.5 -14.5t76.5 -39.5t50.5 -59.5t18.5 -75.5v-2q0 -59 -28.5 -96t-73.5 -60
q58 -26 92 -65.5t34 -102.5v-2zM373 299q-27 7 -58 7t-58 -7.5t-46.5 -21.5t-30.5 -33.5t-11 -43.5v-2q0 -43 38.5 -74t107.5 -31t108 30.5t39 74.5v2q0 24 -11.5 43.5t-31 33.5t-46.5 22zM440 509q0 41 -34 69.5t-91 28.5t-91 -28.5t-34 -68.5v-2q0 -46 35.5 -75t89.5 -29
t89.5 29t35.5 74v2z" />
    <glyph glyph-name="nine" unicode="9" horiz-adv-x="656" 
d="M402 266q-41 -20 -95 -20q-56 0 -101.5 15.5t-78 44.5t-50.5 70t-18 92v2q0 51 19 95.5t53.5 77t82.5 51t106 18.5q78 0 131 -27t86 -73t47.5 -108t14.5 -133v-2q0 -84 -20.5 -154.5t-59 -120.5t-94 -78t-126.5 -28q-60 0 -107 16.5t-86 43.5q-18 14 -18 30q0 11 10 26
l21 29q11 17 29 17q12 0 31 -11q29 -20 58.5 -29.5t64.5 -9.5q47 0 79 21.5t52 54t29.5 71.5t9.5 74q-29 -35 -70 -55zM182 474q0 -55 38.5 -90t104.5 -35q33 0 59.5 10t45 27.5t28 40.5t9.5 48v2q0 55 -39.5 92t-106.5 37q-33 0 -58.5 -10t-43.5 -28t-27.5 -41.5
t-9.5 -50.5v-2z" />
    <glyph glyph-name="fraction" unicode="&#x2044;" horiz-adv-x="546" 
d="M251 364l215 323q9 13 25 13h26q16 0 16 -12q0 -5 -4 -12l-234 -340l-215 -323q-9 -13 -25 -13h-26q-16 0 -16 12q0 5 4 12z" />
    <glyph glyph-name="uni066B" unicode="&#x66b;" horiz-adv-x="310" 
d="M205 -72q-34 -38 -101 -48h-5q-14 0 -18 16l-4 15q-1 2 -1 6q0 14 16 18q72 21 66 89h-12q-40 0 -40 40v58q0 40 40 40h53q40 0 40 -40v-77q0 -78 -34 -117z" />
    <glyph glyph-name="uni066C" unicode="&#x66c;" horiz-adv-x="275" 
d="M178 -55q-27 -30 -81 -38h-4q-11 0 -15 13l-3 12q-1 1 -1 4q0 11 13 15q58 17 53 71h-10q-32 0 -32 32v46q0 32 32 32h43q32 0 32 -32v-61q0 -63 -27 -94z" />
    <glyph glyph-name="uni0660" unicode="&#x660;" horiz-adv-x="286" 
d="M60 292q0 50 50 50h66q50 0 50 -50v-73q0 -50 -50 -50h-66q-50 0 -50 50v73z" />
    <glyph glyph-name="uni0661" unicode="&#x661;" horiz-adv-x="241" 
d="M60 694q0 40 40 40h41q40 0 40 -40v-654q0 -40 -40 -40h-41q-40 0 -40 40v654z" />
    <glyph glyph-name="uni0662" unicode="&#x662;" horiz-adv-x="684" 
d="M624 618q0 -61 -20.5 -107.5t-56.5 -78.5t-85 -48.5t-106 -16.5q-109 0 -167 58l12 -385q1 -40 -39 -40l-41 -1q-39 0 -41 40l-20 653q-1 20 9.5 30.5t30.5 10.5h40q38 0 40 -39l1 -26v-14l2 -49q6 -60 48 -89.5t113 -29.5q34 0 63 7.5t50.5 23.5t33.5 41t12 60v76
q0 40 40 40h41q40 0 40 -40v-76z" />
    <glyph glyph-name="uni0663" unicode="&#x663;" horiz-adv-x="842" 
d="M591 366q-97 0 -136 103q-23 -48 -65 -75.5t-99 -27.5q-31 0 -56.5 10t-46.5 28l11 -364q1 -40 -39 -40l-41 -1q-39 0 -41 40l-18 653q-1 20 9.5 30.5t30.5 10.5h40q38 0 40 -39l3 -103q3 -51 23 -79.5t68 -28.5t67.5 27.5t19.5 87.5v96q0 40 40 40h41q40 0 40 -40v-96
q0 -55 21.5 -85t67.5 -30q50 0 70 27.5t20 87.5v96q0 40 40 40h41q40 0 40 -40v-96q0 -50 -13 -92.5t-37.5 -73.5t-60 -48.5t-80.5 -17.5z" />
    <glyph glyph-name="uni0664" unicode="&#x664;" horiz-adv-x="616" 
d="M521 350q0 -40 -40 -40h-172q-33 0 -57 -8t-40 -21t-24 -29.5t-8 -33.5q0 -18 8.5 -35.5t25 -31t42 -22t58.5 -8.5h202q40 0 40 -40v-41q0 -40 -40 -40h-201q-64 0 -111.5 18.5t-79.5 49.5t-48 70t-16 79q0 54 27 103t82 78q-38 29 -57 67t-19 79q0 36 14.5 70t43.5 60.5
t73 43t102 16.5h155q40 0 40 -40v-40q0 -40 -40 -40l-155 -1q-57 0 -85 -27.5t-28 -61.5q0 -17 7.5 -34t22.5 -30t37 -21t51 -8h150q40 0 40 -40v-41z" />
    <glyph glyph-name="uni0665" unicode="&#x665;" horiz-adv-x="652" 
d="M129 79q-69 79 -69 224q0 86 20 156t55.5 120t84 77.5t106.5 27.5t106.5 -27.5t84 -77t55.5 -119.5t20 -155q0 -145 -70 -225t-198 -80q-127 0 -195 79zM181 303q0 -95 34.5 -138t109.5 -43t110.5 44t35.5 139q0 56 -11.5 103.5t-31.5 82t-46.5 53.5t-55.5 19t-55.5 -19
t-46.5 -53.5t-31.5 -82.5t-11.5 -105z" />
    <glyph glyph-name="uni0666" unicode="&#x666;" horiz-adv-x="642" 
d="M60 694q0 40 40 40h369q77 0 82 -78l31 -615q2 -41 -39 -41h-40q-39 0 -41 39l-29 574h-333q-40 0 -40 40v41z" />
    <glyph glyph-name="uni0667" unicode="&#x667;" horiz-adv-x="729" 
d="M669 705q0 -8 -3 -17l-228 -656q-10 -32 -45 -32l-62 -1q-34 0 -45 33l-223 656q-3 9 -3 17q0 29 35 29h43q33 0 45 -32l180 -518l181 518q12 32 45 32h45q35 0 35 -29z" />
    <glyph glyph-name="uni0668" unicode="&#x668;" horiz-adv-x="716" 
d="M591 0q-33 0 -45 32l-180 518l-181 -518q-12 -32 -45 -32h-45q-35 0 -35 29q0 8 3 17l228 656q10 32 45 32l62 1q35 0 45 -33l223 -656q3 -9 3 -17q0 -29 -35 -29h-43z" />
    <glyph glyph-name="uni0669" unicode="&#x669;" horiz-adv-x="682" 
d="M577 587q21 -45 24 -97l21 -449q2 -41 -39 -41h-40q-39 0 -41 39l-12 259q-63 -68 -174 -68q-64 0 -112 21t-80 55.5t-48 79t-16 90.5q0 48 17 94.5t51 82.5t85 58.5t119 22.5q57 0 105 -18.5t83.5 -51.5t56.5 -77zM189 431q9 -24 28 -42.5t47.5 -30t66.5 -11.5
q67 0 108.5 38.5t41.5 107.5q0 23 -11 44.5t-31 38.5t-47.5 27t-61.5 10q-37 0 -65.5 -11.5t-47.5 -30.5t-28.5 -43t-9.5 -49t10 -48z" />
    <glyph glyph-name="asterisk" unicode="*" horiz-adv-x="430" 
d="M331 438q-5 0 -12 5l-83 61l12 -101v-2q0 -19 -19 -19h-28q-21 0 -19 21l12 101l-83 -61q-7 -5 -12 -5q-10 0 -16 11l-14 25q-4 5 -4 12q0 9 12 15l95 41l-94 41q-13 7 -13 16q0 3 4 11l14 25q6 11 16 11q5 0 12 -5l83 -61l-12 101v2q0 19 19 19h28q21 0 19 -21l-12 -101
l83 61q7 5 12 5q10 0 16 -11l14 -25q4 -5 4 -12q0 -9 -12 -15l-95 -41l94 -41q13 -6 13 -16q0 -3 -4 -11l-14 -25q-6 -11 -16 -11z" />
    <glyph glyph-name="backslash" unicode="\" horiz-adv-x="521" 
d="M78 798q16 0 23 -15l433 -887q3 -6 3 -11q0 -13 -17 -13h-63q-15 0 -23 15l-433 887q-3 6 -3 11q0 13 17 13h63z" />
    <glyph glyph-name="colon" unicode=":" horiz-adv-x="279" 
d="M113 0q-40 0 -40 40v58q0 40 40 40h53q40 0 40 -40v-58q0 -40 -40 -40h-53zM206 431q0 -40 -40 -40h-53q-40 0 -40 40v57q0 40 40 40h53q40 0 40 -40v-57z" />
    <glyph glyph-name="comma" unicode="," horiz-adv-x="269" 
d="M167 -96q-34 -38 -101 -48h-5q-14 0 -18 16l-4 15q-1 2 -1 6q0 14 16 18q72 21 66 89h-12q-40 0 -40 40v58q0 40 40 40h53q40 0 40 -40v-77q0 -78 -34 -117z" />
    <glyph glyph-name="exclam" unicode="!" horiz-adv-x="302" 
d="M137 222q-19 0 -21 19l-33 417q-2 20 8.5 31t30.5 11h58q20 0 30.5 -11t8.5 -31l-33 -417q-2 -19 -20 -19h-29zM178 138q40 0 40 -40v-58q0 -40 -40 -40h-53q-40 0 -40 40v58q0 40 40 40h53z" />
    <glyph glyph-name="numbersign" unicode="#" horiz-adv-x="700" 
d="M505 161l-21 -125q-6 -36 -43 -36h-26q-38 0 -38 34q0 2 0.5 4.5t0.5 4.5l20 118h-163l-21 -125q-6 -36 -43 -36h-26q-38 0 -38 34q0 2 0.5 4.5t0.5 4.5l20 118h-49q-40 0 -40 40v24q0 40 40 40h67l30 174h-60q-40 0 -40 40v24q0 40 40 40h78l21 121q6 36 43 36h26
q38 0 38 -33q0 -6 -1 -10l-20 -114h163l21 121q6 36 43 36h26q38 0 38 -33q0 -6 -1 -10l-20 -114h50q40 0 40 -40v-24q0 -40 -40 -40h-68l-30 -174h61q40 0 40 -40v-24q0 -40 -40 -40h-79zM282 442l-31 -180h167l31 180h-167z" />
    <glyph glyph-name="period" unicode="." horiz-adv-x="269" 
d="M68 98q0 40 40 40h53q40 0 40 -40v-58q0 -40 -40 -40h-53q-40 0 -40 40v58z" />
    <glyph glyph-name="question" unicode="?" horiz-adv-x="541" 
d="M377 502q0 42 -30.5 68.5t-84.5 26.5q-38 0 -71 -13t-63 -38q-16 -13 -29 -13t-27 14l-21 23q-14 14 -14 29q0 13 14 27q41 38 93 60.5t121 22.5q53 0 96 -14t74 -40.5t48 -64t17 -84.5v-2q0 -47 -16 -82t-43.5 -59t-64 -39t-78.5 -22l-8 -61q-2 -19 -21 -19h-43
q-19 0 -21 19l-9 108q-3 38 38 43q74 8 108.5 36t34.5 72v2zM178 98q0 40 40 40h54q40 0 40 -40v-58q0 -40 -40 -40h-54q-40 0 -40 40v58z" />
    <glyph glyph-name="quotedbl" unicode="&#x22;" horiz-adv-x="487" 
d="M82 681q2 19 20 19h95q11 0 15.5 -6t1.5 -17l-86 -260q-5 -16 -22 -16h-25q-20 0 -19 21zM302 681q2 19 20 19h94q11 0 15.5 -6t1.5 -17l-86 -260q-5 -16 -22 -16h-24q-20 0 -19 21z" />
    <glyph glyph-name="quotesingle" unicode="'" horiz-adv-x="269" 
d="M82 681q2 19 20 19h96q11 0 15.5 -6t1.5 -17l-86 -260q-5 -16 -22 -16h-26q-20 0 -19 21z" />
    <glyph glyph-name="semicolon" unicode=";" horiz-adv-x="279" 
d="M44 -113q-1 2 -1 6q0 14 16 18q72 21 66 89h-12q-40 0 -40 40v58q0 40 40 40h53q40 0 40 -40v-77q0 -78 -34 -116.5t-101 -48.5h-5q-14 0 -18 16zM73 488q0 40 40 40h53q40 0 40 -40v-57q0 -40 -40 -40h-53q-40 0 -40 40v57z" />
    <glyph glyph-name="slash" unicode="/" horiz-adv-x="521" 
d="M420 783q8 15 23 15h63q17 0 17 -13q0 -5 -3 -11l-433 -887q-7 -15 -23 -15h-63q-17 0 -17 13q0 5 3 11z" />
    <glyph glyph-name="underscore" unicode="_" horiz-adv-x="604" 
d="M0 -86q0 20 20 20h564q20 0 20 -20v-54q0 -20 -20 -20h-564q-20 0 -20 20v54z" />
    <glyph glyph-name="braceleft" unicode="{" horiz-adv-x="487" 
d="M426 -103q-8 -32 -37 -32q-3 0 -6 0.5t-7 1.5q-56 13 -92 31.5t-57 42t-29.5 53t-8.5 65.5q0 6 0.5 15.5t0.5 20t0.5 20.5t0.5 16q0 59 -25 84.5t-88 25.5q-26 0 -26 40v12q0 40 26 40q63 0 88 26t25 85q0 6 -0.5 16t-0.5 20.5t-0.5 20t-0.5 15.5q0 35 8.5 64.5t29.5 53
t57 42t92 31.5q4 1 7 1.5t6 0.5q29 0 37 -32l1 -4q1 -4 1.5 -7t0.5 -6q0 -26 -31 -37q-32 -11 -51 -23t-29.5 -26.5t-13.5 -33t-3 -42.5q0 -15 1 -36.5t1 -37.5q0 -59 -27 -90t-77 -47q51 -17 77.5 -47.5t26.5 -89.5q0 -16 -1 -37.5t-1 -36.5q0 -24 3 -42.5t13.5 -33
t29.5 -26.5t51 -23q31 -11 31 -37q0 -3 -0.5 -6t-1.5 -7z" />
    <glyph glyph-name="braceright" unicode="}" horiz-adv-x="487" 
d="M409 333q26 0 26 -40v-12q0 -40 -26 -40q-63 0 -88 -25.5t-25 -84.5q0 -6 0.5 -16t0.5 -20.5t0.5 -20t0.5 -15.5q0 -36 -8.5 -65.5t-29.5 -53t-57 -42t-92 -31.5q-4 -1 -7 -1.5t-6 -0.5q-29 0 -37 32l-1 4q-1 4 -1.5 7t-0.5 6q0 26 31 37q32 11 51 23t29.5 26.5t13.5 33
t3 42.5q0 15 -1 36.5t-1 37.5q0 59 27 90t77 47q-51 17 -77.5 47.5t-26.5 89.5q0 16 1 37.5t1 36.5q0 24 -3 42.5t-13.5 33t-29.5 26.5t-51 23q-31 11 -31 37q0 3 0.5 6t1.5 7l1 4q8 32 37 32q3 0 6 -0.5t7 -1.5q56 -13 92 -31.5t57 -42t29.5 -53t8.5 -64.5q0 -6 -0.5 -15.5
t-0.5 -20t-0.5 -20.5t-0.5 -16q0 -59 25 -85t88 -26z" />
    <glyph glyph-name="bracketleft" unicode="[" horiz-adv-x="455" 
d="M396 -90q0 -40 -40 -40h-228q-40 0 -40 40v750q0 40 40 40h228q40 0 40 -40v-15q0 -40 -40 -40h-152v-640h152q40 0 40 -40v-15z" />
    <glyph glyph-name="bracketright" unicode="]" horiz-adv-x="455" 
d="M367 -90q0 -40 -40 -40h-228q-40 0 -40 40v15q0 40 40 40h152v640h-152q-40 0 -40 40v15q0 40 40 40h228q40 0 40 -40v-750z" />
    <glyph glyph-name="parenleft" unicode="(" horiz-adv-x="441" 
d="M329 703q19 0 32 -21l10 -15q8 -11 8 -24q0 -17 -19 -32q-90 -66 -133 -143.5t-43 -180.5t43 -180t133 -144q19 -15 19 -32q0 -13 -8 -24l-10 -15q-13 -21 -32 -21q-10 0 -23 8q-121 74 -182 174t-61 234t61 234t182 174q13 8 23 8z" />
    <glyph glyph-name="parenright" unicode=")" horiz-adv-x="441" 
d="M214 107q43 77 43 180t-43 180.5t-133 143.5q-19 15 -19 32q0 13 8 24l10 15q14 21 32 21q10 0 23 -8q121 -74 182 -174t61 -234t-61 -234t-182 -174q-13 -8 -23 -8q-18 0 -32 21l-10 15q-8 11 -8 24q0 17 19 32q90 67 133 144z" />
    <glyph glyph-name="endash" unicode="&#x2013;" horiz-adv-x="528" 
d="M56 324q0 40 40 40h336q40 0 40 -40v-35q0 -40 -40 -40h-336q-40 0 -40 40v35z" />
    <glyph glyph-name="hyphen" unicode="-" horiz-adv-x="408" 
d="M56 326q0 40 40 40h216q40 0 40 -40v-39q0 -40 -40 -40h-216q-40 0 -40 40v39z" />
    <glyph glyph-name="guillemotleft" unicode="&#xab;" horiz-adv-x="606" 
d="M194 458q14 18 33 18q10 0 22 -6l15 -7q22 -12 22 -30q0 -11 -9 -25l-100 -143l100 -143q9 -13 9 -25q0 -18 -22 -30l-14 -8q-12 -6 -22 -6q-19 0 -33 18l-129 169q-11 16 -11 29t11 27zM501 59q-12 -6 -23 -6q-17 0 -32 18l-128 169q-11 16 -11 29t11 27l128 162
q14 18 32 18q10 0 22 -6l15 -8q23 -11 23 -30q0 -10 -9 -24l-101 -143l101 -143q9 -13 9 -25q0 -18 -22 -30z" />
    <glyph glyph-name="guillemotright" unicode="&#xbb;" horiz-adv-x="606" 
d="M532 296q11 -14 11 -27t-11 -29l-129 -169q-13 -18 -33 -18q-10 0 -22 6l-15 8q-22 12 -22 30q0 12 9 25l101 143l-100 143q-9 14 -9 24q0 18 23 30l14 7q12 6 22 6q20 0 33 -18zM170 265l-101 143q-9 14 -9 24q0 19 23 30l15 7q12 6 22 6q20 0 33 -18l127 -161
q11 -14 11 -27t-11 -29l-128 -169q-15 -18 -32 -18q-11 0 -23 6l-15 8q-22 12 -22 30q0 12 9 25z" />
    <glyph glyph-name="guilsinglleft" unicode="&#x2039;" horiz-adv-x="354" 
d="M250 59q-12 -6 -22 -6q-19 0 -33 18l-129 169q-11 16 -11 29t11 27l128 162q14 18 33 18q10 0 22 -6l15 -7q22 -12 22 -30q0 -11 -9 -25l-100 -143l100 -143q9 -13 9 -25q0 -18 -22 -30z" />
    <glyph glyph-name="guilsinglright" unicode="&#x203a;" horiz-adv-x="354" 
d="M152 71q-15 -18 -32 -18q-11 0 -23 6l-15 8q-22 12 -22 30q0 12 9 25l100 143l-100 143q-9 14 -9 24q0 18 23 30l13 7q12 6 23 6q17 0 32 -18l129 -169q11 -16 11 -29t-11 -27z" />
    <glyph glyph-name="quotedblbase" unicode="&#x201e;" horiz-adv-x="501" 
d="M433 21q0 -78 -34 -116.5t-101 -48.5h-5q-14 0 -18 16l-4 15q-1 2 -1 6q0 14 16 18q71 21 65 89h-11q-40 0 -40 40v58q0 40 40 40h53q40 0 40 -40v-77zM38 -107q0 14 16 18q72 21 66 89h-12q-40 0 -40 40v58q0 40 40 40h53q40 0 40 -40v-77q0 -78 -34 -116.5t-101 -48.5
h-5q-14 0 -18 16l-4 15q-1 2 -1 6z" />
    <glyph glyph-name="quotedblleft" unicode="&#x201c;" horiz-adv-x="501" 
d="M442 648q-71 -20 -65 -88h11q40 0 40 -40v-58q0 -40 -40 -40h-53q-40 0 -40 40v77q0 78 34 116.5t101 47.5h5q14 0 19 -16l3 -15q1 -2 1 -6q0 -14 -16 -18zM63 539q0 78 34 116.5t101 47.5h5q14 0 19 -16l3 -15q1 -2 1 -6q0 -14 -16 -18q-71 -20 -65 -88h11q40 0 40 -40
v-58q0 -40 -40 -40h-53q-40 0 -40 40v77z" />
    <glyph glyph-name="quotedblright" unicode="&#x201d;" horiz-adv-x="501" 
d="M438 583q0 -78 -34 -116.5t-101 -47.5h-5q-14 0 -19 16l-3 14q-1 2 -1 6q0 15 16 19q71 20 65 89h-11q-40 0 -40 40v57q0 40 40 40h53q40 0 40 -40v-77zM43 455q0 15 16 19q72 20 66 89h-12q-40 0 -40 40v57q0 40 40 40h53q40 0 40 -40v-77q0 -78 -34 -116.5t-101 -47.5
h-5q-14 0 -19 16l-3 14q-1 2 -1 6z" />
    <glyph glyph-name="quoteleft" unicode="&#x2018;" horiz-adv-x="269" 
d="M225 672q1 -2 1 -6q0 -14 -16 -18q-71 -20 -65 -88h11q40 0 40 -40v-58q0 -40 -40 -40h-53q-40 0 -40 40v77q0 78 34 116.5t101 47.5h5q14 0 19 -16z" />
    <glyph glyph-name="quoteright" unicode="&#x2019;" horiz-adv-x="269" 
d="M172 467q-34 -39 -101 -48h-5q-14 0 -19 16l-3 14q-1 2 -1 6q0 15 16 19q72 20 66 89h-12q-40 0 -40 40v57q0 40 40 40h53q40 0 40 -40v-77q0 -78 -34 -116z" />
    <glyph glyph-name="quotesinglbase" unicode="&#x201a;" horiz-adv-x="269" 
d="M167 -96q-34 -38 -101 -48h-5q-14 0 -18 16l-4 15q-1 2 -1 6q0 14 16 18q72 21 66 89h-12q-40 0 -40 40v58q0 40 40 40h53q40 0 40 -40v-77q0 -78 -34 -117z" />
    <glyph glyph-name="uni060C" unicode="&#x60c;" horiz-adv-x="250" 
d="M181 255q1 -2 1 -6q0 -14 -16 -18q-72 -21 -66 -89h12q40 0 40 -40v-58q0 -40 -40 -40h-53q-40 0 -40 40v77q0 78 34 116.5t101 48.5h5q14 0 18 -16z" />
    <glyph glyph-name="uni061B" unicode="&#x61b;" horiz-adv-x="254" 
d="M23 468q0 78 34 116.5t101 48.5h5q14 0 18 -16l4 -15q1 -2 1 -6q0 -14 -16 -18q-72 -21 -66 -89h12q40 0 40 -40v-58q0 -40 -40 -40h-53q-40 0 -40 40v77zM23 58q0 40 40 40h53q40 0 40 -40v-57q0 -40 -40 -40h-53q-40 0 -40 40v57z" />
    <glyph glyph-name="uni061F" unicode="&#x61f;" horiz-adv-x="546" 
d="M314 241q-2 -19 -21 -19h-43q-19 0 -21 19l-8 61q-42 7 -78.5 22t-64 39t-43.5 59t-16 82v2q0 47 17 84.5t48 64t74.5 40.5t95.5 14q69 0 121 -22.5t93 -60.5q14 -14 14 -27q0 -15 -14 -29l-21 -23q-14 -14 -27 -14t-29 13q-30 25 -63 38t-71 13q-54 0 -84.5 -26.5
t-30.5 -68.5v-2q0 -44 34.5 -72t108.5 -36q41 -5 38 -43zM341 40q0 -40 -40 -40h-54q-40 0 -40 40v58q0 40 40 40h54q40 0 40 -40v-58z" />
    <glyph glyph-name="uni066D" unicode="&#x66d;" horiz-adv-x="429" 
d="M331 438q-5 0 -12 5l-83 61l12 -101v-2q0 -19 -19 -19h-28q-21 0 -19 21l12 101l-83 -61q-7 -5 -12 -5q-10 0 -16 11l-14 25q-4 5 -4 12q0 9 12 15l95 41l-94 41q-13 7 -13 16q0 3 4 11l14 25q6 11 16 11q5 0 12 -5l83 -61l-12 101v2q0 19 19 19h28q21 0 19 -21l-12 -101
l83 61q7 5 12 5q10 0 16 -11l14 -25q4 -5 4 -12q0 -9 -12 -15l-95 -41l94 -41q13 -6 13 -16q0 -3 -4 -11l-14 -25q-6 -11 -16 -11z" />
    <glyph glyph-name="uniFD3E" unicode="&#xfd3e;" horiz-adv-x="452" 
d="M329 703q19 0 32 -21l10 -15q8 -11 8 -24q0 -17 -19 -32q-90 -66 -133 -143.5t-43 -180.5t43 -180t133 -144q19 -15 19 -32q0 -13 -8 -24l-10 -15q-13 -21 -32 -21q-10 0 -23 8q-121 74 -182 174t-61 234t61 234t182 174q13 8 23 8z" />
    <glyph glyph-name="uniFD3F" unicode="&#xfd3f;" horiz-adv-x="451" 
d="M227 107q43 77 43 180t-43 180.5t-133 143.5q-19 15 -19 32q0 13 8 24l10 15q14 21 32 21q10 0 23 -8q121 -74 182 -174t61 -234t-61 -234t-182 -174q-13 -8 -23 -8q-18 0 -32 21l-10 15q-8 11 -8 24q0 17 19 32q90 67 133 144z" />
    <glyph glyph-name="dollar" unicode="$" horiz-adv-x="642" 
d="M528 644q20 -14 20 -31q0 -10 -8 -24l-15 -26q-12 -20 -31 -20q-10 0 -24 8q-26 15 -51 26t-51 16v-192q114 -28 165.5 -76.5t51.5 -128.5v-2q0 -41 -15.5 -74.5t-43.5 -58.5t-67 -40.5t-87 -20.5v-78q0 -20 -20 -20h-47q-20 0 -20 20v80q-56 6 -107.5 25.5t-96.5 50.5
q-19 12 -19 30q0 12 9 25l19 26q14 19 30 19q13 0 26 -10q34 -25 68.5 -40.5t74.5 -22.5v197q-55 14 -95 32t-66.5 42.5t-39.5 56.5t-13 74v2q0 40 15 73.5t43 58t66.5 40t85.5 19.5v38q0 20 20 20h47q20 0 20 -20v-40q44 -5 82.5 -19t73.5 -35zM467 189q0 33 -20.5 55
t-78.5 39v-182q48 5 73.5 27.5t25.5 58.5v2zM193 515q0 -16 4 -29t15 -24t29.5 -21t47.5 -19v177q-48 -5 -72 -27.5t-24 -55.5v-1z" />
    <glyph glyph-name="plus" unicode="+" horiz-adv-x="634" 
d="M260 558q0 40 40 40h34q40 0 40 -40v-150h152q40 0 40 -40v-31q0 -40 -40 -40h-152v-151q0 -40 -40 -40h-34q-40 0 -40 40v151h-152q-40 0 -40 40v31q0 40 40 40h152v150z" />
    <glyph glyph-name="minus" unicode="&#x2212;" horiz-adv-x="634" 
d="M68 369q0 40 40 40h418q40 0 40 -40v-33q0 -40 -40 -40h-418q-40 0 -40 40v33z" />
    <glyph glyph-name="multiply" unicode="&#xd7;" horiz-adv-x="634" 
d="M541 517q0 -15 -14 -29l-137 -135l137 -135q14 -14 14 -29q0 -14 -13 -27l-21 -21q-13 -13 -28 -13t-28 14l-135 137l-135 -137q-13 -14 -28 -14t-28 13l-19 19q-13 13 -13 27q0 15 14 29l137 135l-137 135q-15 15 -15 29q0 13 14 27l21 21q14 14 28 14q15 0 28 -15
l135 -137l135 137q13 14 28 14t28 -13l19 -19q13 -13 13 -27z" />
    <glyph glyph-name="divide" unicode="&#xf7;" horiz-adv-x="634" 
d="M526 404q40 0 40 -40v-24q0 -40 -40 -40h-418q-40 0 -40 40v24q0 40 40 40h418zM250 168q0 40 40 40h54q40 0 40 -40v-48q0 -40 -40 -40h-54q-40 0 -40 40v48zM250 584q0 40 40 40h54q40 0 40 -40v-47q0 -40 -40 -40h-54q-40 0 -40 40v47z" />
    <glyph glyph-name="equal" unicode="=" horiz-adv-x="634" 
d="M558 461q0 -40 -40 -40h-402q-40 0 -40 40v32q0 40 40 40h402q40 0 40 -40v-32zM558 211q0 -40 -40 -40h-402q-40 0 -40 40v32q0 40 40 40h402q40 0 40 -40v-32z" />
    <glyph glyph-name="greater" unicode="&#x3e;" horiz-adv-x="634" 
d="M120 497q-30 14 -30 47v31q0 17 7.5 26t19.5 9q8 0 20 -5l401 -185q30 -14 30 -47v-42q0 -33 -30 -47l-401 -185q-12 -5 -20 -5q-12 0 -19.5 9t-7.5 26v30q0 33 30 46l327 146z" />
    <glyph glyph-name="less" unicode="&#x3c;" horiz-adv-x="634" 
d="M201 351l327 -146q30 -13 30 -46v-30q0 -17 -7.5 -26t-19.5 -9q-8 0 -20 5l-401 185q-30 14 -30 47v42q0 34 30 47l401 185q12 5 20 5q12 0 19.5 -9t7.5 -26v-31q0 -33 -30 -47z" />
    <glyph glyph-name="plusminus" unicode="&#xb1;" horiz-adv-x="634" 
d="M560 413q0 -40 -40 -40h-149l1 -144q0 -40 -40 -40h-30q-40 0 -40 40l1 144h-148q-40 0 -40 40v27q0 40 40 40l148 -1l-1 145q0 40 40 40h30q40 0 40 -40l-1 -145l149 1q40 0 40 -40v-27zM75 63q0 40 40 40h405q40 0 40 -40v-23q0 -40 -40 -40h-405q-40 0 -40 40v23z" />
    <glyph glyph-name="asciitilde" unicode="~" horiz-adv-x="495" 
d="M65 270q16 51 40 77.5t66 26.5q22 0 43 -6.5t40 -14.5q17 -8 32.5 -13t27.5 -5q17 0 28 7.5t19 24.5q7 13 19 13q4 0 7 -1l30 -9q14 -5 14 -19q0 -5 -3 -13q-16 -48 -39.5 -73.5t-64.5 -25.5q-22 0 -43 7t-40 15q-17 7 -32.5 12.5t-27.5 5.5q-17 0 -28 -7.5t-19 -24.5
q-6 -13 -18 -13q-5 0 -8 1l-30 9q-14 5 -14 18q0 5 1 8z" />
    </font>
</defs>
</svg>
