<?xml version="1.0" standalone="no"?>
<!DOCTYPE svg PUBLIC "-//W3C//DTD SVG 1.1//EN" "http://www.w3.org/Graphics/SVG/1.1/DTD/svg11.dtd" >
<svg xmlns="http://www.w3.org/2000/svg" xmlns:xlink="http://www.w3.org/1999/xlink" version="1.1">
<metadata>
Created by FontForge 20190801 at Wed Aug  1 18:55:45 2007
 By Jimmy Wärting
Copyright (C) 2006, 2007 Hoefler &#38; Frere-Jones. http://www.typography.com
</metadata>
<defs>
<font id="GothamRounded-Light" horiz-adv-x="660" >
  <font-face 
    font-family="Gotham Rounded Light"
    font-weight="300"
    font-stretch="normal"
    units-per-em="1000"
    panose-1="0 0 0 0 0 0 0 0 0 0"
    ascent="800"
    descent="-200"
    x-height="510"
    cap-height="704"
    bbox="-53 -224 1145 1022"
    underline-thickness="50"
    underline-position="-100"
    unicode-range="U+0020-FB04"
  />
<missing-glyph horiz-adv-x="500" 
d="M0 -200v1000h500v-1000h-500zM71 750l179 -390l179 390h-358zM50 -76l172 376l-172 376v-752zM450 676l-172 -376l172 -376v752zM250 240l-179 -390h358z" />
    <glyph glyph-name="f_f" unicode="ff" horiz-adv-x="724" 
d="M123 21v444h-55c-13 0 -23 10 -23 23c0 12 11 22 23 22h55v50c0 58 16 104 45 133c26 26 62 40 107 40c25 0 44 -3 61 -7c11 -2 19 -12 19 -23c0 -14 -13 -24 -28 -21c-16 3 -33 6 -52 6c-70 0 -103 -42 -103 -129v-49h159c13 0 23 -10 23 -23c0 -12 -11 -22 -23 -22
h-159v-444c0 -14 -10 -25 -24 -25s-25 11 -25 25zM485 21v444h-55c-13 0 -23 10 -23 23c0 12 11 22 23 22h55v50c0 58 16 104 45 133c26 26 62 40 107 40c25 0 44 -3 61 -7c11 -2 19 -12 19 -23c0 -14 -13 -24 -28 -21c-16 3 -33 6 -52 6c-70 0 -103 -42 -103 -129v-49h159
c13 0 23 -10 23 -23c0 -12 -11 -22 -23 -22h-159v-444c0 -14 -10 -25 -24 -25s-25 11 -25 25z" />
    <glyph glyph-name="fi" unicode="fi" horiz-adv-x="611" 
d="M123 21v444h-55c-13 0 -23 10 -23 23c0 12 11 22 23 22h55v50c0 58 16 104 45 133c26 26 62 40 107 40c25 0 44 -3 61 -7c11 -2 19 -12 19 -23c0 -14 -13 -24 -28 -21c-16 3 -33 6 -52 6c-70 0 -103 -42 -103 -129v-49h159c13 0 23 -10 23 -23c0 -12 -11 -22 -23 -22
h-159v-444c0 -14 -10 -25 -24 -25s-25 11 -25 25zM456 668v17c0 17 13 30 30 30s31 -13 31 -30v-17c0 -17 -14 -30 -31 -30s-30 13 -30 30zM462 21v468c0 14 10 25 24 25s25 -10 25 -25v-468c0 -15 -10 -25 -24 -25s-25 10 -25 25z" />
    <glyph glyph-name="fl" unicode="fl" horiz-adv-x="611" 
d="M123 21v444h-55c-13 0 -23 10 -23 23c0 12 11 22 23 22h55v50c0 58 16 104 45 133c26 26 62 40 107 40c25 0 44 -3 61 -7c11 -2 19 -12 19 -23c0 -14 -13 -24 -28 -21c-16 3 -33 6 -52 6c-70 0 -103 -42 -103 -129v-49h159c13 0 23 -10 23 -23c0 -12 -11 -22 -23 -22
h-159v-444c0 -14 -10 -25 -24 -25s-25 11 -25 25zM462 21v688c0 14 10 25 24 25s25 -11 25 -25v-688c0 -15 -10 -25 -24 -25s-25 10 -25 25z" />
    <glyph glyph-name="f_f_i" unicode="ffi" horiz-adv-x="973" 
d="M123 21v444h-55c-13 0 -23 10 -23 23c0 12 11 22 23 22h55v50c0 58 16 104 45 133c26 26 62 40 107 40c25 0 44 -3 61 -7c11 -2 19 -12 19 -23c0 -14 -13 -24 -28 -21c-16 3 -33 6 -52 6c-70 0 -103 -42 -103 -129v-49h159c13 0 23 -10 23 -23c0 -12 -11 -22 -23 -22
h-159v-444c0 -14 -10 -25 -24 -25s-25 11 -25 25zM485 21v444h-55c-13 0 -23 10 -23 23c0 12 11 22 23 22h55v50c0 58 16 104 45 133c26 26 62 40 107 40c25 0 44 -3 61 -7c11 -2 19 -12 19 -23c0 -14 -13 -24 -28 -21c-16 3 -33 6 -52 6c-70 0 -103 -42 -103 -129v-49h159
c13 0 23 -10 23 -23c0 -12 -11 -22 -23 -22h-159v-444c0 -14 -10 -25 -24 -25s-25 11 -25 25zM818 668v17c0 17 13 30 30 30s31 -13 31 -30v-17c0 -17 -14 -30 -31 -30s-30 13 -30 30zM824 21v468c0 14 10 25 24 25s25 -10 25 -25v-468c0 -15 -10 -25 -24 -25s-25 10 -25 25
z" />
    <glyph glyph-name="f_f_l" unicode="ffl" horiz-adv-x="973" 
d="M123 21v444h-55c-13 0 -23 10 -23 23c0 12 11 22 23 22h55v50c0 58 16 104 45 133c26 26 62 40 107 40c25 0 44 -3 61 -7c11 -2 19 -12 19 -23c0 -14 -13 -24 -28 -21c-16 3 -33 6 -52 6c-70 0 -103 -42 -103 -129v-49h159c13 0 23 -10 23 -23c0 -12 -11 -22 -23 -22
h-159v-444c0 -14 -10 -25 -24 -25s-25 11 -25 25zM485 21v444h-55c-13 0 -23 10 -23 23c0 12 11 22 23 22h55v50c0 58 16 104 45 133c26 26 62 40 107 40c25 0 44 -3 61 -7c11 -2 19 -12 19 -23c0 -14 -13 -24 -28 -21c-16 3 -33 6 -52 6c-70 0 -103 -42 -103 -129v-49h159
c13 0 23 -10 23 -23c0 -12 -11 -22 -23 -22h-159v-444c0 -14 -10 -25 -24 -25s-25 11 -25 25zM824 21v688c0 14 10 25 24 25s25 -11 25 -25v-688c0 -15 -10 -25 -24 -25s-25 10 -25 25z" />
    <glyph glyph-name=".notdef" horiz-adv-x="500" 
d="M0 -200v1000h500v-1000h-500zM71 750l179 -390l179 390h-358zM50 -76l172 376l-172 376v-752zM450 676l-172 -376l172 -376v752zM250 240l-179 -390h358z" />
    <glyph glyph-name="A" unicode="A" horiz-adv-x="790" 
d="M56 18c0 4 1 10 4 16l299 648c7 15 17 25 35 25h2c18 0 28 -10 35 -25l298 -646c3 -6 4 -11 4 -16c0 -13 -11 -24 -25 -24c-12 0 -21 9 -26 20l-82 180h-413l-82 -181c-5 -12 -13 -19 -25 -19c-13 0 -24 10 -24 22zM209 243h369l-184 405z" />
    <glyph glyph-name="B" unicode="B" horiz-adv-x="722" 
d="M104 26v648c0 14 12 26 26 26h263c79 0 143 -23 182 -62c29 -29 45 -66 45 -110v-2c0 -95 -62 -143 -119 -166c84 -22 158 -70 158 -167v-2c0 -117 -100 -191 -251 -191h-278c-14 0 -26 12 -26 26zM156 377h231c105 0 180 51 180 144v2c0 77 -63 129 -175 129h-236v-275z
M156 48h254c120 0 196 55 196 143v2c0 86 -75 136 -213 136h-237v-281z" />
    <glyph glyph-name="C" unicode="C" horiz-adv-x="738" 
d="M421 -12c-200 0 -348 159 -348 360v2c0 198 148 362 350 362c116 0 189 -40 257 -98c5 -5 10 -12 10 -21c0 -14 -13 -26 -27 -26c-7 0 -14 3 -18 7c-58 53 -125 91 -223 91c-168 0 -295 -137 -295 -313v-2c0 -177 129 -315 296 -315c95 0 162 34 228 97c4 4 10 8 18 8
c13 0 25 -12 25 -25c0 -8 -4 -14 -8 -18c-71 -66 -148 -109 -265 -109z" />
    <glyph glyph-name="D" unicode="D" horiz-adv-x="782" 
d="M104 26v648c0 14 12 26 26 26h207c220 0 372 -151 372 -348v-2c0 -197 -152 -350 -372 -350h-207c-14 0 -26 12 -26 26zM156 48h181c195 0 318 133 318 300v2c0 166 -123 302 -318 302h-181v-604z" />
    <glyph glyph-name="E" unicode="E" horiz-adv-x="670" 
d="M130 0c-14 0 -26 12 -26 26v648c0 14 12 26 26 26h452c13 0 24 -11 24 -24s-11 -24 -24 -24h-426v-275h381c13 0 24 -11 24 -24s-11 -24 -24 -24h-381v-281h431c13 0 24 -11 24 -24s-11 -24 -24 -24h-457z" />
    <glyph glyph-name="F" unicode="F" horiz-adv-x="656" 
d="M104 22v652c0 14 12 26 26 26h447c13 0 24 -11 24 -24s-11 -24 -24 -24h-421v-287h376c13 0 24 -11 24 -24s-11 -24 -24 -24h-376v-295c0 -14 -12 -26 -26 -26s-26 12 -26 26z" />
    <glyph glyph-name="G" unicode="G" horiz-adv-x="784" 
d="M425 -12c-221 0 -352 163 -352 360v2c0 189 137 362 346 362c105 0 174 -29 239 -78c6 -5 10 -12 10 -21c0 -14 -12 -26 -26 -26c-4 0 -10 2 -16 7c-54 42 -113 71 -210 71c-170 0 -289 -144 -289 -313v-2c0 -181 113 -316 300 -316c89 0 172 37 223 80v201h-218
c-13 0 -24 11 -24 24s11 24 24 24h242c14 0 26 -12 26 -26v-229c0 -10 -7 -21 -18 -30c-66 -51 -153 -90 -257 -90z" />
    <glyph glyph-name="H" unicode="H" horiz-adv-x="760" 
d="M104 22v656c0 14 12 26 26 26s26 -12 26 -26v-302h448v302c0 14 12 26 26 26s26 -12 26 -26v-656c0 -14 -12 -26 -26 -26s-26 12 -26 26v306h-448v-306c0 -14 -12 -26 -26 -26s-26 12 -26 26z" />
    <glyph glyph-name="I" unicode="I" horiz-adv-x="274" 
d="M111 22v656c0 14 12 26 26 26s26 -12 26 -26v-656c0 -14 -12 -26 -26 -26s-26 12 -26 26z" />
    <glyph glyph-name="J" unicode="J" horiz-adv-x="549" 
d="M249 -10c-97 0 -161 48 -203 115c-2 3 -4 9 -4 14c0 14 12 26 26 26c11 0 18 -7 21 -12c41 -63 87 -96 163 -96c86 0 152 65 152 187v454c0 14 12 26 26 26s26 -12 26 -26v-450c0 -81 -25 -143 -64 -182c-37 -37 -87 -56 -143 -56z" />
    <glyph glyph-name="K" unicode="K" horiz-adv-x="715" 
d="M104 22v656c0 14 12 26 26 26s26 -12 26 -26v-438l442 456c4 4 10 8 18 8c13 0 26 -13 26 -26c0 -7 -3 -13 -8 -18l-267 -269l285 -349c5 -6 8 -11 8 -19c0 -14 -13 -27 -27 -27c-9 0 -16 5 -20 10l-283 348l-174 -176v-156c0 -14 -12 -26 -26 -26s-26 12 -26 26z" />
    <glyph glyph-name="L" unicode="L" horiz-adv-x="619" 
d="M104 26v652c0 14 12 26 26 26s26 -12 26 -26v-630h391c13 0 24 -11 24 -24s-11 -24 -24 -24h-417c-14 0 -26 12 -26 26z" />
    <glyph glyph-name="M" unicode="M" horiz-adv-x="868" 
d="M104 21v656c0 14 12 26 26 26h5c11 0 19 -6 26 -15l273 -402l273 402c6 9 15 15 26 15h5c14 0 26 -12 26 -26v-655c0 -14 -12 -26 -26 -26s-26 12 -26 26v586l-257 -374c-6 -9 -13 -13 -22 -13s-16 4 -22 13l-257 374v-587c0 -14 -11 -25 -25 -25s-25 11 -25 25z" />
    <glyph glyph-name="N" unicode="N" horiz-adv-x="790" 
d="M104 21v656c0 14 12 26 26 26h8c11 0 19 -6 26 -15l472 -599v590c0 14 11 25 25 25s25 -11 25 -25v-660c0 -12 -9 -22 -21 -22h-4c-10 0 -18 7 -26 17l-481 610v-603c0 -14 -11 -25 -25 -25s-25 11 -25 25z" />
    <glyph glyph-name="O" unicode="O" horiz-adv-x="850" 
d="M424 -12c-212 0 -351 169 -351 360v2c0 191 141 362 353 362s351 -169 351 -360v-2c0 -191 -141 -362 -353 -362zM426 35c173 0 297 140 297 313v2c0 173 -126 315 -299 315s-297 -140 -297 -313v-2c0 -173 126 -315 299 -315z" />
    <glyph glyph-name="P" unicode="P" horiz-adv-x="668" 
d="M104 22v652c0 14 12 26 26 26h228c154 0 260 -79 260 -214v-2c0 -147 -127 -223 -273 -223h-189v-239c0 -14 -12 -26 -26 -26s-26 12 -26 26zM156 309h192c130 0 218 68 218 172v2c0 111 -86 169 -212 169h-198v-343z" />
    <glyph glyph-name="Q" unicode="Q" horiz-adv-x="850" 
d="M424 -12c-212 0 -351 169 -351 360v2c0 191 141 362 353 362s351 -169 351 -360v-2c0 -93 -34 -181 -92 -247l80 -67c8 -7 12 -13 12 -23c0 -15 -12 -27 -27 -27c-9 0 -15 4 -22 10l-79 72c-59 -50 -136 -80 -225 -80zM495 201c-8 7 -12 13 -12 23c0 15 12 27 27 27
c9 0 15 -4 22 -10l115 -105c48 55 76 130 76 212v2c0 173 -126 315 -299 315s-297 -140 -297 -313v-2c0 -173 126 -315 299 -315c72 0 136 24 186 66z" />
    <glyph glyph-name="Q.alt" horiz-adv-x="850" 
d="M777 350c0 -114 -50 -220 -135 -288l127 -119c7 -7 10 -12 10 -21c0 -15 -12 -27 -27 -27c-7 0 -14 3 -19 8l-139 127c-49 -27 -106 -42 -170 -42c-212 0 -351 169 -351 360v2c0 191 141 362 353 362s351 -169 351 -360v-2zM723 348v2c0 173 -126 315 -299 315
s-297 -140 -297 -313v-2c0 -173 126 -315 299 -315s297 140 297 313z" />
    <glyph glyph-name="R" unicode="R" horiz-adv-x="723" 
d="M104 22v652c0 14 12 26 26 26h268c86 0 155 -27 197 -69c33 -33 53 -80 53 -130v-2c0 -117 -87 -184 -205 -200l199 -258c5 -6 8 -12 8 -18c0 -14 -13 -27 -27 -27c-10 0 -17 6 -23 14l-215 280h-229v-268c0 -14 -12 -26 -26 -26s-26 12 -26 26zM156 337h236
c117 0 204 59 204 160v2c0 94 -74 153 -201 153h-239v-315z" />
    <glyph glyph-name="S" unicode="S" horiz-adv-x="640" 
d="M341 -10c-105 0 -187 33 -266 98c-5 4 -10 11 -10 20c0 14 12 26 26 26c7 0 13 -3 17 -6c70 -63 140 -91 236 -91c105 0 177 59 177 139v2c0 74 -39 117 -198 149c-168 34 -236 91 -236 197v2c0 104 95 184 225 184c94 0 159 -24 223 -72c5 -4 11 -11 11 -21
c0 -14 -12 -26 -26 -26c-6 0 -12 2 -17 6c-61 47 -122 66 -193 66c-103 0 -171 -59 -171 -132v-2c0 -74 38 -119 204 -153c162 -33 230 -91 230 -193v-2c0 -113 -97 -191 -232 -191z" />
    <glyph glyph-name="T" unicode="T" horiz-adv-x="648" 
d="M298 22v630h-224c-13 0 -24 11 -24 24s11 24 24 24h500c13 0 24 -11 24 -24s-11 -24 -24 -24h-224v-630c0 -14 -12 -26 -26 -26s-26 12 -26 26z" />
    <glyph glyph-name="U" unicode="U" horiz-adv-x="760" 
d="M380 -11c-168 0 -287 106 -287 302v387c0 14 12 26 26 26s26 -12 26 -26v-382c0 -165 89 -260 237 -260c142 0 233 86 233 255v387c0 14 12 26 26 26s26 -12 26 -26v-381c0 -201 -117 -308 -287 -308z" />
    <glyph glyph-name="V" unicode="V" horiz-adv-x="750" 
d="M374 -7c-16 0 -25 9 -31 23l-285 652c-2 4 -2 6 -2 11c0 12 11 25 26 25c13 0 22 -9 27 -21l267 -627l268 628c5 11 14 20 26 20c14 0 25 -12 25 -24c0 -4 0 -6 -2 -10l-286 -654c-6 -14 -15 -23 -31 -23h-2z" />
    <glyph glyph-name="W" unicode="W" horiz-adv-x="1102" 
d="M297 15l-234 649c-2 5 -3 9 -3 13c0 14 13 27 27 27s24 -12 28 -24l213 -603l199 607c4 11 11 20 25 20h2c13 0 21 -9 25 -20l199 -607l214 606c5 13 13 21 25 21c13 0 26 -13 26 -26c0 -4 -2 -9 -4 -14l-234 -649c-5 -13 -13 -23 -27 -23h-2c-14 0 -23 10 -27 23
l-198 588l-198 -588c-4 -13 -13 -23 -27 -23h-2c-14 0 -22 9 -27 23z" />
    <glyph glyph-name="X" unicode="X" horiz-adv-x="722" 
d="M73 20c0 6 3 12 7 17l250 320l-238 303c-5 7 -9 13 -9 20c0 12 12 24 25 24c10 0 16 -5 22 -13l232 -299l229 296c7 9 14 16 25 16c13 0 23 -11 23 -24c0 -6 -3 -12 -7 -17l-239 -305l247 -318c6 -7 9 -13 9 -20c0 -12 -12 -24 -25 -24c-10 0 -16 5 -22 13l-242 314
l-239 -311c-7 -9 -14 -16 -25 -16c-13 0 -23 11 -23 24z" />
    <glyph glyph-name="Y" unicode="Y" horiz-adv-x="716" 
d="M332 22v255l-273 385c-3 5 -5 11 -5 16c0 14 13 26 27 26c11 0 18 -6 24 -15l254 -365l255 365c6 8 12 15 23 15c13 0 26 -12 26 -25c0 -7 -4 -14 -8 -20l-271 -381v-256c0 -14 -12 -26 -26 -26s-26 12 -26 26z" />
    <glyph glyph-name="Z" unicode="Z" horiz-adv-x="688" 
d="M96 0c-13 0 -25 11 -25 22v1c0 9 3 14 9 22l467 608h-442c-13 0 -24 10 -24 23s11 24 24 24h488c13 0 25 -11 25 -22v-1c0 -9 -3 -14 -9 -22l-467 -608h459c13 0 24 -10 24 -23s-11 -24 -24 -24h-505z" />
    <glyph glyph-name="a" unicode="a" horiz-adv-x="574" 
d="M248 -12c-95 0 -197 54 -197 160v2c0 106 91 166 223 166c71 0 120 -9 169 -22v22c0 103 -63 156 -168 156c-56 0 -103 -14 -145 -34c-4 -2 -8 -3 -11 -3c-12 0 -23 11 -23 23s9 20 14 22c52 23 103 38 168 38c69 0 124 -19 161 -56c34 -34 52 -81 52 -144v-297
c0 -15 -10 -25 -24 -25s-24 10 -24 25v64c-35 -49 -98 -97 -195 -97zM251 34c104 0 193 64 193 157v58c-43 11 -100 23 -173 23c-108 0 -168 -48 -168 -119v-2c0 -74 70 -117 148 -117z" />
    <glyph glyph-name="a.alt" 
d="M518 400v89c0 14 10 25 24 25s25 -11 25 -25v-468c0 -15 -10 -25 -24 -25s-25 10 -25 25v93c-44 -67 -109 -126 -210 -126c-123 0 -248 99 -248 265v2c0 166 125 267 248 267c102 0 168 -58 210 -122zM313 475c-111 0 -200 -81 -200 -218v-2c0 -134 93 -220 200 -220
c106 0 208 89 208 219v2c0 131 -102 219 -208 219z" />
    <glyph glyph-name="b" unicode="b" 
d="M93 21v688c0 15 10 25 24 25s25 -10 25 -25v-313c44 67 109 126 210 126c123 0 248 -99 248 -265v-2c0 -166 -125 -267 -248 -267c-102 0 -168 58 -210 122v-89c0 -14 -10 -25 -24 -25s-25 11 -25 25zM347 35c111 0 200 81 200 218v2c0 134 -93 220 -200 220
c-106 0 -208 -89 -208 -219v-2c0 -131 102 -219 208 -219z" />
    <glyph glyph-name="c" unicode="c" horiz-adv-x="571" 
d="M318 -12c-147 0 -260 122 -260 265v2c0 143 114 267 260 267c88 0 146 -38 192 -81c4 -4 7 -11 7 -18c0 -14 -11 -25 -25 -25c-6 0 -13 2 -17 6c-41 39 -89 72 -158 72c-116 0 -206 -97 -206 -219v-2c0 -123 93 -221 210 -221c66 0 119 32 160 73c4 4 9 8 16 8
c12 0 24 -12 24 -24c0 -5 -2 -11 -6 -15c-51 -52 -110 -88 -197 -88z" />
    <glyph glyph-name="d" unicode="d" 
d="M567 709v-688c0 -15 -10 -25 -24 -25s-25 10 -25 25v93c-44 -67 -109 -126 -210 -126c-123 0 -248 99 -248 265v2c0 166 125 267 248 267c102 0 168 -58 210 -122v309c0 15 10 25 24 25s25 -10 25 -25zM313 475c-111 0 -200 -81 -200 -218v-2c0 -134 93 -220 200 -220
c106 0 208 89 208 219v2c0 131 -102 219 -208 219z" />
    <glyph glyph-name="e" unicode="e" horiz-adv-x="584" 
d="M110 279h371c-7 103 -66 198 -183 198c-101 0 -179 -85 -188 -198zM507 71c-50 -50 -107 -83 -199 -83c-134 0 -250 107 -250 266v2c0 148 104 266 242 266c143 0 234 -118 234 -264c0 -12 -12 -23 -24 -23h-400c9 -127 100 -201 200 -201c73 0 124 30 165 70
c4 4 9 7 16 7c13 0 24 -10 24 -23c0 -5 -2 -11 -8 -17z" />
    <glyph glyph-name="f" unicode="f" horiz-adv-x="362" 
d="M123 21v444h-55c-13 0 -23 10 -23 23c0 12 11 22 23 22h55v50c0 58 16 104 45 133c26 26 62 40 107 40c25 0 44 -3 61 -7c11 -2 19 -12 19 -23c0 -14 -13 -24 -28 -21c-16 3 -33 6 -52 6c-70 0 -103 -42 -103 -129v-49h159c13 0 23 -10 23 -23c0 -12 -11 -22 -23 -22
h-159v-444c0 -14 -10 -25 -24 -25s-25 11 -25 25z" />
    <glyph glyph-name="g" unicode="g" 
d="M317 -162c-81 0 -157 24 -223 70c-7 5 -11 13 -11 22c0 11 12 23 25 23c6 0 10 -2 14 -4c58 -43 125 -65 196 -65c117 0 200 67 200 198v74c-44 -63 -112 -118 -213 -118c-123 0 -245 94 -245 240v2c0 147 122 242 245 242c102 0 171 -54 213 -114v81c0 14 10 25 24 25
s25 -11 25 -25v-410c0 -74 -24 -132 -65 -173c-44 -44 -110 -68 -185 -68zM310 85c106 0 211 78 211 194v2c0 118 -105 194 -211 194c-107 0 -197 -74 -197 -193v-2c0 -115 92 -195 197 -195z" />
    <glyph glyph-name="h" unicode="h" horiz-adv-x="613" 
d="M93 21v688c0 14 10 25 24 25s25 -11 25 -25v-294c34 60 91 107 184 107c129 0 204 -88 204 -210v-291c0 -15 -10 -25 -24 -25s-25 10 -25 25v282c0 105 -59 174 -162 174c-100 0 -177 -76 -177 -182v-274c0 -15 -10 -25 -24 -25s-25 10 -25 25z" />
    <glyph glyph-name="i" unicode="i" horiz-adv-x="249" 
d="M94 668v17c0 17 13 30 30 30s31 -13 31 -30v-17c0 -17 -14 -30 -31 -30s-30 13 -30 30zM100 21v468c0 14 10 25 24 25s25 -10 25 -25v-468c0 -15 -10 -25 -24 -25s-25 10 -25 25z" />
    <glyph glyph-name="j" unicode="j" horiz-adv-x="249" 
d="M94 668v17c0 17 13 30 30 30s31 -13 31 -30v-17c0 -17 -14 -30 -31 -30s-30 13 -30 30zM40 -163c-9 0 -17 0 -24 1c-12 2 -21 10 -21 22s10 22 22 22c8 0 16 -1 22 -1c36 0 61 23 61 71v537c0 14 10 25 24 25s25 -10 25 -25v-534c0 -80 -43 -118 -109 -118z" />
    <glyph glyph-name="k" unicode="k" horiz-adv-x="560" 
d="M93 21v688c0 14 10 25 24 25s25 -11 25 -25v-526l313 324c5 5 10 7 17 7c13 0 23 -10 23 -23c0 -7 -2 -11 -8 -17l-187 -190l200 -247c5 -6 7 -11 7 -18c0 -14 -10 -23 -24 -23c-9 0 -14 3 -21 11l-196 242l-124 -125v-103c0 -15 -10 -25 -24 -25s-25 10 -25 25z" />
    <glyph glyph-name="l" unicode="l" horiz-adv-x="249" 
d="M100 21v688c0 14 10 25 24 25s25 -11 25 -25v-688c0 -15 -10 -25 -24 -25s-25 10 -25 25z" />
    <glyph glyph-name="m" unicode="m" horiz-adv-x="951" 
d="M93 21v468c0 14 10 25 24 25s25 -10 25 -25v-70c33 53 79 103 170 103c89 0 144 -51 172 -110c33 57 88 110 184 110c121 0 196 -85 196 -213v-288c0 -15 -10 -25 -24 -25s-25 10 -25 25v282c0 110 -57 174 -151 174c-86 0 -161 -66 -161 -180v-276
c0 -15 -10 -25 -24 -25s-25 10 -25 25v285c0 106 -58 171 -149 171s-163 -80 -163 -183v-273c0 -15 -10 -25 -24 -25s-25 10 -25 25z" />
    <glyph glyph-name="n" unicode="n" horiz-adv-x="613" 
d="M93 21v468c0 14 10 25 24 25s25 -10 25 -25v-74c34 60 91 107 184 107c129 0 204 -88 204 -210v-291c0 -15 -10 -25 -24 -25s-25 10 -25 25v282c0 105 -59 174 -162 174c-100 0 -177 -76 -177 -182v-274c0 -15 -10 -25 -24 -25s-25 10 -25 25z" />
    <glyph glyph-name="o" unicode="o" horiz-adv-x="640" 
d="M319 -12c-151 0 -261 122 -261 265v2c0 143 111 267 263 267c151 0 261 -122 261 -265v-2c0 -143 -111 -267 -263 -267zM321 34c121 0 208 99 208 219v2c0 123 -92 221 -210 221c-121 0 -208 -99 -208 -219v-2c0 -123 92 -221 210 -221z" />
    <glyph glyph-name="p" unicode="p" 
d="M93 -139v628c0 15 10 25 24 25s25 -10 25 -25v-93c44 67 109 126 210 126c123 0 248 -99 248 -265v-2c0 -166 -125 -267 -248 -267c-102 0 -168 58 -210 122v-249c0 -15 -10 -25 -24 -25s-25 10 -25 25zM347 35c111 0 200 81 200 218v2c0 134 -93 220 -200 220
c-106 0 -208 -89 -208 -219v-2c0 -131 102 -219 208 -219z" />
    <glyph glyph-name="q" unicode="q" 
d="M567 489v-628c0 -15 -10 -25 -24 -25s-25 10 -25 25v253c-44 -67 -109 -126 -210 -126c-123 0 -248 99 -248 265v2c0 166 125 267 248 267c102 0 168 -58 210 -122v89c0 14 10 25 24 25s25 -11 25 -25zM313 475c-111 0 -200 -81 -200 -218v-2c0 -134 93 -220 200 -220
c106 0 208 89 208 219v2c0 131 -102 219 -208 219z" />
    <glyph glyph-name="r" unicode="r" horiz-adv-x="400" 
d="M93 21v468c0 14 10 25 24 25s25 -10 25 -25v-124c44 99 133 153 205 153c15 0 26 -12 26 -27c0 -14 -10 -26 -26 -27c-108 -10 -205 -91 -205 -255v-188c0 -14 -10 -25 -24 -25s-25 10 -25 25z" />
    <glyph glyph-name="s" unicode="s" horiz-adv-x="497" 
d="M258 -10c-69 0 -146 27 -198 66c-4 3 -9 11 -9 19c0 13 11 24 24 24c6 0 12 -2 16 -5c53 -38 109 -58 170 -58c69 0 123 38 123 97v2c0 60 -64 82 -135 102c-83 24 -175 49 -175 140v2c0 82 69 141 168 141c55 0 116 -18 165 -46c6 -4 13 -11 13 -22
c0 -13 -11 -24 -24 -24c-6 0 -11 2 -14 4c-44 26 -93 42 -142 42c-70 0 -116 -38 -116 -89v-2c0 -57 69 -78 142 -99c82 -23 168 -53 168 -143v-2c0 -91 -78 -149 -176 -149z" />
    <glyph glyph-name="t" unicode="t" horiz-adv-x="400" 
d="M263 -9c-79 0 -143 43 -143 140v334h-55c-12 0 -23 11 -23 23s11 22 23 22h55v142c0 14 10 25 24 25s25 -11 25 -25v-142h160c12 0 23 -11 23 -23s-11 -22 -23 -22h-160v-329c0 -73 43 -99 102 -99c35 0 51 10 58 10c11 0 22 -10 22 -22c0 -10 -6 -17 -16 -21
c-20 -7 -43 -13 -72 -13z" />
    <glyph glyph-name="u" unicode="u" horiz-adv-x="613" 
d="M520 489v-468c0 -14 -10 -25 -24 -25s-25 10 -25 25v74c-34 -60 -91 -107 -184 -107c-129 0 -204 88 -204 210v291c0 15 10 25 24 25s25 -10 25 -25v-282c0 -105 59 -174 162 -174c100 0 177 76 177 182v274c0 15 10 25 24 25s25 -10 25 -25z" />
    <glyph glyph-name="v" unicode="v" horiz-adv-x="582" 
d="M320 14c-6 -13 -14 -21 -28 -21h-2c-14 0 -22 8 -28 21l-205 460c-2 5 -4 10 -4 15c0 14 11 25 26 25s21 -9 26 -20l186 -439l189 441c4 10 11 18 24 18c14 0 25 -11 25 -25c0 -5 -1 -8 -3 -13z" />
    <glyph glyph-name="w" unicode="w" horiz-adv-x="861" 
d="M256 -7c-12 0 -22 8 -27 22l-167 459c-2 5 -4 11 -4 16c0 13 12 24 26 24s22 -9 26 -21l148 -431l148 433c4 11 11 19 24 19h2c14 0 21 -8 25 -19l148 -433l149 433c3 10 10 19 24 19s25 -11 25 -23c0 -6 -2 -12 -4 -17l-167 -459c-5 -14 -15 -22 -27 -22h-2
c-13 0 -22 8 -27 23l-145 417l-146 -417c-5 -15 -14 -23 -27 -23h-2z" />
    <glyph glyph-name="x" unicode="x" horiz-adv-x="570" 
d="M67 19c0 6 2 11 6 16l181 225l-172 214c-4 5 -7 10 -7 17c0 13 11 23 24 23c9 0 15 -4 20 -10l167 -210l166 208c6 7 12 12 21 12c12 0 22 -11 22 -23c0 -6 -2 -11 -6 -16l-173 -214l180 -225c4 -5 7 -10 7 -17c0 -13 -11 -23 -24 -23c-9 0 -15 4 -20 10l-175 221
l-174 -219c-6 -7 -12 -12 -21 -12c-12 0 -22 11 -22 23z" />
    <glyph glyph-name="y" unicode="y" horiz-adv-x="588" 
d="M155 -163c-34 0 -60 6 -87 16c-8 3 -14 10 -14 21c0 13 10 23 23 23c5 0 10 -2 16 -4c16 -6 34 -10 65 -10c56 0 90 37 123 113l3 7l-228 471c-2 5 -4 10 -4 15c0 14 11 25 26 25s21 -9 26 -20l204 -440l178 442c4 10 11 18 24 18c14 0 25 -11 25 -25c0 -5 -1 -8 -3 -13
l-207 -494c-45 -107 -97 -145 -170 -145z" />
    <glyph glyph-name="z" unicode="z" horiz-adv-x="554" 
d="M84 0c-12 0 -23 10 -23 20v1c0 8 3 14 9 21l356 424h-336c-12 0 -22 10 -22 22s10 22 22 22h383c12 0 23 -10 23 -20v-1c0 -8 -3 -14 -9 -21l-356 -424h350c12 0 22 -10 22 -22s-10 -22 -22 -22h-397z" />
    <glyph glyph-name="Aacute" unicode="&#xc1;" horiz-adv-x="790" 
d="M56 18c0 4 1 10 4 16l299 648c7 15 17 25 35 25h2c18 0 28 -10 35 -25l298 -646c3 -6 4 -11 4 -16c0 -13 -11 -24 -25 -24c-12 0 -21 9 -26 20l-82 180h-413l-82 -181c-5 -12 -13 -19 -25 -19c-13 0 -24 10 -24 22zM209 243h369l-184 405zM393 772c-7 0 -13 4 -13 9
c0 4 2 8 4 11l62 93c8 12 16 18 28 18c19 0 42 -13 42 -23c0 -6 -5 -12 -11 -18l-80 -77c-12 -11 -19 -13 -32 -13z" />
    <glyph glyph-name="aacute" unicode="&#xe1;" horiz-adv-x="574" 
d="M248 -12c-95 0 -197 54 -197 160v2c0 106 91 166 223 166c71 0 120 -9 169 -22v22c0 103 -63 156 -168 156c-56 0 -103 -14 -145 -34c-4 -2 -8 -3 -11 -3c-12 0 -23 11 -23 23s9 20 14 22c52 23 103 38 168 38c69 0 124 -19 161 -56c34 -34 52 -81 52 -144v-297
c0 -15 -10 -25 -24 -25s-24 10 -24 25v64c-35 -49 -98 -97 -195 -97zM251 34c104 0 193 64 193 157v58c-43 11 -100 23 -173 23c-108 0 -168 -48 -168 -119v-2c0 -74 70 -117 148 -117zM286 592c-7 0 -13 4 -13 9c0 4 2 8 4 11l62 93c8 12 16 18 28 18c19 0 42 -13 42 -23
c0 -6 -5 -12 -11 -18l-80 -77c-12 -11 -19 -13 -32 -13z" />
    <glyph glyph-name="aacute.alt" 
d="M518 400v89c0 14 10 25 24 25s25 -11 25 -25v-468c0 -15 -10 -25 -24 -25s-25 10 -25 25v93c-44 -67 -109 -126 -210 -126c-123 0 -248 99 -248 265v2c0 166 125 267 248 267c102 0 168 -58 210 -122zM313 475c-111 0 -200 -81 -200 -218v-2c0 -134 93 -220 200 -220
c106 0 208 89 208 219v2c0 131 -102 219 -208 219zM331 592c-7 0 -13 4 -13 9c0 4 2 8 4 11l62 93c8 12 16 18 28 18c19 0 42 -13 42 -23c0 -6 -5 -12 -11 -18l-80 -77c-12 -11 -19 -13 -32 -13z" />
    <glyph glyph-name="Abreve" unicode="&#x102;" horiz-adv-x="790" 
d="M56 18c0 4 1 10 4 16l299 648c7 15 17 25 35 25h2c18 0 28 -10 35 -25l298 -646c3 -6 4 -11 4 -16c0 -13 -11 -24 -25 -24c-12 0 -21 9 -26 20l-82 180h-413l-82 -181c-5 -12 -13 -19 -25 -19c-13 0 -24 10 -24 22zM209 243h369l-184 405zM394 773c-53 0 -95 23 -119 68
c-6 11 -11 28 -11 38c0 13 7 22 19 22s17 -6 21 -17c13 -34 40 -60 90 -60s77 26 90 60c4 11 9 17 21 17s19 -9 19 -22c0 -10 -5 -27 -11 -38c-24 -45 -66 -68 -119 -68z" />
    <glyph glyph-name="abreve" unicode="&#x103;" horiz-adv-x="574" 
d="M248 -12c-95 0 -197 54 -197 160v2c0 106 91 166 223 166c71 0 120 -9 169 -22v22c0 103 -63 156 -168 156c-56 0 -103 -14 -145 -34c-4 -2 -8 -3 -11 -3c-12 0 -23 11 -23 23s9 20 14 22c52 23 103 38 168 38c69 0 124 -19 161 -56c34 -34 52 -81 52 -144v-297
c0 -15 -10 -25 -24 -25s-24 10 -24 25v64c-35 -49 -98 -97 -195 -97zM251 34c104 0 193 64 193 157v58c-43 11 -100 23 -173 23c-108 0 -168 -48 -168 -119v-2c0 -74 70 -117 148 -117zM287 593c-53 0 -95 23 -119 68c-6 11 -11 28 -11 38c0 13 7 22 19 22s17 -6 21 -17
c13 -34 40 -60 90 -60s77 26 90 60c4 11 9 17 21 17s19 -9 19 -22c0 -10 -5 -27 -11 -38c-24 -45 -66 -68 -119 -68z" />
    <glyph glyph-name="abreve.alt" 
d="M518 400v89c0 14 10 25 24 25s25 -11 25 -25v-468c0 -15 -10 -25 -24 -25s-25 10 -25 25v93c-44 -67 -109 -126 -210 -126c-123 0 -248 99 -248 265v2c0 166 125 267 248 267c102 0 168 -58 210 -122zM313 475c-111 0 -200 -81 -200 -218v-2c0 -134 93 -220 200 -220
c106 0 208 89 208 219v2c0 131 -102 219 -208 219zM332 593c-53 0 -95 23 -119 68c-6 11 -11 28 -11 38c0 13 7 22 19 22s17 -6 21 -17c13 -34 40 -60 90 -60s77 26 90 60c4 11 9 17 21 17s19 -9 19 -22c0 -10 -5 -27 -11 -38c-24 -45 -66 -68 -119 -68z" />
    <glyph glyph-name="Acircumflex" unicode="&#xc2;" horiz-adv-x="790" 
d="M56 18c0 4 1 10 4 16l299 648c7 15 17 25 35 25h2c18 0 28 -10 35 -25l298 -646c3 -6 4 -11 4 -16c0 -13 -11 -24 -25 -24c-12 0 -21 9 -26 20l-82 180h-413l-82 -181c-5 -12 -13 -19 -25 -19c-13 0 -24 10 -24 22zM209 243h369l-184 405zM393 843l-63 -58
c-12 -11 -19 -13 -32 -13c-8 0 -13 5 -13 10c0 4 1 7 5 12l72 88c9 11 16 18 28 18h8c12 0 19 -7 28 -18l72 -88c4 -5 5 -8 5 -12c0 -5 -5 -10 -14 -10c-13 0 -21 2 -33 13z" />
    <glyph glyph-name="acircumflex" unicode="&#xe2;" horiz-adv-x="574" 
d="M248 -12c-95 0 -197 54 -197 160v2c0 106 91 166 223 166c71 0 120 -9 169 -22v22c0 103 -63 156 -168 156c-56 0 -103 -14 -145 -34c-4 -2 -8 -3 -11 -3c-12 0 -23 11 -23 23s9 20 14 22c52 23 103 38 168 38c69 0 124 -19 161 -56c34 -34 52 -81 52 -144v-297
c0 -15 -10 -25 -24 -25s-24 10 -24 25v64c-35 -49 -98 -97 -195 -97zM251 34c104 0 193 64 193 157v58c-43 11 -100 23 -173 23c-108 0 -168 -48 -168 -119v-2c0 -74 70 -117 148 -117zM286 663l-63 -58c-12 -11 -19 -13 -32 -13c-8 0 -13 5 -13 10c0 4 1 7 5 12l72 88
c9 11 16 18 28 18h8c12 0 19 -7 28 -18l72 -88c4 -5 5 -8 5 -12c0 -5 -5 -10 -14 -10c-13 0 -21 2 -33 13z" />
    <glyph glyph-name="acircumflex.alt" 
d="M518 400v89c0 14 10 25 24 25s25 -11 25 -25v-468c0 -15 -10 -25 -24 -25s-25 10 -25 25v93c-44 -67 -109 -126 -210 -126c-123 0 -248 99 -248 265v2c0 166 125 267 248 267c102 0 168 -58 210 -122zM313 475c-111 0 -200 -81 -200 -218v-2c0 -134 93 -220 200 -220
c106 0 208 89 208 219v2c0 131 -102 219 -208 219zM331 663l-63 -58c-12 -11 -19 -13 -32 -13c-8 0 -13 5 -13 10c0 4 1 7 5 12l72 88c9 11 16 18 28 18h8c12 0 19 -7 28 -18l72 -88c4 -5 5 -8 5 -12c0 -5 -5 -10 -14 -10c-13 0 -21 2 -33 13z" />
    <glyph glyph-name="Adieresis" unicode="&#xc4;" horiz-adv-x="790" 
d="M56 18c0 4 1 10 4 16l299 648c7 15 17 25 35 25h2c18 0 28 -10 35 -25l298 -646c3 -6 4 -11 4 -16c0 -13 -11 -24 -25 -24c-12 0 -21 9 -26 20l-82 180h-413l-82 -181c-5 -12 -13 -19 -25 -19c-13 0 -24 10 -24 22zM209 243h369l-184 405zM476 859c20 0 35 -14 35 -34
v-20c0 -20 -15 -34 -35 -34s-35 14 -35 34v20c0 20 15 34 35 34zM312 859c20 0 35 -14 35 -34v-20c0 -20 -15 -34 -35 -34s-35 14 -35 34v20c0 20 15 34 35 34z" />
    <glyph glyph-name="adieresis" unicode="&#xe4;" horiz-adv-x="574" 
d="M248 -12c-95 0 -197 54 -197 160v2c0 106 91 166 223 166c71 0 120 -9 169 -22v22c0 103 -63 156 -168 156c-56 0 -103 -14 -145 -34c-4 -2 -8 -3 -11 -3c-12 0 -23 11 -23 23s9 20 14 22c52 23 103 38 168 38c69 0 124 -19 161 -56c34 -34 52 -81 52 -144v-297
c0 -15 -10 -25 -24 -25s-24 10 -24 25v64c-35 -49 -98 -97 -195 -97zM251 34c104 0 193 64 193 157v58c-43 11 -100 23 -173 23c-108 0 -168 -48 -168 -119v-2c0 -74 70 -117 148 -117zM369 679c20 0 35 -14 35 -34v-20c0 -20 -15 -34 -35 -34s-35 14 -35 34v20
c0 20 15 34 35 34zM205 679c20 0 35 -14 35 -34v-20c0 -20 -15 -34 -35 -34s-35 14 -35 34v20c0 20 15 34 35 34z" />
    <glyph glyph-name="adieresis.alt" 
d="M518 400v89c0 14 10 25 24 25s25 -11 25 -25v-468c0 -15 -10 -25 -24 -25s-25 10 -25 25v93c-44 -67 -109 -126 -210 -126c-123 0 -248 99 -248 265v2c0 166 125 267 248 267c102 0 168 -58 210 -122zM313 475c-111 0 -200 -81 -200 -218v-2c0 -134 93 -220 200 -220
c106 0 208 89 208 219v2c0 131 -102 219 -208 219zM414 679c20 0 35 -14 35 -34v-20c0 -20 -15 -34 -35 -34s-35 14 -35 34v20c0 20 15 34 35 34zM250 679c20 0 35 -14 35 -34v-20c0 -20 -15 -34 -35 -34s-35 14 -35 34v20c0 20 15 34 35 34z" />
    <glyph glyph-name="AE" unicode="&#xc6;" horiz-adv-x="1045" 
d="M35 19c0 4 2 9 5 14l394 651c6 10 13 16 26 16h497c13 0 24 -11 24 -24s-11 -24 -24 -24h-411v-275h366c13 0 24 -11 24 -24s-11 -24 -24 -24h-366v-281h416c13 0 24 -11 24 -24s-11 -24 -24 -24h-442c-14 0 -26 12 -26 26v170h-300l-113 -188c-5 -8 -13 -13 -22 -13
c-13 0 -24 11 -24 24zM222 243h272v410h-26z" />
    <glyph glyph-name="ae" unicode="&#xe6;" horiz-adv-x="954" 
d="M480 279h371c-7 103 -66 198 -183 198c-101 0 -179 -85 -188 -198zM246 34c87 0 155 46 204 107c-13 33 -21 69 -22 109c-43 10 -97 22 -162 22c-105 0 -163 -48 -163 -119v-2c0 -74 65 -117 143 -117zM877 71c-50 -50 -107 -83 -199 -83c-84 0 -161 42 -206 112
c-53 -61 -128 -112 -229 -112c-94 0 -192 54 -192 160v2c0 106 90 166 218 166c66 0 111 -9 160 -22v22c0 103 -59 156 -161 156c-51 0 -94 -13 -138 -34c-4 -2 -8 -3 -11 -3c-12 0 -23 11 -23 23s9 20 14 22c52 24 101 38 161 38c101 0 170 -43 193 -128
c40 79 116 132 206 132c143 0 234 -118 234 -264c0 -12 -12 -23 -24 -23h-400c9 -127 100 -201 200 -201c73 0 124 30 165 70c4 4 9 7 16 7c13 0 24 -10 24 -23c0 -5 -2 -11 -8 -17z" />
    <glyph glyph-name="AEacute" unicode="&#x1fc;" horiz-adv-x="1045" 
d="M35 19c0 4 2 9 5 14l394 651c6 10 13 16 26 16h497c13 0 24 -11 24 -24s-11 -24 -24 -24h-411v-275h366c13 0 24 -11 24 -24s-11 -24 -24 -24h-366v-281h416c13 0 24 -11 24 -24s-11 -24 -24 -24h-442c-14 0 -26 12 -26 26v170h-300l-113 -188c-5 -8 -13 -13 -22 -13
c-13 0 -24 11 -24 24zM222 243h272v410h-26zM509 762c-7 0 -13 4 -13 9c0 4 2 8 4 11l62 93c8 12 16 18 28 18c19 0 42 -13 42 -23c0 -6 -5 -12 -11 -18l-80 -77c-12 -11 -19 -13 -32 -13z" />
    <glyph glyph-name="aeacute" unicode="&#x1fd;" horiz-adv-x="954" 
d="M480 279h371c-7 103 -66 198 -183 198c-101 0 -179 -85 -188 -198zM246 34c87 0 155 46 204 107c-13 33 -21 69 -22 109c-43 10 -97 22 -162 22c-105 0 -163 -48 -163 -119v-2c0 -74 65 -117 143 -117zM877 71c-50 -50 -107 -83 -199 -83c-84 0 -161 42 -206 112
c-53 -61 -128 -112 -229 -112c-94 0 -192 54 -192 160v2c0 106 90 166 218 166c66 0 111 -9 160 -22v22c0 103 -59 156 -161 156c-51 0 -94 -13 -138 -34c-4 -2 -8 -3 -11 -3c-12 0 -23 11 -23 23s9 20 14 22c52 24 101 38 161 38c101 0 170 -43 193 -128
c40 79 116 132 206 132c143 0 234 -118 234 -264c0 -12 -12 -23 -24 -23h-400c9 -127 100 -201 200 -201c73 0 124 30 165 70c4 4 9 7 16 7c13 0 24 -10 24 -23c0 -5 -2 -11 -8 -17zM476 592c-7 0 -13 4 -13 9c0 4 2 8 4 11l62 93c8 12 16 18 28 18c19 0 42 -13 42 -23
c0 -6 -5 -12 -11 -18l-80 -77c-12 -11 -19 -13 -32 -13z" />
    <glyph glyph-name="Agrave" unicode="&#xc0;" horiz-adv-x="790" 
d="M56 18c0 4 1 10 4 16l299 648c7 15 17 25 35 25h2c18 0 28 -10 35 -25l298 -646c3 -6 4 -11 4 -16c0 -13 -11 -24 -25 -24c-12 0 -21 9 -26 20l-82 180h-413l-82 -181c-5 -12 -13 -19 -25 -19c-13 0 -24 10 -24 22zM209 243h369l-184 405zM395 772c-13 0 -20 2 -32 13
l-80 77c-6 6 -11 12 -11 18c0 10 23 23 42 23c12 0 20 -6 28 -18l62 -93c2 -3 4 -7 4 -11c0 -5 -6 -9 -13 -9z" />
    <glyph glyph-name="agrave" unicode="&#xe0;" horiz-adv-x="574" 
d="M248 -12c-95 0 -197 54 -197 160v2c0 106 91 166 223 166c71 0 120 -9 169 -22v22c0 103 -63 156 -168 156c-56 0 -103 -14 -145 -34c-4 -2 -8 -3 -11 -3c-12 0 -23 11 -23 23s9 20 14 22c52 23 103 38 168 38c69 0 124 -19 161 -56c34 -34 52 -81 52 -144v-297
c0 -15 -10 -25 -24 -25s-24 10 -24 25v64c-35 -49 -98 -97 -195 -97zM251 34c104 0 193 64 193 157v58c-43 11 -100 23 -173 23c-108 0 -168 -48 -168 -119v-2c0 -74 70 -117 148 -117zM288 592c-13 0 -20 2 -32 13l-80 77c-6 6 -11 12 -11 18c0 10 23 23 42 23
c12 0 20 -6 28 -18l62 -93c2 -3 4 -7 4 -11c0 -5 -6 -9 -13 -9z" />
    <glyph glyph-name="agrave.alt" 
d="M518 400v89c0 14 10 25 24 25s25 -11 25 -25v-468c0 -15 -10 -25 -24 -25s-25 10 -25 25v93c-44 -67 -109 -126 -210 -126c-123 0 -248 99 -248 265v2c0 166 125 267 248 267c102 0 168 -58 210 -122zM313 475c-111 0 -200 -81 -200 -218v-2c0 -134 93 -220 200 -220
c106 0 208 89 208 219v2c0 131 -102 219 -208 219zM333 592c-13 0 -20 2 -32 13l-80 77c-6 6 -11 12 -11 18c0 10 23 23 42 23c12 0 20 -6 28 -18l62 -93c2 -3 4 -7 4 -11c0 -5 -6 -9 -13 -9z" />
    <glyph glyph-name="Amacron" unicode="&#x100;" horiz-adv-x="790" 
d="M56 18c0 4 1 10 4 16l299 648c7 15 17 25 35 25h2c18 0 28 -10 35 -25l298 -646c3 -6 4 -11 4 -16c0 -13 -11 -24 -25 -24c-12 0 -21 9 -26 20l-82 180h-413l-82 -181c-5 -12 -13 -19 -25 -19c-13 0 -24 10 -24 22zM209 243h369l-184 405zM526 801h-264
c-13 0 -24 11 -24 24s11 24 24 24h264c13 0 24 -11 24 -24s-11 -24 -24 -24z" />
    <glyph glyph-name="amacron" unicode="&#x101;" horiz-adv-x="574" 
d="M248 -12c-95 0 -197 54 -197 160v2c0 106 91 166 223 166c71 0 120 -9 169 -22v22c0 103 -63 156 -168 156c-56 0 -103 -14 -145 -34c-4 -2 -8 -3 -11 -3c-12 0 -23 11 -23 23s9 20 14 22c52 23 103 38 168 38c69 0 124 -19 161 -56c34 -34 52 -81 52 -144v-297
c0 -15 -10 -25 -24 -25s-24 10 -24 25v64c-35 -49 -98 -97 -195 -97zM251 34c104 0 193 64 193 157v58c-43 11 -100 23 -173 23c-108 0 -168 -48 -168 -119v-2c0 -74 70 -117 148 -117zM419 621h-264c-13 0 -24 11 -24 24s11 24 24 24h264c13 0 24 -11 24 -24
s-11 -24 -24 -24z" />
    <glyph glyph-name="amacron.alt" 
d="M518 400v89c0 14 10 25 24 25s25 -11 25 -25v-468c0 -15 -10 -25 -24 -25s-25 10 -25 25v93c-44 -67 -109 -126 -210 -126c-123 0 -248 99 -248 265v2c0 166 125 267 248 267c102 0 168 -58 210 -122zM313 475c-111 0 -200 -81 -200 -218v-2c0 -134 93 -220 200 -220
c106 0 208 89 208 219v2c0 131 -102 219 -208 219zM464 621h-264c-13 0 -24 11 -24 24s11 24 24 24h264c13 0 24 -11 24 -24s-11 -24 -24 -24z" />
    <glyph glyph-name="Aogonek" unicode="&#x104;" horiz-adv-x="790" 
d="M56 18c0 4 1 10 4 16l299 648c7 15 17 25 35 25h2c18 0 28 -10 35 -25l301 -652c3 -6 4 -11 4 -16c0 -7 -2 -13 -12 -21c-34 -28 -48 -47 -48 -72c0 -28 21 -40 53 -46c21 -4 27 -10 27 -20c0 -11 -8 -18 -20 -18c-19 0 -110 8 -110 78c0 35 21 61 60 92l-86 189h-413
l-82 -181c-5 -12 -13 -19 -25 -19c-13 0 -24 10 -24 22zM209 243h369l-184 405z" />
    <glyph glyph-name="aogonek" unicode="&#x105;" horiz-adv-x="574" 
d="M381 -85c0 35 22 63 62 94v76c-35 -49 -98 -97 -195 -97c-95 0 -197 54 -197 160v2c0 106 91 166 223 166c71 0 120 -9 169 -22v22c0 103 -63 156 -168 156c-56 0 -103 -14 -145 -34c-4 -2 -8 -3 -11 -3c-12 0 -23 11 -23 23s9 20 14 22c52 23 103 38 168 38
c69 0 124 -19 161 -56c34 -34 52 -81 52 -144v-301c0 -11 -3 -17 -14 -26c-31 -26 -46 -44 -46 -70c0 -28 21 -40 53 -46c21 -4 27 -10 27 -20c0 -11 -8 -18 -20 -18c-19 0 -110 8 -110 78zM251 34c104 0 193 64 193 157v58c-43 11 -100 23 -173 23
c-108 0 -168 -48 -168 -119v-2c0 -74 70 -117 148 -117z" />
    <glyph glyph-name="aogonek.alt" 
d="M518 400v89c0 14 10 25 24 25s25 -11 25 -25v-472c0 -11 -3 -17 -14 -26c-31 -26 -46 -44 -46 -70c0 -28 21 -40 53 -46c21 -4 27 -10 27 -20c0 -11 -8 -18 -20 -18c-19 0 -110 8 -110 78c0 35 21 62 61 93v106c-44 -67 -109 -126 -210 -126c-123 0 -248 99 -248 265v2
c0 166 125 267 248 267c102 0 168 -58 210 -122zM313 475c-111 0 -200 -81 -200 -218v-2c0 -134 93 -220 200 -220c106 0 208 89 208 219v2c0 131 -102 219 -208 219z" />
    <glyph glyph-name="Aring" unicode="&#xc5;" horiz-adv-x="790" 
d="M433 678l298 -646c2 -4 2 -6 2 -11c0 -12 -11 -25 -26 -25c-12 0 -20 9 -25 20l-82 180h-413l-82 -181c-4 -10 -12 -19 -24 -19c-14 0 -25 12 -25 24c0 4 1 7 2 10l299 648c-34 14 -60 47 -60 85v2c0 51 46 93 98 93s98 -42 98 -93v-2c0 -38 -25 -71 -60 -85zM395 702
c33 0 62 28 62 61v2c0 33 -28 61 -62 61s-62 -28 -62 -61v-2c0 -33 29 -61 62 -61zM209 243h369l-184 405z" />
    <glyph glyph-name="aring" unicode="&#xe5;" horiz-adv-x="574" 
d="M248 -12c-95 0 -197 54 -197 160v2c0 106 91 166 223 166c71 0 120 -9 169 -22v22c0 103 -63 156 -168 156c-56 0 -103 -14 -145 -34c-4 -2 -8 -3 -11 -3c-12 0 -23 11 -23 23s9 20 14 22c52 23 103 38 168 38c69 0 124 -19 161 -56c34 -34 52 -81 52 -144v-297
c0 -15 -10 -25 -24 -25s-24 10 -24 25v64c-35 -49 -98 -97 -195 -97zM251 34c104 0 193 64 193 157v58c-43 11 -100 23 -173 23c-108 0 -168 -48 -168 -119v-2c0 -74 70 -117 148 -117zM287 593c-52 0 -98 42 -98 93v2c0 51 46 93 98 93s98 -42 98 -93v-2
c0 -51 -46 -93 -98 -93zM287 625c33 0 62 28 62 61v2c0 33 -28 61 -62 61s-62 -28 -62 -61v-2c0 -33 29 -61 62 -61z" />
    <glyph glyph-name="aring.alt" 
d="M518 400v89c0 14 10 25 24 25s25 -11 25 -25v-468c0 -15 -10 -25 -24 -25s-25 10 -25 25v93c-44 -67 -109 -126 -210 -126c-123 0 -248 99 -248 265v2c0 166 125 267 248 267c102 0 168 -58 210 -122zM313 475c-111 0 -200 -81 -200 -218v-2c0 -134 93 -220 200 -220
c106 0 208 89 208 219v2c0 131 -102 219 -208 219zM332 593c-52 0 -98 42 -98 93v2c0 51 46 93 98 93s98 -42 98 -93v-2c0 -51 -46 -93 -98 -93zM332 625c33 0 62 28 62 61v2c0 33 -28 61 -62 61s-62 -28 -62 -61v-2c0 -33 29 -61 62 -61z" />
    <glyph glyph-name="aring.alt2" horiz-adv-x="574" 
d="M248 -12c-95 0 -197 54 -197 160v2c0 106 91 166 223 166c71 0 120 -9 169 -22v22c0 103 -63 156 -168 156c-56 0 -103 -14 -145 -34c-4 -2 -8 -3 -11 -3c-12 0 -23 11 -23 23s9 20 14 22c35 16 71 28 110 34c-19 16 -31 39 -31 66v2c0 51 46 93 98 93s98 -42 98 -93v-2
c0 -29 -15 -54 -37 -70c37 -9 67 -25 91 -48c34 -34 52 -81 52 -144v-297c0 -15 -10 -25 -24 -25s-24 10 -24 25v64c-35 -49 -98 -97 -195 -97zM251 34c104 0 193 64 193 157v58c-43 11 -100 23 -173 23c-108 0 -168 -48 -168 -119v-2c0 -74 70 -117 148 -117zM287 519
c33 0 62 28 62 61v2c0 33 -28 61 -62 61s-62 -28 -62 -61v-2c0 -33 29 -61 62 -61z" />
    <glyph glyph-name="Aringacute" unicode="&#x1fa;" horiz-adv-x="790" 
d="M433 678l298 -646c2 -4 2 -6 2 -11c0 -12 -11 -25 -26 -25c-12 0 -20 9 -25 20l-82 180h-413l-82 -181c-4 -10 -12 -19 -24 -19c-14 0 -25 12 -25 24c0 4 1 7 2 10l299 648c-34 14 -60 47 -60 85v2c0 51 46 93 98 93s98 -42 98 -93v-2c0 -38 -25 -71 -60 -85zM395 702
c33 0 62 28 62 61v2c0 33 -28 61 -62 61s-62 -28 -62 -61v-2c0 -33 29 -61 62 -61zM209 243h369l-184 405zM395 891c-7 0 -13 4 -13 9c0 4 2 8 4 11l62 93c8 12 16 18 28 18c19 0 42 -13 42 -23c0 -6 -5 -12 -11 -18l-80 -77c-12 -11 -19 -13 -32 -13z" />
    <glyph glyph-name="aringacute" unicode="&#x1fb;" horiz-adv-x="574" 
d="M248 -12c-95 0 -197 54 -197 160v2c0 106 91 166 223 166c71 0 120 -9 169 -22v22c0 103 -63 156 -168 156c-56 0 -103 -14 -145 -34c-4 -2 -8 -3 -11 -3c-12 0 -23 11 -23 23s9 20 14 22c52 23 103 38 168 38c69 0 124 -19 161 -56c34 -34 52 -81 52 -144v-297
c0 -15 -10 -25 -24 -25s-24 10 -24 25v64c-35 -49 -98 -97 -195 -97zM251 34c104 0 193 64 193 157v58c-43 11 -100 23 -173 23c-108 0 -168 -48 -168 -119v-2c0 -74 70 -117 148 -117zM287 593c-52 0 -98 42 -98 93v2c0 51 46 93 98 93s98 -42 98 -93v-2
c0 -51 -46 -93 -98 -93zM287 625c33 0 62 28 62 61v2c0 33 -28 61 -62 61s-62 -28 -62 -61v-2c0 -33 29 -61 62 -61zM286 817c-7 0 -13 4 -13 9c0 4 2 8 4 11l62 93c8 12 16 18 28 18c19 0 42 -13 42 -23c0 -6 -5 -12 -11 -18l-80 -77c-12 -11 -19 -13 -32 -13z" />
    <glyph glyph-name="aringacute.alt" 
d="M518 400v89c0 14 10 25 24 25s25 -11 25 -25v-468c0 -15 -10 -25 -24 -25s-25 10 -25 25v93c-44 -67 -109 -126 -210 -126c-123 0 -248 99 -248 265v2c0 166 125 267 248 267c102 0 168 -58 210 -122zM313 475c-111 0 -200 -81 -200 -218v-2c0 -134 93 -220 200 -220
c106 0 208 89 208 219v2c0 131 -102 219 -208 219zM332 593c-52 0 -98 42 -98 93v2c0 51 46 93 98 93s98 -42 98 -93v-2c0 -51 -46 -93 -98 -93zM332 625c33 0 62 28 62 61v2c0 33 -28 61 -62 61s-62 -28 -62 -61v-2c0 -33 29 -61 62 -61zM331 817c-7 0 -13 4 -13 9
c0 4 2 8 4 11l62 93c8 12 16 18 28 18c19 0 42 -13 42 -23c0 -6 -5 -12 -11 -18l-80 -77c-12 -11 -19 -13 -32 -13z" />
    <glyph glyph-name="aringacute.alt2" horiz-adv-x="574" 
d="M248 -12c-95 0 -197 54 -197 160v2c0 106 91 166 223 166c71 0 120 -9 169 -22v22c0 103 -63 156 -168 156c-56 0 -103 -14 -145 -34c-4 -2 -8 -3 -11 -3c-12 0 -23 11 -23 23s9 20 14 22c35 16 71 28 110 34c-19 16 -31 39 -31 66v2c0 51 46 93 98 93s98 -42 98 -93v-2
c0 -29 -15 -54 -37 -70c37 -9 67 -25 91 -48c34 -34 52 -81 52 -144v-297c0 -15 -10 -25 -24 -25s-24 10 -24 25v64c-35 -49 -98 -97 -195 -97zM251 34c104 0 193 64 193 157v58c-43 11 -100 23 -173 23c-108 0 -168 -48 -168 -119v-2c0 -74 70 -117 148 -117zM287 519
c33 0 62 28 62 61v2c0 33 -28 61 -62 61s-62 -28 -62 -61v-2c0 -33 29 -61 62 -61zM286 711c-7 0 -13 4 -13 9c0 4 2 8 4 11l62 93c8 12 16 18 28 18c19 0 42 -13 42 -23c0 -6 -5 -12 -11 -18l-80 -77c-12 -11 -19 -13 -32 -13z" />
    <glyph glyph-name="Atilde" unicode="&#xc3;" horiz-adv-x="790" 
d="M56 18c0 4 1 10 4 16l299 648c7 15 17 25 35 25h2c18 0 28 -10 35 -25l298 -646c3 -6 4 -11 4 -16c0 -13 -11 -24 -25 -24c-12 0 -21 9 -26 20l-82 180h-413l-82 -181c-5 -12 -13 -19 -25 -19c-13 0 -24 10 -24 22zM209 243h369l-184 405zM288 778c-3 -6 -8 -14 -18 -14
s-18 7 -18 17c0 3 1 9 2 12c19 58 43 75 79 75c38 0 94 -41 128 -41c22 0 33 11 45 38c3 6 9 14 18 14c10 0 18 -7 18 -17c0 -3 -1 -9 -2 -12c-19 -58 -43 -75 -79 -75c-38 0 -94 41 -128 41c-22 0 -33 -11 -45 -38z" />
    <glyph glyph-name="atilde" unicode="&#xe3;" horiz-adv-x="574" 
d="M248 -12c-95 0 -197 54 -197 160v2c0 106 91 166 223 166c71 0 120 -9 169 -22v22c0 103 -63 156 -168 156c-56 0 -103 -14 -145 -34c-4 -2 -8 -3 -11 -3c-12 0 -23 11 -23 23s9 20 14 22c52 23 103 38 168 38c69 0 124 -19 161 -56c34 -34 52 -81 52 -144v-297
c0 -15 -10 -25 -24 -25s-24 10 -24 25v64c-35 -49 -98 -97 -195 -97zM251 34c104 0 193 64 193 157v58c-43 11 -100 23 -173 23c-108 0 -168 -48 -168 -119v-2c0 -74 70 -117 148 -117zM181 598c-3 -6 -8 -14 -18 -14s-18 7 -18 17c0 3 1 9 2 12c19 58 43 75 79 75
c38 0 94 -41 128 -41c22 0 33 11 45 38c3 6 9 14 18 14c10 0 18 -7 18 -17c0 -3 -1 -9 -2 -12c-19 -58 -43 -75 -79 -75c-38 0 -94 41 -128 41c-22 0 -33 -11 -45 -38z" />
    <glyph glyph-name="atilde.alt" 
d="M518 400v89c0 14 10 25 24 25s25 -11 25 -25v-468c0 -15 -10 -25 -24 -25s-25 10 -25 25v93c-44 -67 -109 -126 -210 -126c-123 0 -248 99 -248 265v2c0 166 125 267 248 267c102 0 168 -58 210 -122zM313 475c-111 0 -200 -81 -200 -218v-2c0 -134 93 -220 200 -220
c106 0 208 89 208 219v2c0 131 -102 219 -208 219zM226 598c-3 -6 -8 -14 -18 -14s-18 7 -18 17c0 3 1 9 2 12c19 58 43 75 79 75c38 0 94 -41 128 -41c22 0 33 11 45 38c3 6 9 14 18 14c10 0 18 -7 18 -17c0 -3 -1 -9 -2 -12c-19 -58 -43 -75 -79 -75c-38 0 -94 41 -128 41
c-22 0 -33 -11 -45 -38z" />
    <glyph glyph-name="Cacute" unicode="&#x106;" horiz-adv-x="738" 
d="M421 -12c-200 0 -348 159 -348 360v2c0 198 148 362 350 362c116 0 189 -40 257 -98c5 -5 10 -12 10 -21c0 -14 -13 -26 -27 -26c-7 0 -14 3 -18 7c-58 53 -125 91 -223 91c-168 0 -295 -137 -295 -313v-2c0 -177 129 -315 296 -315c95 0 162 34 228 97c4 4 10 8 18 8
c13 0 25 -12 25 -25c0 -8 -4 -14 -8 -18c-71 -66 -148 -109 -265 -109zM417 772c-7 0 -13 4 -13 9c0 4 2 8 4 11l62 93c8 12 16 18 28 18c19 0 42 -13 42 -23c0 -6 -5 -12 -11 -18l-80 -77c-12 -11 -19 -13 -32 -13z" />
    <glyph glyph-name="cacute" unicode="&#x107;" horiz-adv-x="571" 
d="M318 -12c-147 0 -260 122 -260 265v2c0 143 114 267 260 267c88 0 146 -38 192 -81c4 -4 7 -11 7 -18c0 -14 -11 -25 -25 -25c-6 0 -13 2 -17 6c-41 39 -89 72 -158 72c-116 0 -206 -97 -206 -219v-2c0 -123 93 -221 210 -221c66 0 119 32 160 73c4 4 9 8 16 8
c12 0 24 -12 24 -24c0 -5 -2 -11 -6 -15c-51 -52 -110 -88 -197 -88zM312 592c-7 0 -13 4 -13 9c0 4 2 8 4 11l62 93c8 12 16 18 28 18c19 0 42 -13 42 -23c0 -6 -5 -12 -11 -18l-80 -77c-12 -11 -19 -13 -32 -13z" />
    <glyph glyph-name="Ccaron" unicode="&#x10c;" horiz-adv-x="738" 
d="M421 -12c-200 0 -348 159 -348 360v2c0 198 148 362 350 362c116 0 189 -40 257 -98c5 -5 10 -12 10 -21c0 -14 -13 -26 -27 -26c-7 0 -14 3 -18 7c-58 53 -125 91 -223 91c-168 0 -295 -137 -295 -313v-2c0 -177 129 -315 296 -315c95 0 162 34 228 97c4 4 10 8 18 8
c13 0 25 -12 25 -25c0 -8 -4 -14 -8 -18c-71 -66 -148 -109 -265 -109zM419 829l63 58c12 11 19 13 32 13c8 0 13 -5 13 -10c0 -4 -1 -7 -5 -12l-72 -88c-9 -11 -16 -18 -28 -18h-8c-12 0 -19 7 -28 18l-72 88c-4 5 -5 8 -5 12c0 5 5 10 14 10c13 0 21 -2 33 -13z" />
    <glyph glyph-name="ccaron" unicode="&#x10d;" horiz-adv-x="571" 
d="M318 -12c-147 0 -260 122 -260 265v2c0 143 114 267 260 267c88 0 146 -38 192 -81c4 -4 7 -11 7 -18c0 -14 -11 -25 -25 -25c-6 0 -13 2 -17 6c-41 39 -89 72 -158 72c-116 0 -206 -97 -206 -219v-2c0 -123 93 -221 210 -221c66 0 119 32 160 73c4 4 9 8 16 8
c12 0 24 -12 24 -24c0 -5 -2 -11 -6 -15c-51 -52 -110 -88 -197 -88zM314 649l63 58c12 11 19 13 32 13c8 0 13 -5 13 -10c0 -4 -1 -7 -5 -12l-72 -88c-9 -11 -16 -18 -28 -18h-8c-12 0 -19 7 -28 18l-72 88c-4 5 -5 8 -5 12c0 5 5 10 14 10c13 0 21 -2 33 -13z" />
    <glyph glyph-name="Ccedilla" unicode="&#xc7;" horiz-adv-x="738" 
d="M686 97c-69 -64 -143 -106 -252 -109l-54 -110c-6 -12 -11 -20 -26 -20c-16 0 -34 13 -34 24c0 4 1 8 5 15l63 93c-183 16 -315 168 -315 358v2c0 198 148 362 350 362c116 0 189 -40 257 -98c5 -5 10 -12 10 -21c0 -14 -13 -26 -27 -26c-7 0 -14 3 -18 7
c-58 53 -125 91 -223 91c-168 0 -295 -137 -295 -313v-2c0 -177 129 -315 296 -315c95 0 162 34 228 97c4 4 10 8 18 8c13 0 25 -12 25 -25c0 -8 -4 -14 -8 -18z" />
    <glyph glyph-name="ccedilla" unicode="&#xe7;" horiz-adv-x="571" 
d="M515 76c-49 -50 -105 -84 -185 -88l-54 -110c-6 -12 -11 -20 -26 -20c-16 0 -34 13 -34 24c0 4 1 8 5 15l63 93c-130 17 -226 131 -226 263v2c0 143 114 267 260 267c88 0 146 -38 192 -81c4 -4 7 -11 7 -18c0 -14 -11 -25 -25 -25c-6 0 -13 2 -17 6
c-41 39 -89 72 -158 72c-116 0 -206 -97 -206 -219v-2c0 -123 93 -221 210 -221c66 0 119 32 160 73c4 4 9 8 16 8c12 0 24 -12 24 -24c0 -5 -2 -11 -6 -15z" />
    <glyph glyph-name="Cdotaccent" unicode="&#x10a;" horiz-adv-x="738" 
d="M421 -12c-200 0 -348 159 -348 360v2c0 198 148 362 350 362c116 0 189 -40 257 -98c5 -5 10 -12 10 -21c0 -14 -13 -26 -27 -26c-7 0 -14 3 -18 7c-58 53 -125 91 -223 91c-168 0 -295 -137 -295 -313v-2c0 -177 129 -315 296 -315c95 0 162 34 228 97c4 4 10 8 18 8
c13 0 25 -12 25 -25c0 -8 -4 -14 -8 -18c-71 -66 -148 -109 -265 -109zM454 825v-19c0 -21 -15 -35 -36 -35s-36 14 -36 35v19c0 21 15 35 36 35s36 -14 36 -35z" />
    <glyph glyph-name="cdotaccent" unicode="&#x10b;" horiz-adv-x="571" 
d="M318 -12c-147 0 -260 122 -260 265v2c0 143 114 267 260 267c88 0 146 -38 192 -81c4 -4 7 -11 7 -18c0 -14 -11 -25 -25 -25c-6 0 -13 2 -17 6c-41 39 -89 72 -158 72c-116 0 -206 -97 -206 -219v-2c0 -123 93 -221 210 -221c66 0 119 32 160 73c4 4 9 8 16 8
c12 0 24 -12 24 -24c0 -5 -2 -11 -6 -15c-51 -52 -110 -88 -197 -88zM349 645v-19c0 -21 -15 -35 -36 -35s-36 14 -36 35v19c0 21 15 35 36 35s36 -14 36 -35z" />
    <glyph glyph-name="Dcaron" unicode="&#x10e;" horiz-adv-x="782" 
d="M104 26v648c0 14 12 26 26 26h207c220 0 372 -151 372 -348v-2c0 -197 -152 -350 -372 -350h-207c-14 0 -26 12 -26 26zM156 48h181c195 0 318 133 318 300v2c0 166 -123 302 -318 302h-181v-604zM376 819l63 58c12 11 19 13 32 13c8 0 13 -5 13 -10c0 -4 -1 -7 -5 -12
l-72 -88c-9 -11 -16 -18 -28 -18h-8c-12 0 -19 7 -28 18l-72 88c-4 5 -5 8 -5 12c0 5 5 10 14 10c13 0 21 -2 33 -13z" />
    <glyph glyph-name="dcaron" unicode="&#x10f;" 
d="M567 709v-688c0 -15 -10 -25 -24 -25s-25 10 -25 25v93c-44 -67 -109 -126 -210 -126c-123 0 -248 99 -248 265v2c0 166 125 267 248 267c102 0 168 -58 210 -122v309c0 15 10 25 24 25s25 -10 25 -25zM313 475c-111 0 -200 -81 -200 -218v-2c0 -134 93 -220 200 -220
c106 0 208 89 208 219v2c0 131 -102 219 -208 219zM637 597l12 111c3 18 12 26 28 26h13c10 0 17 -5 17 -17c0 -6 -3 -15 -6 -24l-33 -97c-4 -13 -8 -18 -17 -18s-16 4 -14 19z" />
    <glyph glyph-name="Dcroat" unicode="&#x110;" horiz-adv-x="812" 
d="M79 376h55v298c0 14 12 26 26 26h207c220 0 372 -151 372 -348v-2c0 -197 -152 -350 -372 -350h-207c-14 0 -26 12 -26 26v302h-55c-13 0 -24 11 -24 24s11 24 24 24zM186 652v-276h212c13 0 24 -11 24 -24s-11 -24 -24 -24h-212v-280h181c195 0 318 133 318 300v2
c0 166 -123 302 -318 302h-181z" />
    <glyph glyph-name="dcroat" unicode="&#x111;" 
d="M567 709v-46h52c12 0 22 -10 22 -22s-10 -22 -22 -22h-52v-598c0 -15 -10 -25 -24 -25s-25 10 -25 25v93c-44 -67 -109 -126 -210 -126c-123 0 -248 99 -248 265v2c0 166 125 267 248 267c102 0 168 -58 210 -122v219h-167c-12 0 -22 10 -22 22s10 22 22 22h167v46
c0 15 10 25 24 25s25 -10 25 -25zM313 475c-111 0 -200 -81 -200 -218v-2c0 -134 93 -220 200 -220c106 0 208 89 208 219v2c0 131 -102 219 -208 219z" />
    <glyph glyph-name="Eacute" unicode="&#xc9;" horiz-adv-x="670" 
d="M130 0c-14 0 -26 12 -26 26v648c0 14 12 26 26 26h452c13 0 24 -11 24 -24s-11 -24 -24 -24h-426v-275h381c13 0 24 -11 24 -24s-11 -24 -24 -24h-381v-281h431c13 0 24 -11 24 -24s-11 -24 -24 -24h-457zM354 762c-7 0 -13 4 -13 9c0 4 2 8 4 11l62 93c8 12 16 18 28 18
c19 0 42 -13 42 -23c0 -6 -5 -12 -11 -18l-80 -77c-12 -11 -19 -13 -32 -13z" />
    <glyph glyph-name="eacute" unicode="&#xe9;" horiz-adv-x="584" 
d="M110 279h371c-7 103 -66 198 -183 198c-101 0 -179 -85 -188 -198zM507 71c-50 -50 -107 -83 -199 -83c-134 0 -250 107 -250 266v2c0 148 104 266 242 266c143 0 234 -118 234 -264c0 -12 -12 -23 -24 -23h-400c9 -127 100 -201 200 -201c73 0 124 30 165 70
c4 4 9 7 16 7c13 0 24 -10 24 -23c0 -5 -2 -11 -8 -17zM299 592c-7 0 -13 4 -13 9c0 4 2 8 4 11l62 93c8 12 16 18 28 18c19 0 42 -13 42 -23c0 -6 -5 -12 -11 -18l-80 -77c-12 -11 -19 -13 -32 -13z" />
    <glyph glyph-name="Ebreve" unicode="&#x114;" horiz-adv-x="670" 
d="M130 0c-14 0 -26 12 -26 26v648c0 14 12 26 26 26h452c13 0 24 -11 24 -24s-11 -24 -24 -24h-426v-275h381c13 0 24 -11 24 -24s-11 -24 -24 -24h-381v-281h431c13 0 24 -11 24 -24s-11 -24 -24 -24h-457zM355 763c-53 0 -95 23 -119 68c-6 11 -11 28 -11 38
c0 13 7 22 19 22s17 -6 21 -17c13 -34 40 -60 90 -60s77 26 90 60c4 11 9 17 21 17s19 -9 19 -22c0 -10 -5 -27 -11 -38c-24 -45 -66 -68 -119 -68z" />
    <glyph glyph-name="ebreve" unicode="&#x115;" horiz-adv-x="584" 
d="M110 279h371c-7 103 -66 198 -183 198c-101 0 -179 -85 -188 -198zM507 71c-50 -50 -107 -83 -199 -83c-134 0 -250 107 -250 266v2c0 148 104 266 242 266c143 0 234 -118 234 -264c0 -12 -12 -23 -24 -23h-400c9 -127 100 -201 200 -201c73 0 124 30 165 70
c4 4 9 7 16 7c13 0 24 -10 24 -23c0 -5 -2 -11 -8 -17zM300 593c-53 0 -95 23 -119 68c-6 11 -11 28 -11 38c0 13 7 22 19 22s17 -6 21 -17c13 -34 40 -60 90 -60s77 26 90 60c4 11 9 17 21 17s19 -9 19 -22c0 -10 -5 -27 -11 -38c-24 -45 -66 -68 -119 -68z" />
    <glyph glyph-name="Ecaron" unicode="&#x11a;" horiz-adv-x="670" 
d="M130 0c-14 0 -26 12 -26 26v648c0 14 12 26 26 26h452c13 0 24 -11 24 -24s-11 -24 -24 -24h-426v-275h381c13 0 24 -11 24 -24s-11 -24 -24 -24h-381v-281h431c13 0 24 -11 24 -24s-11 -24 -24 -24h-457zM356 819l63 58c12 11 19 13 32 13c8 0 13 -5 13 -10
c0 -4 -1 -7 -5 -12l-72 -88c-9 -11 -16 -18 -28 -18h-8c-12 0 -19 7 -28 18l-72 88c-4 5 -5 8 -5 12c0 5 5 10 14 10c13 0 21 -2 33 -13z" />
    <glyph glyph-name="ecaron" unicode="&#x11b;" horiz-adv-x="584" 
d="M110 279h371c-7 103 -66 198 -183 198c-101 0 -179 -85 -188 -198zM507 71c-50 -50 -107 -83 -199 -83c-134 0 -250 107 -250 266v2c0 148 104 266 242 266c143 0 234 -118 234 -264c0 -12 -12 -23 -24 -23h-400c9 -127 100 -201 200 -201c73 0 124 30 165 70
c4 4 9 7 16 7c13 0 24 -10 24 -23c0 -5 -2 -11 -8 -17zM301 649l63 58c12 11 19 13 32 13c8 0 13 -5 13 -10c0 -4 -1 -7 -5 -12l-72 -88c-9 -11 -16 -18 -28 -18h-8c-12 0 -19 7 -28 18l-72 88c-4 5 -5 8 -5 12c0 5 5 10 14 10c13 0 21 -2 33 -13z" />
    <glyph glyph-name="Ecircumflex" unicode="&#xca;" horiz-adv-x="670" 
d="M130 0c-14 0 -26 12 -26 26v648c0 14 12 26 26 26h452c13 0 24 -11 24 -24s-11 -24 -24 -24h-426v-275h381c13 0 24 -11 24 -24s-11 -24 -24 -24h-381v-281h431c13 0 24 -11 24 -24s-11 -24 -24 -24h-457zM354 833l-63 -58c-12 -11 -19 -13 -32 -13c-8 0 -13 5 -13 10
c0 4 1 7 5 12l72 88c9 11 16 18 28 18h8c12 0 19 -7 28 -18l72 -88c4 -5 5 -8 5 -12c0 -5 -5 -10 -14 -10c-13 0 -21 2 -33 13z" />
    <glyph glyph-name="ecircumflex" unicode="&#xea;" horiz-adv-x="584" 
d="M110 279h371c-7 103 -66 198 -183 198c-101 0 -179 -85 -188 -198zM507 71c-50 -50 -107 -83 -199 -83c-134 0 -250 107 -250 266v2c0 148 104 266 242 266c143 0 234 -118 234 -264c0 -12 -12 -23 -24 -23h-400c9 -127 100 -201 200 -201c73 0 124 30 165 70
c4 4 9 7 16 7c13 0 24 -10 24 -23c0 -5 -2 -11 -8 -17zM299 663l-63 -58c-12 -11 -19 -13 -32 -13c-8 0 -13 5 -13 10c0 4 1 7 5 12l72 88c9 11 16 18 28 18h8c12 0 19 -7 28 -18l72 -88c4 -5 5 -8 5 -12c0 -5 -5 -10 -14 -10c-13 0 -21 2 -33 13z" />
    <glyph glyph-name="Edieresis" unicode="&#xcb;" horiz-adv-x="670" 
d="M130 0c-14 0 -26 12 -26 26v648c0 14 12 26 26 26h452c13 0 24 -11 24 -24s-11 -24 -24 -24h-426v-275h381c13 0 24 -11 24 -24s-11 -24 -24 -24h-381v-281h431c13 0 24 -11 24 -24s-11 -24 -24 -24h-457zM437 849c20 0 35 -14 35 -34v-20c0 -20 -15 -34 -35 -34
s-35 14 -35 34v20c0 20 15 34 35 34zM273 849c20 0 35 -14 35 -34v-20c0 -20 -15 -34 -35 -34s-35 14 -35 34v20c0 20 15 34 35 34z" />
    <glyph glyph-name="edieresis" unicode="&#xeb;" horiz-adv-x="584" 
d="M110 279h371c-7 103 -66 198 -183 198c-101 0 -179 -85 -188 -198zM507 71c-50 -50 -107 -83 -199 -83c-134 0 -250 107 -250 266v2c0 148 104 266 242 266c143 0 234 -118 234 -264c0 -12 -12 -23 -24 -23h-400c9 -127 100 -201 200 -201c73 0 124 30 165 70
c4 4 9 7 16 7c13 0 24 -10 24 -23c0 -5 -2 -11 -8 -17zM382 679c20 0 35 -14 35 -34v-20c0 -20 -15 -34 -35 -34s-35 14 -35 34v20c0 20 15 34 35 34zM218 679c20 0 35 -14 35 -34v-20c0 -20 -15 -34 -35 -34s-35 14 -35 34v20c0 20 15 34 35 34z" />
    <glyph glyph-name="Edotaccent" unicode="&#x116;" horiz-adv-x="670" 
d="M130 0c-14 0 -26 12 -26 26v648c0 14 12 26 26 26h452c13 0 24 -11 24 -24s-11 -24 -24 -24h-426v-275h381c13 0 24 -11 24 -24s-11 -24 -24 -24h-381v-281h431c13 0 24 -11 24 -24s-11 -24 -24 -24h-457zM391 815v-19c0 -21 -15 -35 -36 -35s-36 14 -36 35v19
c0 21 15 35 36 35s36 -14 36 -35z" />
    <glyph glyph-name="edotaccent" unicode="&#x117;" horiz-adv-x="584" 
d="M110 279h371c-7 103 -66 198 -183 198c-101 0 -179 -85 -188 -198zM507 71c-50 -50 -107 -83 -199 -83c-134 0 -250 107 -250 266v2c0 148 104 266 242 266c143 0 234 -118 234 -264c0 -12 -12 -23 -24 -23h-400c9 -127 100 -201 200 -201c73 0 124 30 165 70
c4 4 9 7 16 7c13 0 24 -10 24 -23c0 -5 -2 -11 -8 -17zM336 645v-19c0 -21 -15 -35 -36 -35s-36 14 -36 35v19c0 21 15 35 36 35s36 -14 36 -35z" />
    <glyph glyph-name="Egrave" unicode="&#xc8;" horiz-adv-x="670" 
d="M130 0c-14 0 -26 12 -26 26v648c0 14 12 26 26 26h452c13 0 24 -11 24 -24s-11 -24 -24 -24h-426v-275h381c13 0 24 -11 24 -24s-11 -24 -24 -24h-381v-281h431c13 0 24 -11 24 -24s-11 -24 -24 -24h-457zM356 762c-13 0 -20 2 -32 13l-80 77c-6 6 -11 12 -11 18
c0 10 23 23 42 23c12 0 20 -6 28 -18l62 -93c2 -3 4 -7 4 -11c0 -5 -6 -9 -13 -9z" />
    <glyph glyph-name="egrave" unicode="&#xe8;" horiz-adv-x="584" 
d="M110 279h371c-7 103 -66 198 -183 198c-101 0 -179 -85 -188 -198zM507 71c-50 -50 -107 -83 -199 -83c-134 0 -250 107 -250 266v2c0 148 104 266 242 266c143 0 234 -118 234 -264c0 -12 -12 -23 -24 -23h-400c9 -127 100 -201 200 -201c73 0 124 30 165 70
c4 4 9 7 16 7c13 0 24 -10 24 -23c0 -5 -2 -11 -8 -17zM301 592c-13 0 -20 2 -32 13l-80 77c-6 6 -11 12 -11 18c0 10 23 23 42 23c12 0 20 -6 28 -18l62 -93c2 -3 4 -7 4 -11c0 -5 -6 -9 -13 -9z" />
    <glyph glyph-name="Emacron" unicode="&#x112;" horiz-adv-x="670" 
d="M130 0c-14 0 -26 12 -26 26v648c0 14 12 26 26 26h452c13 0 24 -11 24 -24s-11 -24 -24 -24h-426v-275h381c13 0 24 -11 24 -24s-11 -24 -24 -24h-381v-281h431c13 0 24 -11 24 -24s-11 -24 -24 -24h-457zM487 791h-264c-13 0 -24 11 -24 24s11 24 24 24h264
c13 0 24 -11 24 -24s-11 -24 -24 -24z" />
    <glyph glyph-name="emacron" unicode="&#x113;" horiz-adv-x="584" 
d="M110 279h371c-7 103 -66 198 -183 198c-101 0 -179 -85 -188 -198zM507 71c-50 -50 -107 -83 -199 -83c-134 0 -250 107 -250 266v2c0 148 104 266 242 266c143 0 234 -118 234 -264c0 -12 -12 -23 -24 -23h-400c9 -127 100 -201 200 -201c73 0 124 30 165 70
c4 4 9 7 16 7c13 0 24 -10 24 -23c0 -5 -2 -11 -8 -17zM432 621h-264c-13 0 -24 11 -24 24s11 24 24 24h264c13 0 24 -11 24 -24s-11 -24 -24 -24z" />
    <glyph glyph-name="Eogonek" unicode="&#x118;" horiz-adv-x="670" 
d="M130 0c-14 0 -26 12 -26 26v648c0 14 12 26 26 26h452c13 0 24 -11 24 -24s-11 -24 -24 -24h-426v-275h381c13 0 24 -11 24 -24s-11 -24 -24 -24h-381v-281h429c16 0 26 -8 26 -21c0 -12 -7 -19 -16 -26c-45 -34 -64 -53 -64 -81s20 -39 52 -45c21 -4 27 -10 27 -20
c0 -11 -8 -18 -20 -18c-19 0 -110 7 -110 77c0 31 21 58 57 86h-407z" />
    <glyph glyph-name="eogonek" unicode="&#x119;" horiz-adv-x="584" 
d="M534 258c0 -12 -12 -23 -24 -23h-400c9 -127 100 -201 200 -201c73 0 124 30 165 70c4 4 9 7 16 7c13 0 24 -10 24 -23c0 -5 -2 -11 -8 -17c-13 -13 -22 -20 -39 -34c-63 -53 -78 -80 -78 -110c0 -34 22 -46 54 -52c21 -4 27 -10 27 -20c0 -11 -8 -18 -20 -18
c-43 0 -110 20 -110 83c0 28 13 51 38 76c-22 -5 -45 -8 -71 -8c-134 0 -250 107 -250 266v2c0 148 104 266 242 266c143 0 234 -118 234 -264zM110 279h371c-7 103 -66 198 -183 198c-101 0 -179 -85 -188 -198z" />
    <glyph glyph-name="Eth" unicode="&#xd0;" horiz-adv-x="812" 
d="M79 376h55v298c0 14 12 26 26 26h207c220 0 372 -151 372 -348v-2c0 -197 -152 -350 -372 -350h-207c-14 0 -26 12 -26 26v302h-55c-13 0 -24 11 -24 24s11 24 24 24zM186 652v-276h212c13 0 24 -11 24 -24s-11 -24 -24 -24h-212v-280h181c195 0 318 133 318 300v2
c0 166 -123 302 -318 302h-181z" />
    <glyph glyph-name="eth" unicode="&#xf0;" horiz-adv-x="628" 
d="M475 423l-147 208l-122 -62c-4 -2 -9 -3 -12 -3c-12 0 -22 11 -22 23c0 10 6 16 14 20l117 57l-18 26c-3 4 -6 11 -6 18c0 13 11 24 25 24c11 0 18 -6 23 -13l21 -32l86 44c4 2 9 3 12 3c12 0 22 -11 22 -23c0 -10 -6 -16 -14 -20l-81 -40l108 -161
c53 -78 87 -147 87 -244c0 -138 -102 -260 -259 -260c-144 0 -251 118 -251 256c0 145 114 242 240 242c81 0 133 -29 177 -63zM515 243c0 109 -92 199 -211 199s-193 -88 -193 -201c0 -107 85 -207 203 -207c120 0 201 98 201 209z" />
    <glyph glyph-name="Gbreve" unicode="&#x11e;" horiz-adv-x="784" 
d="M425 -12c-221 0 -352 163 -352 360v2c0 189 137 362 346 362c105 0 174 -29 239 -78c6 -5 10 -12 10 -21c0 -14 -12 -26 -26 -26c-4 0 -10 2 -16 7c-54 42 -113 71 -210 71c-170 0 -289 -144 -289 -313v-2c0 -181 113 -316 300 -316c89 0 172 37 223 80v201h-218
c-13 0 -24 11 -24 24s11 24 24 24h242c14 0 26 -12 26 -26v-229c0 -10 -7 -21 -18 -30c-66 -51 -153 -90 -257 -90zM412 773c-53 0 -95 23 -119 68c-6 11 -11 28 -11 38c0 13 7 22 19 22s17 -6 21 -17c13 -34 40 -60 90 -60s77 26 90 60c4 11 9 17 21 17s19 -9 19 -22
c0 -10 -5 -27 -11 -38c-24 -45 -66 -68 -119 -68z" />
    <glyph glyph-name="gbreve" unicode="&#x11f;" 
d="M317 -162c-81 0 -157 24 -223 70c-7 5 -11 13 -11 22c0 11 12 23 25 23c6 0 10 -2 14 -4c58 -43 125 -65 196 -65c117 0 200 67 200 198v74c-44 -63 -112 -118 -213 -118c-123 0 -245 94 -245 240v2c0 147 122 242 245 242c102 0 171 -54 213 -114v81c0 14 10 25 24 25
s25 -11 25 -25v-410c0 -74 -24 -132 -65 -173c-44 -44 -110 -68 -185 -68zM310 85c106 0 211 78 211 194v2c0 118 -105 194 -211 194c-107 0 -197 -74 -197 -193v-2c0 -115 92 -195 197 -195zM330 593c-53 0 -95 23 -119 68c-6 11 -11 28 -11 38c0 13 7 22 19 22
s17 -6 21 -17c13 -34 40 -60 90 -60s77 26 90 60c4 11 9 17 21 17s19 -9 19 -22c0 -10 -5 -27 -11 -38c-24 -45 -66 -68 -119 -68z" />
    <glyph glyph-name="Gcommaaccent" unicode="&#x122;" horiz-adv-x="784" 
d="M425 -12c-221 0 -352 163 -352 360v2c0 189 137 362 346 362c105 0 174 -29 239 -78c6 -5 10 -12 10 -21c0 -14 -12 -26 -26 -26c-4 0 -10 2 -16 7c-54 42 -113 71 -210 71c-170 0 -289 -144 -289 -313v-2c0 -181 113 -316 300 -316c89 0 172 37 223 80v201h-218
c-13 0 -24 11 -24 24s11 24 24 24h242c14 0 26 -12 26 -26v-229c0 -10 -7 -21 -18 -30c-66 -51 -153 -90 -257 -90zM407 -147c-18 4 -32 15 -32 35v6c0 20 16 36 36 36s36 -15 36 -40v-6c0 -41 -6 -62 -24 -80c-17 -17 -49 -28 -64 -28c-8 0 -13 5 -13 11s3 11 13 14
c36 10 48 23 48 52z" />
    <glyph glyph-name="gcommaaccent" unicode="&#x123;" 
d="M317 -162c-81 0 -157 24 -223 70c-7 5 -11 13 -11 22c0 11 12 23 25 23c6 0 10 -2 14 -4c58 -43 125 -65 196 -65c117 0 200 67 200 198v74c-44 -63 -112 -118 -213 -118c-123 0 -245 94 -245 240v2c0 147 122 242 245 242c102 0 171 -54 213 -114v81c0 14 10 25 24 25
s25 -11 25 -25v-410c0 -74 -24 -132 -65 -173c-44 -44 -110 -68 -185 -68zM310 85c106 0 211 78 211 194v2c0 118 -105 194 -211 194c-107 0 -197 -74 -197 -193v-2c0 -115 92 -195 197 -195zM334 668c18 -4 32 -15 32 -35v-6c0 -20 -16 -36 -36 -36s-36 15 -36 40v6
c0 41 6 62 24 80c17 17 49 28 64 28c8 0 13 -5 13 -11s-3 -11 -13 -14c-36 -10 -48 -23 -48 -52z" />
    <glyph glyph-name="Gdotaccent" unicode="&#x120;" horiz-adv-x="784" 
d="M425 -12c-221 0 -352 163 -352 360v2c0 189 137 362 346 362c105 0 174 -29 239 -78c6 -5 10 -12 10 -21c0 -14 -12 -26 -26 -26c-4 0 -10 2 -16 7c-54 42 -113 71 -210 71c-170 0 -289 -144 -289 -313v-2c0 -181 113 -316 300 -316c89 0 172 37 223 80v201h-218
c-13 0 -24 11 -24 24s11 24 24 24h242c14 0 26 -12 26 -26v-229c0 -10 -7 -21 -18 -30c-66 -51 -153 -90 -257 -90zM448 825v-19c0 -21 -15 -35 -36 -35s-36 14 -36 35v19c0 21 15 35 36 35s36 -14 36 -35z" />
    <glyph glyph-name="gdotaccent" unicode="&#x121;" 
d="M317 -162c-81 0 -157 24 -223 70c-7 5 -11 13 -11 22c0 11 12 23 25 23c6 0 10 -2 14 -4c58 -43 125 -65 196 -65c117 0 200 67 200 198v74c-44 -63 -112 -118 -213 -118c-123 0 -245 94 -245 240v2c0 147 122 242 245 242c102 0 171 -54 213 -114v81c0 14 10 25 24 25
s25 -11 25 -25v-410c0 -74 -24 -132 -65 -173c-44 -44 -110 -68 -185 -68zM310 85c106 0 211 78 211 194v2c0 118 -105 194 -211 194c-107 0 -197 -74 -197 -193v-2c0 -115 92 -195 197 -195zM366 645v-19c0 -21 -15 -35 -36 -35s-36 14 -36 35v19c0 21 15 35 36 35
s36 -14 36 -35z" />
    <glyph glyph-name="Hbar" unicode="&#x126;" horiz-adv-x="820" 
d="M134 22v488h-57c-12 0 -22 10 -22 22s10 22 22 22h57v124c0 14 12 26 26 26s26 -12 26 -26v-124h448v124c0 14 12 26 26 26s26 -12 26 -26v-124h57c12 0 22 -10 22 -22s-10 -22 -22 -22h-57v-488c0 -14 -12 -26 -26 -26s-26 12 -26 26v306h-448v-306
c0 -14 -12 -26 -26 -26s-26 12 -26 26zM186 376h448v134h-448v-134z" />
    <glyph glyph-name="hbar" unicode="&#x127;" horiz-adv-x="613" 
d="M93 21v598h-52c-12 0 -22 10 -22 22s10 22 22 22h52v46c0 14 10 25 24 25s25 -11 25 -25v-46h167c12 0 22 -10 22 -22s-10 -22 -22 -22h-167v-204c34 60 91 107 184 107c129 0 204 -88 204 -210v-291c0 -15 -10 -25 -24 -25s-25 10 -25 25v282c0 105 -59 174 -162 174
c-100 0 -177 -76 -177 -182v-274c0 -15 -10 -25 -24 -25s-25 10 -25 25z" />
    <glyph glyph-name="Iacute" unicode="&#xcd;" horiz-adv-x="274" 
d="M111 22v656c0 14 12 26 26 26s26 -12 26 -26v-656c0 -14 -12 -26 -26 -26s-26 12 -26 26zM136 762c-7 0 -13 4 -13 9c0 4 2 8 4 11l62 93c8 12 16 18 28 18c19 0 42 -13 42 -23c0 -6 -5 -12 -11 -18l-80 -77c-12 -11 -19 -13 -32 -13z" />
    <glyph glyph-name="iacute" unicode="&#xed;" horiz-adv-x="249" 
d="M100 21v468c0 14 10 25 24 25s25 -10 25 -25v-468c0 -15 -10 -25 -24 -25s-25 10 -25 25zM123 592c-7 0 -13 4 -13 9c0 4 2 8 4 11l62 93c8 12 16 18 28 18c19 0 42 -13 42 -23c0 -6 -5 -12 -11 -18l-80 -77c-12 -11 -19 -13 -32 -13z" />
    <glyph glyph-name="Ibreve" unicode="&#x12c;" horiz-adv-x="274" 
d="M111 22v656c0 14 12 26 26 26s26 -12 26 -26v-656c0 -14 -12 -26 -26 -26s-26 12 -26 26zM137 763c-53 0 -95 23 -119 68c-6 11 -11 28 -11 38c0 13 7 22 19 22s17 -6 21 -17c13 -34 40 -60 90 -60s77 26 90 60c4 11 9 17 21 17s19 -9 19 -22c0 -10 -5 -27 -11 -38
c-24 -45 -66 -68 -119 -68z" />
    <glyph glyph-name="ibreve" unicode="&#x12d;" horiz-adv-x="249" 
d="M100 21v468c0 14 10 25 24 25s25 -10 25 -25v-468c0 -15 -10 -25 -24 -25s-25 10 -25 25zM124 593c-53 0 -95 23 -119 68c-6 11 -11 28 -11 38c0 13 7 22 19 22s17 -6 21 -17c13 -34 40 -60 90 -60s77 26 90 60c4 11 9 17 21 17s19 -9 19 -22c0 -10 -5 -27 -11 -38
c-24 -45 -66 -68 -119 -68z" />
    <glyph glyph-name="Icircumflex" unicode="&#xce;" horiz-adv-x="274" 
d="M111 22v656c0 14 12 26 26 26s26 -12 26 -26v-656c0 -14 -12 -26 -26 -26s-26 12 -26 26zM136 833l-63 -58c-12 -11 -19 -13 -32 -13c-8 0 -13 5 -13 10c0 4 1 7 5 12l72 88c9 11 16 18 28 18h8c12 0 19 -7 28 -18l72 -88c4 -5 5 -8 5 -12c0 -5 -5 -10 -14 -10
c-13 0 -21 2 -33 13z" />
    <glyph glyph-name="icircumflex" unicode="&#xee;" horiz-adv-x="249" 
d="M100 21v468c0 14 10 25 24 25s25 -10 25 -25v-468c0 -15 -10 -25 -24 -25s-25 10 -25 25zM123 663l-63 -58c-12 -11 -19 -13 -32 -13c-8 0 -13 5 -13 10c0 4 1 7 5 12l72 88c9 11 16 18 28 18h8c12 0 19 -7 28 -18l72 -88c4 -5 5 -8 5 -12c0 -5 -5 -10 -14 -10
c-13 0 -21 2 -33 13z" />
    <glyph glyph-name="Idieresis" unicode="&#xcf;" horiz-adv-x="274" 
d="M111 22v656c0 14 12 26 26 26s26 -12 26 -26v-656c0 -14 -12 -26 -26 -26s-26 12 -26 26zM219 849c20 0 35 -14 35 -34v-20c0 -20 -15 -34 -35 -34s-35 14 -35 34v20c0 20 15 34 35 34zM55 849c20 0 35 -14 35 -34v-20c0 -20 -15 -34 -35 -34s-35 14 -35 34v20
c0 20 15 34 35 34z" />
    <glyph glyph-name="idieresis" unicode="&#xef;" horiz-adv-x="249" 
d="M100 21v468c0 14 10 25 24 25s25 -10 25 -25v-468c0 -15 -10 -25 -24 -25s-25 10 -25 25zM206 679c20 0 35 -14 35 -34v-20c0 -20 -15 -34 -35 -34s-35 14 -35 34v20c0 20 15 34 35 34zM42 679c20 0 35 -14 35 -34v-20c0 -20 -15 -34 -35 -34s-35 14 -35 34v20
c0 20 15 34 35 34z" />
    <glyph glyph-name="Idotaccent" unicode="&#x130;" horiz-adv-x="274" 
d="M111 22v656c0 14 12 26 26 26s26 -12 26 -26v-656c0 -14 -12 -26 -26 -26s-26 12 -26 26zM173 815v-19c0 -21 -15 -35 -36 -35s-36 14 -36 35v19c0 21 15 35 36 35s36 -14 36 -35z" />
    <glyph glyph-name="dotlessi" unicode="&#x131;" horiz-adv-x="249" 
d="M100 21v468c0 14 10 25 24 25s25 -10 25 -25v-468c0 -15 -10 -25 -24 -25s-25 10 -25 25z" />
    <glyph glyph-name="Igrave" unicode="&#xcc;" horiz-adv-x="274" 
d="M111 22v656c0 14 12 26 26 26s26 -12 26 -26v-656c0 -14 -12 -26 -26 -26s-26 12 -26 26zM138 762c-13 0 -20 2 -32 13l-80 77c-6 6 -11 12 -11 18c0 10 23 23 42 23c12 0 20 -6 28 -18l62 -93c2 -3 4 -7 4 -11c0 -5 -6 -9 -13 -9z" />
    <glyph glyph-name="igrave" unicode="&#xec;" horiz-adv-x="249" 
d="M100 21v468c0 14 10 25 24 25s25 -10 25 -25v-468c0 -15 -10 -25 -24 -25s-25 10 -25 25zM125 592c-13 0 -20 2 -32 13l-80 77c-6 6 -11 12 -11 18c0 10 23 23 42 23c12 0 20 -6 28 -18l62 -93c2 -3 4 -7 4 -11c0 -5 -6 -9 -13 -9z" />
    <glyph glyph-name="Imacron" unicode="&#x12a;" horiz-adv-x="274" 
d="M111 22v656c0 14 12 26 26 26s26 -12 26 -26v-656c0 -14 -12 -26 -26 -26s-26 12 -26 26zM269 791h-264c-13 0 -24 11 -24 24s11 24 24 24h264c13 0 24 -11 24 -24s-11 -24 -24 -24z" />
    <glyph glyph-name="imacron" unicode="&#x12b;" horiz-adv-x="249" 
d="M100 21v468c0 14 10 25 24 25s25 -10 25 -25v-468c0 -15 -10 -25 -24 -25s-25 10 -25 25zM256 621h-264c-13 0 -24 11 -24 24s11 24 24 24h264c13 0 24 -11 24 -24s-11 -24 -24 -24z" />
    <glyph glyph-name="Iogonek" unicode="&#x12e;" horiz-adv-x="274" 
d="M53 -85c0 34 20 61 58 91v672c0 14 12 26 26 26s26 -12 26 -26v-661c0 -11 -4 -18 -13 -25c-34 -29 -47 -45 -47 -71c0 -28 21 -40 53 -46c21 -4 27 -10 27 -20c0 -11 -8 -18 -20 -18c-19 0 -110 8 -110 78z" />
    <glyph glyph-name="iogonek" unicode="&#x12f;" horiz-adv-x="249" 
d="M149 489v-472c0 -11 -3 -17 -14 -26c-31 -26 -46 -44 -46 -70c0 -28 21 -40 53 -46c21 -4 27 -10 27 -20c0 -11 -8 -18 -20 -18c-19 0 -110 8 -110 78c0 35 21 62 61 93v481c0 14 10 25 24 25s25 -10 25 -25zM94 668v17c0 17 13 30 30 30s31 -13 31 -30v-17
c0 -17 -14 -30 -31 -30s-30 13 -30 30z" />
    <glyph glyph-name="Kcommaaccent" unicode="&#x136;" horiz-adv-x="715" 
d="M104 22v656c0 14 12 26 26 26s26 -12 26 -26v-438l442 456c4 4 10 8 18 8c13 0 26 -13 26 -26c0 -7 -3 -13 -8 -18l-267 -269l285 -349c5 -6 8 -11 8 -19c0 -14 -13 -27 -27 -27c-9 0 -16 5 -20 10l-283 348l-174 -176v-156c0 -14 -12 -26 -26 -26s-26 12 -26 26z
M357 -142c-18 4 -32 15 -32 35v6c0 20 16 36 36 36s36 -15 36 -40v-6c0 -41 -6 -62 -24 -80c-17 -17 -49 -28 -64 -28c-8 0 -13 5 -13 11s3 11 13 14c36 10 48 23 48 52z" />
    <glyph glyph-name="kcommaaccent" unicode="&#x137;" horiz-adv-x="560" 
d="M93 21v688c0 14 10 25 24 25s25 -11 25 -25v-526l313 324c5 5 10 7 17 7c13 0 23 -10 23 -23c0 -7 -2 -11 -8 -17l-187 -190l200 -247c5 -6 7 -11 7 -18c0 -14 -10 -23 -24 -23c-9 0 -14 3 -21 11l-196 242l-124 -125v-103c0 -15 -10 -25 -24 -25s-25 10 -25 25z
M292 -147c-18 4 -32 15 -32 35v6c0 20 16 36 36 36s36 -15 36 -40v-6c0 -41 -6 -62 -24 -80c-17 -17 -49 -28 -64 -28c-8 0 -13 5 -13 11s3 11 13 14c36 10 48 23 48 52z" />
    <glyph glyph-name="Lacute" unicode="&#x139;" horiz-adv-x="619" 
d="M104 26v652c0 14 12 26 26 26s26 -12 26 -26v-630h391c13 0 24 -11 24 -24s-11 -24 -24 -24h-417c-14 0 -26 12 -26 26zM141 762c-7 0 -13 4 -13 9c0 4 2 8 4 11l62 93c8 12 16 18 28 18c19 0 42 -13 42 -23c0 -6 -5 -12 -11 -18l-80 -77c-12 -11 -19 -13 -32 -13z" />
    <glyph glyph-name="lacute" unicode="&#x13a;" horiz-adv-x="249" 
d="M100 21v688c0 14 10 25 24 25s25 -11 25 -25v-688c0 -15 -10 -25 -24 -25s-25 10 -25 25zM126 785c-7 0 -13 4 -13 9c0 4 2 8 4 11l62 93c8 12 16 18 28 18c19 0 42 -13 42 -23c0 -6 -5 -12 -11 -18l-80 -77c-12 -11 -19 -13 -32 -13z" />
    <glyph glyph-name="Lcaron" unicode="&#x13d;" horiz-adv-x="619" 
d="M104 26v652c0 14 12 26 26 26s26 -12 26 -26v-630h391c13 0 24 -11 24 -24s-11 -24 -24 -24h-417c-14 0 -26 12 -26 26zM254 566l12 111c3 18 12 26 28 26h13c10 0 17 -5 17 -17c0 -6 -3 -15 -6 -24l-33 -97c-4 -13 -8 -18 -17 -18s-16 4 -14 19z" />
    <glyph glyph-name="lcaron" unicode="&#x13e;" horiz-adv-x="249" 
d="M100 21v688c0 14 10 25 24 25s25 -11 25 -25v-688c0 -15 -10 -25 -24 -25s-25 10 -25 25zM221 596l12 111c3 18 12 26 28 26h13c10 0 17 -5 17 -17c0 -6 -3 -15 -6 -24l-33 -97c-4 -13 -8 -18 -17 -18s-16 4 -14 19z" />
    <glyph glyph-name="Lcommaaccent" unicode="&#x13b;" horiz-adv-x="619" 
d="M104 26v652c0 14 12 26 26 26s26 -12 26 -26v-630h391c13 0 24 -11 24 -24s-11 -24 -24 -24h-417c-14 0 -26 12 -26 26zM326 -147c-18 4 -32 15 -32 35v6c0 20 16 36 36 36s36 -15 36 -40v-6c0 -41 -6 -62 -24 -80c-17 -17 -49 -28 -64 -28c-8 0 -13 5 -13 11s3 11 13 14
c36 10 48 23 48 52z" />
    <glyph glyph-name="lcommaaccent" unicode="&#x13c;" horiz-adv-x="249" 
d="M100 21v688c0 14 10 25 24 25s25 -11 25 -25v-688c0 -15 -10 -25 -24 -25s-25 10 -25 25zM119 -147c-18 4 -32 15 -32 35v6c0 20 16 36 36 36s36 -15 36 -40v-6c0 -41 -6 -62 -24 -80c-17 -17 -49 -28 -64 -28c-8 0 -13 5 -13 11s3 11 13 14c36 10 48 23 48 52z" />
    <glyph glyph-name="Ldot" unicode="&#x13f;" horiz-adv-x="619" 
d="M104 26v652c0 14 12 26 26 26s26 -12 26 -26v-630h391c13 0 24 -11 24 -24s-11 -24 -24 -24h-417c-14 0 -26 12 -26 26zM493 372v-19c0 -21 -15 -35 -36 -35s-36 14 -36 35v19c0 21 15 35 36 35s36 -14 36 -35z" />
    <glyph glyph-name="ldot" unicode="&#x140;" horiz-adv-x="309" 
d="M316 374v-17c0 -20 -16 -36 -36 -36s-36 16 -36 36v17c0 20 16 36 36 36s36 -16 36 -36zM100 21v688c0 14 10 25 24 25s25 -11 25 -25v-688c0 -15 -10 -25 -24 -25s-25 10 -25 25z" />
    <glyph glyph-name="Lslash" unicode="&#x141;" horiz-adv-x="649" 
d="M397 397l-212 -66v-283h392c13 0 24 -11 24 -24s-11 -24 -24 -24h-417c-14 0 -26 12 -26 26v290l-42 -13c-4 -1 -11 -3 -15 -3c-13 0 -22 10 -22 23c0 12 7 19 17 22l62 19v314c0 14 12 26 26 26s25 -12 25 -26v-299l192 60c4 1 11 3 15 3c13 0 22 -10 22 -23
c0 -12 -7 -19 -17 -22z" />
    <glyph glyph-name="lslash" unicode="&#x142;" horiz-adv-x="309" 
d="M242 371l-63 -20v-330c0 -15 -10 -25 -24 -25s-25 10 -25 25v315l-43 -13c-4 -1 -11 -3 -15 -3c-13 0 -22 10 -22 23c0 12 7 19 17 22c0 0 24 8 63 20v324c0 14 10 25 24 25s25 -11 25 -25v-309l43 13c4 1 11 3 15 3c13 0 22 -10 22 -23c0 -12 -7 -19 -17 -22z" />
    <glyph glyph-name="Nacute" unicode="&#x143;" horiz-adv-x="790" 
d="M104 21v656c0 14 12 26 26 26h8c11 0 19 -6 26 -15l472 -599v590c0 14 11 25 25 25s25 -11 25 -25v-660c0 -12 -9 -22 -21 -22h-4c-10 0 -18 7 -26 17l-481 610v-603c0 -14 -11 -25 -25 -25s-25 11 -25 25zM394 762c-7 0 -13 4 -13 9c0 4 2 8 4 11l62 93
c8 12 16 18 28 18c19 0 42 -13 42 -23c0 -6 -5 -12 -11 -18l-80 -77c-12 -11 -19 -13 -32 -13z" />
    <glyph glyph-name="nacute" unicode="&#x144;" horiz-adv-x="613" 
d="M93 21v468c0 14 10 25 24 25s25 -10 25 -25v-74c34 60 91 107 184 107c129 0 204 -88 204 -210v-291c0 -15 -10 -25 -24 -25s-25 10 -25 25v282c0 105 -59 174 -162 174c-100 0 -177 -76 -177 -182v-274c0 -15 -10 -25 -24 -25s-25 10 -25 25zM310 592c-7 0 -13 4 -13 9
c0 4 2 8 4 11l62 93c8 12 16 18 28 18c19 0 42 -13 42 -23c0 -6 -5 -12 -11 -18l-80 -77c-12 -11 -19 -13 -32 -13z" />
    <glyph glyph-name="Ncaron" unicode="&#x147;" horiz-adv-x="790" 
d="M104 21v656c0 14 12 26 26 26h8c11 0 19 -6 26 -15l472 -599v590c0 14 11 25 25 25s25 -11 25 -25v-660c0 -12 -9 -22 -21 -22h-4c-10 0 -18 7 -26 17l-481 610v-603c0 -14 -11 -25 -25 -25s-25 11 -25 25zM396 819l63 58c12 11 19 13 32 13c8 0 13 -5 13 -10
c0 -4 -1 -7 -5 -12l-72 -88c-9 -11 -16 -18 -28 -18h-8c-12 0 -19 7 -28 18l-72 88c-4 5 -5 8 -5 12c0 5 5 10 14 10c13 0 21 -2 33 -13z" />
    <glyph glyph-name="ncaron" unicode="&#x148;" horiz-adv-x="613" 
d="M93 21v468c0 14 10 25 24 25s25 -10 25 -25v-74c34 60 91 107 184 107c129 0 204 -88 204 -210v-291c0 -15 -10 -25 -24 -25s-25 10 -25 25v282c0 105 -59 174 -162 174c-100 0 -177 -76 -177 -182v-274c0 -15 -10 -25 -24 -25s-25 10 -25 25zM312 649l63 58
c12 11 19 13 32 13c8 0 13 -5 13 -10c0 -4 -1 -7 -5 -12l-72 -88c-9 -11 -16 -18 -28 -18h-8c-12 0 -19 7 -28 18l-72 88c-4 5 -5 8 -5 12c0 5 5 10 14 10c13 0 21 -2 33 -13z" />
    <glyph glyph-name="Ncommaaccent" unicode="&#x145;" horiz-adv-x="790" 
d="M104 21v656c0 14 12 26 26 26h8c11 0 19 -6 26 -15l472 -599v590c0 14 11 25 25 25s25 -11 25 -25v-660c0 -12 -9 -22 -21 -22h-4c-10 0 -18 7 -26 17l-481 610v-603c0 -14 -11 -25 -25 -25s-25 11 -25 25zM390 -142c-18 4 -32 15 -32 35v6c0 20 16 36 36 36
s36 -15 36 -40v-6c0 -41 -6 -62 -24 -80c-17 -17 -49 -28 -64 -28c-8 0 -13 5 -13 11s3 11 13 14c36 10 48 23 48 52z" />
    <glyph glyph-name="ncommaaccent" unicode="&#x146;" horiz-adv-x="613" 
d="M93 21v468c0 14 10 25 24 25s25 -10 25 -25v-74c34 60 91 107 184 107c129 0 204 -88 204 -210v-291c0 -15 -10 -25 -24 -25s-25 10 -25 25v282c0 105 -59 174 -162 174c-100 0 -177 -76 -177 -182v-274c0 -15 -10 -25 -24 -25s-25 10 -25 25zM306 -147
c-18 4 -32 15 -32 35v6c0 20 16 36 36 36s36 -15 36 -40v-6c0 -41 -6 -62 -24 -80c-17 -17 -49 -28 -64 -28c-8 0 -13 5 -13 11s3 11 13 14c36 10 48 23 48 52z" />
    <glyph glyph-name="Ntilde" unicode="&#xd1;" horiz-adv-x="790" 
d="M104 21v656c0 14 12 26 26 26h8c11 0 19 -6 26 -15l472 -599v590c0 14 11 25 25 25s25 -11 25 -25v-660c0 -12 -9 -22 -21 -22h-4c-10 0 -18 7 -26 17l-481 610v-603c0 -14 -11 -25 -25 -25s-25 11 -25 25zM289 768c-3 -6 -8 -14 -18 -14s-18 7 -18 17c0 3 1 9 2 12
c19 58 43 75 79 75c38 0 94 -41 128 -41c22 0 33 11 45 38c3 6 9 14 18 14c10 0 18 -7 18 -17c0 -3 -1 -9 -2 -12c-19 -58 -43 -75 -79 -75c-38 0 -94 41 -128 41c-22 0 -33 -11 -45 -38z" />
    <glyph glyph-name="ntilde" unicode="&#xf1;" horiz-adv-x="613" 
d="M93 21v468c0 14 10 25 24 25s25 -10 25 -25v-74c34 60 91 107 184 107c129 0 204 -88 204 -210v-291c0 -15 -10 -25 -24 -25s-25 10 -25 25v282c0 105 -59 174 -162 174c-100 0 -177 -76 -177 -182v-274c0 -15 -10 -25 -24 -25s-25 10 -25 25zM205 598
c-3 -6 -8 -14 -18 -14s-18 7 -18 17c0 3 1 9 2 12c19 58 43 75 79 75c38 0 94 -41 128 -41c22 0 33 11 45 38c3 6 9 14 18 14c10 0 18 -7 18 -17c0 -3 -1 -9 -2 -12c-19 -58 -43 -75 -79 -75c-38 0 -94 41 -128 41c-22 0 -33 -11 -45 -38z" />
    <glyph glyph-name="Oacute" unicode="&#xd3;" horiz-adv-x="850" 
d="M424 -12c-212 0 -351 169 -351 360v2c0 191 141 362 353 362s351 -169 351 -360v-2c0 -191 -141 -362 -353 -362zM426 35c173 0 297 140 297 313v2c0 173 -126 315 -299 315s-297 -140 -297 -313v-2c0 -173 126 -315 299 -315zM424 772c-7 0 -13 4 -13 9c0 4 2 8 4 11
l62 93c8 12 16 18 28 18c19 0 42 -13 42 -23c0 -6 -5 -12 -11 -18l-80 -77c-12 -11 -19 -13 -32 -13z" />
    <glyph glyph-name="oacute" unicode="&#xf3;" horiz-adv-x="640" 
d="M319 -12c-151 0 -261 122 -261 265v2c0 143 111 267 263 267c151 0 261 -122 261 -265v-2c0 -143 -111 -267 -263 -267zM321 34c121 0 208 99 208 219v2c0 123 -92 221 -210 221c-121 0 -208 -99 -208 -219v-2c0 -123 92 -221 210 -221zM319 592c-7 0 -13 4 -13 9
c0 4 2 8 4 11l62 93c8 12 16 18 28 18c19 0 42 -13 42 -23c0 -6 -5 -12 -11 -18l-80 -77c-12 -11 -19 -13 -32 -13z" />
    <glyph glyph-name="Obreve" unicode="&#x14e;" horiz-adv-x="850" 
d="M424 -12c-212 0 -351 169 -351 360v2c0 191 141 362 353 362s351 -169 351 -360v-2c0 -191 -141 -362 -353 -362zM426 35c173 0 297 140 297 313v2c0 173 -126 315 -299 315s-297 -140 -297 -313v-2c0 -173 126 -315 299 -315zM425 773c-53 0 -95 23 -119 68
c-6 11 -11 28 -11 38c0 13 7 22 19 22s17 -6 21 -17c13 -34 40 -60 90 -60s77 26 90 60c4 11 9 17 21 17s19 -9 19 -22c0 -10 -5 -27 -11 -38c-24 -45 -66 -68 -119 -68z" />
    <glyph glyph-name="obreve" unicode="&#x14f;" horiz-adv-x="640" 
d="M319 -12c-151 0 -261 122 -261 265v2c0 143 111 267 263 267c151 0 261 -122 261 -265v-2c0 -143 -111 -267 -263 -267zM321 34c121 0 208 99 208 219v2c0 123 -92 221 -210 221c-121 0 -208 -99 -208 -219v-2c0 -123 92 -221 210 -221zM320 593c-53 0 -95 23 -119 68
c-6 11 -11 28 -11 38c0 13 7 22 19 22s17 -6 21 -17c13 -34 40 -60 90 -60s77 26 90 60c4 11 9 17 21 17s19 -9 19 -22c0 -10 -5 -27 -11 -38c-24 -45 -66 -68 -119 -68z" />
    <glyph glyph-name="Ocircumflex" unicode="&#xd4;" horiz-adv-x="850" 
d="M424 -12c-212 0 -351 169 -351 360v2c0 191 141 362 353 362s351 -169 351 -360v-2c0 -191 -141 -362 -353 -362zM426 35c173 0 297 140 297 313v2c0 173 -126 315 -299 315s-297 -140 -297 -313v-2c0 -173 126 -315 299 -315zM424 843l-63 -58c-12 -11 -19 -13 -32 -13
c-8 0 -13 5 -13 10c0 4 1 7 5 12l72 88c9 11 16 18 28 18h8c12 0 19 -7 28 -18l72 -88c4 -5 5 -8 5 -12c0 -5 -5 -10 -14 -10c-13 0 -21 2 -33 13z" />
    <glyph glyph-name="ocircumflex" unicode="&#xf4;" horiz-adv-x="640" 
d="M319 -12c-151 0 -261 122 -261 265v2c0 143 111 267 263 267c151 0 261 -122 261 -265v-2c0 -143 -111 -267 -263 -267zM321 34c121 0 208 99 208 219v2c0 123 -92 221 -210 221c-121 0 -208 -99 -208 -219v-2c0 -123 92 -221 210 -221zM319 663l-63 -58
c-12 -11 -19 -13 -32 -13c-8 0 -13 5 -13 10c0 4 1 7 5 12l72 88c9 11 16 18 28 18h8c12 0 19 -7 28 -18l72 -88c4 -5 5 -8 5 -12c0 -5 -5 -10 -14 -10c-13 0 -21 2 -33 13z" />
    <glyph glyph-name="Odieresis" unicode="&#xd6;" horiz-adv-x="850" 
d="M424 -12c-212 0 -351 169 -351 360v2c0 191 141 362 353 362s351 -169 351 -360v-2c0 -191 -141 -362 -353 -362zM426 35c173 0 297 140 297 313v2c0 173 -126 315 -299 315s-297 -140 -297 -313v-2c0 -173 126 -315 299 -315zM507 859c20 0 35 -14 35 -34v-20
c0 -20 -15 -34 -35 -34s-35 14 -35 34v20c0 20 15 34 35 34zM343 859c20 0 35 -14 35 -34v-20c0 -20 -15 -34 -35 -34s-35 14 -35 34v20c0 20 15 34 35 34z" />
    <glyph glyph-name="odieresis" unicode="&#xf6;" horiz-adv-x="640" 
d="M319 -12c-151 0 -261 122 -261 265v2c0 143 111 267 263 267c151 0 261 -122 261 -265v-2c0 -143 -111 -267 -263 -267zM321 34c121 0 208 99 208 219v2c0 123 -92 221 -210 221c-121 0 -208 -99 -208 -219v-2c0 -123 92 -221 210 -221zM402 679c20 0 35 -14 35 -34v-20
c0 -20 -15 -34 -35 -34s-35 14 -35 34v20c0 20 15 34 35 34zM238 679c20 0 35 -14 35 -34v-20c0 -20 -15 -34 -35 -34s-35 14 -35 34v20c0 20 15 34 35 34z" />
    <glyph glyph-name="OE" unicode="&#x152;" horiz-adv-x="1152" 
d="M445 0c-220 0 -372 149 -372 348v2c0 197 152 350 372 350h619c13 0 24 -11 24 -24s-11 -24 -24 -24h-411v-275h366c13 0 24 -11 24 -24s-11 -24 -24 -24h-366v-281h416c13 0 24 -11 24 -24s-11 -24 -24 -24h-624zM445 48h156v604h-156c-195 0 -318 -133 -318 -300v-2
c0 -166 123 -302 318 -302z" />
    <glyph glyph-name="oe" unicode="&#x153;" horiz-adv-x="1055" 
d="M581 279h371c-7 103 -66 198 -183 198c-101 0 -179 -85 -188 -198zM321 34c121 0 208 99 208 219v2c0 123 -92 221 -210 221c-121 0 -208 -99 -208 -219v-2c0 -123 92 -221 210 -221zM978 71c-50 -50 -108 -83 -197 -83c-99 0 -188 60 -227 157
c-39 -91 -127 -157 -236 -157c-149 0 -260 122 -260 265v2c0 143 112 267 262 267c108 0 195 -65 234 -156c37 93 118 156 218 156c142 0 233 -118 233 -264c0 -12 -12 -23 -24 -23h-400c9 -127 100 -201 200 -201c73 0 124 30 165 70c4 4 9 7 16 7c13 0 24 -10 24 -23
c0 -5 -2 -11 -8 -17z" />
    <glyph glyph-name="Ograve" unicode="&#xd2;" horiz-adv-x="850" 
d="M424 -12c-212 0 -351 169 -351 360v2c0 191 141 362 353 362s351 -169 351 -360v-2c0 -191 -141 -362 -353 -362zM426 35c173 0 297 140 297 313v2c0 173 -126 315 -299 315s-297 -140 -297 -313v-2c0 -173 126 -315 299 -315zM426 772c-13 0 -20 2 -32 13l-80 77
c-6 6 -11 12 -11 18c0 10 23 23 42 23c12 0 20 -6 28 -18l62 -93c2 -3 4 -7 4 -11c0 -5 -6 -9 -13 -9z" />
    <glyph glyph-name="ograve" unicode="&#xf2;" horiz-adv-x="640" 
d="M319 -12c-151 0 -261 122 -261 265v2c0 143 111 267 263 267c151 0 261 -122 261 -265v-2c0 -143 -111 -267 -263 -267zM321 34c121 0 208 99 208 219v2c0 123 -92 221 -210 221c-121 0 -208 -99 -208 -219v-2c0 -123 92 -221 210 -221zM321 592c-13 0 -20 2 -32 13
l-80 77c-6 6 -11 12 -11 18c0 10 23 23 42 23c12 0 20 -6 28 -18l62 -93c2 -3 4 -7 4 -11c0 -5 -6 -9 -13 -9z" />
    <glyph glyph-name="Ohungarumlaut" unicode="&#x150;" horiz-adv-x="850" 
d="M424 -12c-212 0 -351 169 -351 360v2c0 191 141 362 353 362s351 -169 351 -360v-2c0 -191 -141 -362 -353 -362zM426 35c173 0 297 140 297 313v2c0 173 -126 315 -299 315s-297 -140 -297 -313v-2c0 -173 126 -315 299 -315zM487 772c-7 0 -13 4 -13 9c0 4 2 8 4 11
l63 94c8 12 15 17 27 17c18 0 39 -12 39 -22c0 -6 -4 -11 -10 -17l-78 -79c-12 -11 -19 -13 -32 -13zM335 772c-7 0 -13 4 -13 9c0 4 2 8 4 11l63 94c8 12 15 17 27 17c18 0 39 -12 39 -22c0 -6 -4 -11 -10 -17l-78 -79c-12 -11 -19 -13 -32 -13z" />
    <glyph glyph-name="ohungarumlaut" unicode="&#x151;" horiz-adv-x="640" 
d="M319 -12c-151 0 -261 122 -261 265v2c0 143 111 267 263 267c151 0 261 -122 261 -265v-2c0 -143 -111 -267 -263 -267zM321 34c121 0 208 99 208 219v2c0 123 -92 221 -210 221c-121 0 -208 -99 -208 -219v-2c0 -123 92 -221 210 -221zM382 592c-7 0 -13 4 -13 9
c0 4 2 8 4 11l63 94c8 12 15 17 27 17c18 0 39 -12 39 -22c0 -6 -4 -11 -10 -17l-78 -79c-12 -11 -19 -13 -32 -13zM230 592c-7 0 -13 4 -13 9c0 4 2 8 4 11l63 94c8 12 15 17 27 17c18 0 39 -12 39 -22c0 -6 -4 -11 -10 -17l-78 -79c-12 -11 -19 -13 -32 -13z" />
    <glyph glyph-name="Omacron" unicode="&#x14c;" horiz-adv-x="850" 
d="M424 -12c-212 0 -351 169 -351 360v2c0 191 141 362 353 362s351 -169 351 -360v-2c0 -191 -141 -362 -353 -362zM426 35c173 0 297 140 297 313v2c0 173 -126 315 -299 315s-297 -140 -297 -313v-2c0 -173 126 -315 299 -315zM557 801h-264c-13 0 -24 11 -24 24
s11 24 24 24h264c13 0 24 -11 24 -24s-11 -24 -24 -24z" />
    <glyph glyph-name="omacron" unicode="&#x14d;" horiz-adv-x="640" 
d="M319 -12c-151 0 -261 122 -261 265v2c0 143 111 267 263 267c151 0 261 -122 261 -265v-2c0 -143 -111 -267 -263 -267zM321 34c121 0 208 99 208 219v2c0 123 -92 221 -210 221c-121 0 -208 -99 -208 -219v-2c0 -123 92 -221 210 -221zM452 621h-264
c-13 0 -24 11 -24 24s11 24 24 24h264c13 0 24 -11 24 -24s-11 -24 -24 -24z" />
    <glyph glyph-name="Oslash" unicode="&#xd8;" horiz-adv-x="850" 
d="M424 -12c-92 0 -169 31 -228 82l-67 -71c-5 -5 -11 -8 -18 -8c-12 0 -21 9 -21 21c0 6 2 12 6 16l68 73c-58 66 -91 154 -91 247v2c0 191 141 362 353 362c91 0 169 -32 228 -83l67 72c5 5 11 8 18 8c12 0 21 -9 21 -21c0 -6 -2 -12 -6 -16l-69 -74
c59 -65 92 -153 92 -246v-2c0 -191 -141 -362 -353 -362zM127 350c0 -81 27 -154 74 -210l419 450c-51 46 -119 75 -196 75c-173 0 -297 -140 -297 -313v-2zM426 35c173 0 297 140 297 313v2c0 80 -28 153 -74 209l-420 -449c52 -47 120 -75 197 -75z" />
    <glyph glyph-name="oslash" unicode="&#xf8;" horiz-adv-x="640" 
d="M319 -12c-65 0 -123 23 -167 60l-48 -49c-5 -5 -12 -8 -18 -8c-11 0 -20 8 -20 19c0 5 2 11 6 15l50 52c-40 48 -64 109 -64 176v2c0 143 111 267 263 267c65 0 123 -23 167 -61l48 52c5 5 12 8 18 8c11 0 20 -8 20 -19c0 -5 -2 -11 -6 -15l-51 -54
c41 -47 65 -109 65 -176v-2c0 -143 -111 -267 -263 -267zM321 34c121 0 208 99 208 219v2c0 54 -18 103 -48 141l-297 -310c37 -33 84 -52 137 -52zM111 255c0 -54 17 -103 47 -141l298 309c-37 33 -84 53 -137 53c-121 0 -208 -99 -208 -219v-2z" />
    <glyph glyph-name="Oslashacute" unicode="&#x1fe;" horiz-adv-x="850" 
d="M424 -12c-92 0 -169 31 -228 82l-67 -71c-5 -5 -11 -8 -18 -8c-12 0 -21 9 -21 21c0 6 2 12 6 16l68 73c-58 66 -91 154 -91 247v2c0 191 141 362 353 362c91 0 169 -32 228 -83l67 72c5 5 11 8 18 8c12 0 21 -9 21 -21c0 -6 -2 -12 -6 -16l-69 -74
c59 -65 92 -153 92 -246v-2c0 -191 -141 -362 -353 -362zM426 35c173 0 297 140 297 313v2c0 80 -28 153 -74 209l-420 -449c52 -47 120 -75 197 -75zM127 350c0 -81 27 -154 74 -210l419 450c-51 46 -119 75 -196 75c-173 0 -297 -140 -297 -313v-2zM424 772
c-7 0 -13 4 -13 9c0 4 2 8 4 11l62 93c8 12 16 18 28 18c19 0 42 -13 42 -23c0 -6 -5 -12 -11 -18l-80 -77c-12 -11 -19 -13 -32 -13z" />
    <glyph glyph-name="oslashacute" unicode="&#x1ff;" horiz-adv-x="640" 
d="M319 -12c-65 0 -123 23 -167 60l-48 -49c-5 -5 -12 -8 -18 -8c-11 0 -20 8 -20 19c0 5 2 11 6 15l50 52c-40 48 -64 109 -64 176v2c0 143 111 267 263 267c65 0 123 -23 167 -61l48 52c5 5 12 8 18 8c11 0 20 -8 20 -19c0 -5 -2 -11 -6 -15l-51 -54
c41 -47 65 -109 65 -176v-2c0 -143 -111 -267 -263 -267zM321 34c121 0 208 99 208 219v2c0 54 -18 103 -48 141l-297 -310c37 -33 84 -52 137 -52zM111 255c0 -54 17 -103 47 -141l298 309c-37 33 -84 53 -137 53c-121 0 -208 -99 -208 -219v-2zM319 592c-7 0 -13 4 -13 9
c0 4 2 8 4 11l62 93c8 12 16 18 28 18c19 0 42 -13 42 -23c0 -6 -5 -12 -11 -18l-80 -77c-12 -11 -19 -13 -32 -13z" />
    <glyph glyph-name="Otilde" unicode="&#xd5;" horiz-adv-x="850" 
d="M424 -12c-212 0 -351 169 -351 360v2c0 191 141 362 353 362s351 -169 351 -360v-2c0 -191 -141 -362 -353 -362zM426 35c173 0 297 140 297 313v2c0 173 -126 315 -299 315s-297 -140 -297 -313v-2c0 -173 126 -315 299 -315zM319 778c-3 -6 -8 -14 -18 -14
s-18 7 -18 17c0 3 1 9 2 12c19 58 43 75 79 75c38 0 94 -41 128 -41c22 0 33 11 45 38c3 6 9 14 18 14c10 0 18 -7 18 -17c0 -3 -1 -9 -2 -12c-19 -58 -43 -75 -79 -75c-38 0 -94 41 -128 41c-22 0 -33 -11 -45 -38z" />
    <glyph glyph-name="otilde" unicode="&#xf5;" horiz-adv-x="640" 
d="M319 -12c-151 0 -261 122 -261 265v2c0 143 111 267 263 267c151 0 261 -122 261 -265v-2c0 -143 -111 -267 -263 -267zM321 34c121 0 208 99 208 219v2c0 123 -92 221 -210 221c-121 0 -208 -99 -208 -219v-2c0 -123 92 -221 210 -221zM214 598c-3 -6 -8 -14 -18 -14
s-18 7 -18 17c0 3 1 9 2 12c19 58 43 75 79 75c38 0 94 -41 128 -41c22 0 33 11 45 38c3 6 9 14 18 14c10 0 18 -7 18 -17c0 -3 -1 -9 -2 -12c-19 -58 -43 -75 -79 -75c-38 0 -94 41 -128 41c-22 0 -33 -11 -45 -38z" />
    <glyph glyph-name="Racute" unicode="&#x154;" horiz-adv-x="723" 
d="M104 22v652c0 14 12 26 26 26h268c86 0 155 -27 197 -69c33 -33 53 -80 53 -130v-2c0 -117 -87 -184 -205 -200l199 -258c5 -6 8 -12 8 -18c0 -14 -13 -27 -27 -27c-10 0 -17 6 -23 14l-215 280h-229v-268c0 -14 -12 -26 -26 -26s-26 12 -26 26zM156 337h236
c117 0 204 59 204 160v2c0 94 -74 153 -201 153h-239v-315zM350 762c-7 0 -13 4 -13 9c0 4 2 8 4 11l62 93c8 12 16 18 28 18c19 0 42 -13 42 -23c0 -6 -5 -12 -11 -18l-80 -77c-12 -11 -19 -13 -32 -13z" />
    <glyph glyph-name="racute" unicode="&#x155;" horiz-adv-x="400" 
d="M93 21v468c0 14 10 25 24 25s25 -10 25 -25v-124c44 99 133 153 205 153c15 0 26 -12 26 -27c0 -14 -10 -26 -26 -27c-108 -10 -205 -91 -205 -255v-188c0 -14 -10 -25 -24 -25s-25 10 -25 25zM210 592c-7 0 -13 4 -13 9c0 4 2 8 4 11l62 93c8 12 16 18 28 18
c19 0 42 -13 42 -23c0 -6 -5 -12 -11 -18l-80 -77c-12 -11 -19 -13 -32 -13z" />
    <glyph glyph-name="Rcaron" unicode="&#x158;" horiz-adv-x="723" 
d="M104 22v652c0 14 12 26 26 26h268c86 0 155 -27 197 -69c33 -33 53 -80 53 -130v-2c0 -117 -87 -184 -205 -200l199 -258c5 -6 8 -12 8 -18c0 -14 -13 -27 -27 -27c-10 0 -17 6 -23 14l-215 280h-229v-268c0 -14 -12 -26 -26 -26s-26 12 -26 26zM156 337h236
c117 0 204 59 204 160v2c0 94 -74 153 -201 153h-239v-315zM352 819l63 58c12 11 19 13 32 13c8 0 13 -5 13 -10c0 -4 -1 -7 -5 -12l-72 -88c-9 -11 -16 -18 -28 -18h-8c-12 0 -19 7 -28 18l-72 88c-4 5 -5 8 -5 12c0 5 5 10 14 10c13 0 21 -2 33 -13z" />
    <glyph glyph-name="rcaron" unicode="&#x159;" horiz-adv-x="400" 
d="M93 21v468c0 14 10 25 24 25s25 -10 25 -25v-124c44 99 133 153 205 153c15 0 26 -12 26 -27c0 -14 -10 -26 -26 -27c-108 -10 -205 -91 -205 -255v-188c0 -14 -10 -25 -24 -25s-25 10 -25 25zM212 649l63 58c12 11 19 13 32 13c8 0 13 -5 13 -10c0 -4 -1 -7 -5 -12
l-72 -88c-9 -11 -16 -18 -28 -18h-8c-12 0 -19 7 -28 18l-72 88c-4 5 -5 8 -5 12c0 5 5 10 14 10c13 0 21 -2 33 -13z" />
    <glyph glyph-name="Rcommaaccent" unicode="&#x156;" horiz-adv-x="723" 
d="M104 22v652c0 14 12 26 26 26h268c86 0 155 -27 197 -69c33 -33 53 -80 53 -130v-2c0 -117 -87 -184 -205 -200l199 -258c5 -6 8 -12 8 -18c0 -14 -13 -27 -27 -27c-10 0 -17 6 -23 14l-215 280h-229v-268c0 -14 -12 -26 -26 -26s-26 12 -26 26zM156 337h236
c117 0 204 59 204 160v2c0 94 -74 153 -201 153h-239v-315zM346 -142c-18 4 -32 15 -32 35v6c0 20 16 36 36 36s36 -15 36 -40v-6c0 -41 -6 -62 -24 -80c-17 -17 -49 -28 -64 -28c-8 0 -13 5 -13 11s3 11 13 14c36 10 48 23 48 52z" />
    <glyph glyph-name="rcommaaccent" unicode="&#x157;" horiz-adv-x="400" 
d="M93 21v468c0 14 10 25 24 25s25 -10 25 -25v-124c44 99 133 153 205 153c15 0 26 -12 26 -27c0 -14 -10 -26 -26 -27c-108 -10 -205 -91 -205 -255v-188c0 -14 -10 -25 -24 -25s-25 10 -25 25zM121 -147c-18 4 -32 15 -32 35v6c0 20 16 36 36 36s36 -15 36 -40v-6
c0 -41 -6 -62 -24 -80c-17 -17 -49 -28 -64 -28c-8 0 -13 5 -13 11s3 11 13 14c36 10 48 23 48 52z" />
    <glyph glyph-name="Sacute" unicode="&#x15a;" horiz-adv-x="640" 
d="M341 -10c-105 0 -187 33 -266 98c-5 4 -10 11 -10 20c0 14 12 26 26 26c7 0 13 -3 17 -6c70 -63 140 -91 236 -91c105 0 177 59 177 139v2c0 74 -39 117 -198 149c-168 34 -236 91 -236 197v2c0 104 95 184 225 184c94 0 159 -24 223 -72c5 -4 11 -11 11 -21
c0 -14 -12 -26 -26 -26c-6 0 -12 2 -17 6c-61 47 -122 66 -193 66c-103 0 -171 -59 -171 -132v-2c0 -74 38 -119 204 -153c162 -33 230 -91 230 -193v-2c0 -113 -97 -191 -232 -191zM327 772c-7 0 -13 4 -13 9c0 4 2 8 4 11l62 93c8 12 16 18 28 18c19 0 42 -13 42 -23
c0 -6 -5 -12 -11 -18l-80 -77c-12 -11 -19 -13 -32 -13z" />
    <glyph glyph-name="sacute" unicode="&#x15b;" horiz-adv-x="497" 
d="M258 -10c-69 0 -146 27 -198 66c-4 3 -9 11 -9 19c0 13 11 24 24 24c6 0 12 -2 16 -5c53 -38 109 -58 170 -58c69 0 123 38 123 97v2c0 60 -64 82 -135 102c-83 24 -175 49 -175 140v2c0 82 69 141 168 141c55 0 116 -18 165 -46c6 -4 13 -11 13 -22
c0 -13 -11 -24 -24 -24c-6 0 -11 2 -14 4c-44 26 -93 42 -142 42c-70 0 -116 -38 -116 -89v-2c0 -57 69 -78 142 -99c82 -23 168 -53 168 -143v-2c0 -91 -78 -149 -176 -149zM251 592c-7 0 -13 4 -13 9c0 4 2 8 4 11l62 93c8 12 16 18 28 18c19 0 42 -13 42 -23
c0 -6 -5 -12 -11 -18l-80 -77c-12 -11 -19 -13 -32 -13z" />
    <glyph glyph-name="Scaron" unicode="&#x160;" horiz-adv-x="640" 
d="M341 -10c-105 0 -187 33 -266 98c-5 4 -10 11 -10 20c0 14 12 26 26 26c7 0 13 -3 17 -6c70 -63 140 -91 236 -91c105 0 177 59 177 139v2c0 74 -39 117 -198 149c-168 34 -236 91 -236 197v2c0 104 95 184 225 184c94 0 159 -24 223 -72c5 -4 11 -11 11 -21
c0 -14 -12 -26 -26 -26c-6 0 -12 2 -17 6c-61 47 -122 66 -193 66c-103 0 -171 -59 -171 -132v-2c0 -74 38 -119 204 -153c162 -33 230 -91 230 -193v-2c0 -113 -97 -191 -232 -191zM329 829l63 58c12 11 19 13 32 13c8 0 13 -5 13 -10c0 -4 -1 -7 -5 -12l-72 -88
c-9 -11 -16 -18 -28 -18h-8c-12 0 -19 7 -28 18l-72 88c-4 5 -5 8 -5 12c0 5 5 10 14 10c13 0 21 -2 33 -13z" />
    <glyph glyph-name="scaron" unicode="&#x161;" horiz-adv-x="497" 
d="M258 -10c-69 0 -146 27 -198 66c-4 3 -9 11 -9 19c0 13 11 24 24 24c6 0 12 -2 16 -5c53 -38 109 -58 170 -58c69 0 123 38 123 97v2c0 60 -64 82 -135 102c-83 24 -175 49 -175 140v2c0 82 69 141 168 141c55 0 116 -18 165 -46c6 -4 13 -11 13 -22
c0 -13 -11 -24 -24 -24c-6 0 -11 2 -14 4c-44 26 -93 42 -142 42c-70 0 -116 -38 -116 -89v-2c0 -57 69 -78 142 -99c82 -23 168 -53 168 -143v-2c0 -91 -78 -149 -176 -149zM253 649l63 58c12 11 19 13 32 13c8 0 13 -5 13 -10c0 -4 -1 -7 -5 -12l-72 -88
c-9 -11 -16 -18 -28 -18h-8c-12 0 -19 7 -28 18l-72 88c-4 5 -5 8 -5 12c0 5 5 10 14 10c13 0 21 -2 33 -13z" />
    <glyph glyph-name="Scedilla" unicode="&#x15e;" horiz-adv-x="640" 
d="M573 181c0 -109 -90 -184 -217 -190l-55 -113c-6 -12 -11 -20 -26 -20c-16 0 -34 13 -34 24c0 4 1 8 5 15l64 94c-91 6 -164 38 -235 97c-5 4 -10 11 -10 20c0 14 12 26 26 26c7 0 13 -3 17 -6c70 -63 140 -91 236 -91c105 0 177 59 177 139v2c0 74 -39 117 -198 149
c-168 34 -236 91 -236 197v2c0 104 95 184 225 184c94 0 159 -24 223 -72c5 -4 11 -11 11 -21c0 -14 -12 -26 -26 -26c-6 0 -12 2 -17 6c-61 47 -122 66 -193 66c-103 0 -171 -59 -171 -132v-2c0 -74 38 -119 204 -153c162 -33 230 -91 230 -193v-2z" />
    <glyph glyph-name="scedilla" unicode="&#x15f;" horiz-adv-x="497" 
d="M434 139c0 -88 -73 -145 -167 -149l-55 -112c-6 -12 -11 -20 -26 -20c-16 0 -34 13 -34 24c0 4 1 8 5 15l65 96c-59 7 -119 30 -162 63c-4 3 -9 11 -9 19c0 13 11 24 24 24c6 0 12 -2 16 -5c53 -38 109 -58 170 -58c69 0 123 38 123 97v2c0 60 -64 82 -135 102
c-83 24 -175 49 -175 140v2c0 82 69 141 168 141c55 0 116 -18 165 -46c6 -4 13 -11 13 -22c0 -13 -11 -24 -24 -24c-6 0 -11 2 -14 4c-44 26 -93 42 -142 42c-70 0 -116 -38 -116 -89v-2c0 -57 69 -78 142 -99c82 -23 168 -53 168 -143v-2z" />
    <glyph glyph-name="Scommaaccent" unicode="&#x218;" horiz-adv-x="640" 
d="M341 -10c-105 0 -187 33 -266 98c-5 4 -10 11 -10 20c0 14 12 26 26 26c7 0 13 -3 17 -6c70 -63 140 -91 236 -91c105 0 177 59 177 139v2c0 74 -39 117 -198 149c-168 34 -236 91 -236 197v2c0 104 95 184 225 184c94 0 159 -24 223 -72c5 -4 11 -11 11 -21
c0 -14 -12 -26 -26 -26c-6 0 -12 2 -17 6c-61 47 -122 66 -193 66c-103 0 -171 -59 -171 -132v-2c0 -74 38 -119 204 -153c162 -33 230 -91 230 -193v-2c0 -113 -97 -191 -232 -191zM323 -147c-18 4 -32 15 -32 35v6c0 20 16 36 36 36s36 -15 36 -40v-6
c0 -41 -6 -62 -24 -80c-17 -17 -49 -28 -64 -28c-8 0 -13 5 -13 11s3 11 13 14c36 10 48 23 48 52z" />
    <glyph glyph-name="scommaaccent" unicode="&#x219;" horiz-adv-x="497" 
d="M258 -10c-69 0 -146 27 -198 66c-4 3 -9 11 -9 19c0 13 11 24 24 24c6 0 12 -2 16 -5c53 -38 109 -58 170 -58c69 0 123 38 123 97v2c0 60 -64 82 -135 102c-83 24 -175 49 -175 140v2c0 82 69 141 168 141c55 0 116 -18 165 -46c6 -4 13 -11 13 -22
c0 -13 -11 -24 -24 -24c-6 0 -11 2 -14 4c-44 26 -93 42 -142 42c-70 0 -116 -38 -116 -89v-2c0 -57 69 -78 142 -99c82 -23 168 -53 168 -143v-2c0 -91 -78 -149 -176 -149zM247 -147c-18 4 -32 15 -32 35v6c0 20 16 36 36 36s36 -15 36 -40v-6c0 -41 -6 -62 -24 -80
c-17 -17 -49 -28 -64 -28c-8 0 -13 5 -13 11s3 11 13 14c36 10 48 23 48 52z" />
    <glyph glyph-name="Tcaron" unicode="&#x164;" horiz-adv-x="648" 
d="M298 22v630h-224c-13 0 -24 11 -24 24s11 24 24 24h500c13 0 24 -11 24 -24s-11 -24 -24 -24h-224v-630c0 -14 -12 -26 -26 -26s-26 12 -26 26zM325 819l63 58c12 11 19 13 32 13c8 0 13 -5 13 -10c0 -4 -1 -7 -5 -12l-72 -88c-9 -11 -16 -18 -28 -18h-8
c-12 0 -19 7 -28 18l-72 88c-4 5 -5 8 -5 12c0 5 5 10 14 10c13 0 21 -2 33 -13z" />
    <glyph glyph-name="tcaron" unicode="&#x165;" horiz-adv-x="400" 
d="M263 -9c-79 0 -143 43 -143 140v334h-55c-12 0 -23 11 -23 23s11 22 23 22h55v142c0 14 10 25 24 25s25 -11 25 -25v-142h160c12 0 23 -11 23 -23s-11 -22 -23 -22h-160v-329c0 -73 43 -99 102 -99c35 0 51 10 58 10c11 0 22 -10 22 -22c0 -10 -6 -17 -16 -21
c-20 -7 -43 -13 -72 -13zM290 595l12 111c3 18 12 26 28 26h13c10 0 17 -5 17 -17c0 -6 -3 -15 -6 -24l-33 -97c-4 -13 -8 -18 -17 -18s-16 4 -14 19z" />
    <glyph glyph-name="Tcommaaccent" unicode="&#x162;" horiz-adv-x="648" 
d="M298 22v630h-224c-13 0 -24 11 -24 24s11 24 24 24h500c13 0 24 -11 24 -24s-11 -24 -24 -24h-224v-630c0 -14 -12 -26 -26 -26s-26 12 -26 26zM319 -147c-18 4 -32 15 -32 35v6c0 20 16 36 36 36s36 -15 36 -40v-6c0 -41 -6 -62 -24 -80c-17 -17 -49 -28 -64 -28
c-8 0 -13 5 -13 11s3 11 13 14c36 10 48 23 48 52z" />
    <glyph glyph-name="tcommaaccent" unicode="&#x163;" horiz-adv-x="400" 
d="M263 -9c-79 0 -143 43 -143 140v334h-55c-12 0 -23 11 -23 23s11 22 23 22h55v142c0 14 10 25 24 25s25 -11 25 -25v-142h160c12 0 23 -11 23 -23s-11 -22 -23 -22h-160v-329c0 -73 43 -99 102 -99c35 0 51 10 58 10c11 0 22 -10 22 -22c0 -10 -6 -17 -16 -21
c-20 -7 -43 -13 -72 -13zM221 -147c-18 4 -32 15 -32 35v6c0 20 16 36 36 36s36 -15 36 -40v-6c0 -41 -6 -62 -24 -80c-17 -17 -49 -28 -64 -28c-8 0 -13 5 -13 11s3 11 13 14c36 10 48 23 48 52z" />
    <glyph glyph-name="Thorn" unicode="&#xde;" horiz-adv-x="673" 
d="M104 22v656c0 14 12 26 26 26s26 -12 26 -26v-105h202c154 0 260 -79 260 -214v-2c0 -147 -127 -224 -273 -224h-189v-111c0 -14 -12 -26 -26 -26s-26 12 -26 26zM156 181h192c130 0 218 69 218 173v2c0 111 -86 169 -212 169h-198v-344z" />
    <glyph glyph-name="thorn" unicode="&#xfe;" 
d="M93 -139v848c0 15 10 25 24 25s25 -10 25 -25v-313c44 67 109 126 210 126c123 0 248 -99 248 -265v-2c0 -166 -125 -267 -248 -267c-102 0 -168 58 -210 122v-249c0 -15 -10 -25 -24 -25s-25 10 -25 25zM347 35c111 0 200 81 200 218v2c0 134 -93 220 -200 220
c-106 0 -208 -89 -208 -219v-2c0 -131 102 -219 208 -219z" />
    <glyph glyph-name="Uacute" unicode="&#xda;" horiz-adv-x="760" 
d="M380 -11c-168 0 -287 106 -287 302v387c0 14 12 26 26 26s26 -12 26 -26v-382c0 -165 89 -260 237 -260c142 0 233 86 233 255v387c0 14 12 26 26 26s26 -12 26 -26v-381c0 -201 -117 -308 -287 -308zM379 762c-7 0 -13 4 -13 9c0 4 2 8 4 11l62 93c8 12 16 18 28 18
c19 0 42 -13 42 -23c0 -6 -5 -12 -11 -18l-80 -77c-12 -11 -19 -13 -32 -13z" />
    <glyph glyph-name="uacute" unicode="&#xfa;" horiz-adv-x="613" 
d="M520 489v-468c0 -14 -10 -25 -24 -25s-25 10 -25 25v74c-34 -60 -91 -107 -184 -107c-129 0 -204 88 -204 210v291c0 15 10 25 24 25s25 -10 25 -25v-282c0 -105 59 -174 162 -174c100 0 177 76 177 182v274c0 15 10 25 24 25s25 -10 25 -25zM300 592c-7 0 -13 4 -13 9
c0 4 2 8 4 11l62 93c8 12 16 18 28 18c19 0 42 -13 42 -23c0 -6 -5 -12 -11 -18l-80 -77c-12 -11 -19 -13 -32 -13z" />
    <glyph glyph-name="Ubreve" unicode="&#x16c;" horiz-adv-x="760" 
d="M380 -11c-168 0 -287 106 -287 302v387c0 14 12 26 26 26s26 -12 26 -26v-382c0 -165 89 -260 237 -260c142 0 233 86 233 255v387c0 14 12 26 26 26s26 -12 26 -26v-381c0 -201 -117 -308 -287 -308zM380 763c-53 0 -95 23 -119 68c-6 11 -11 28 -11 38c0 13 7 22 19 22
s17 -6 21 -17c13 -34 40 -60 90 -60s77 26 90 60c4 11 9 17 21 17s19 -9 19 -22c0 -10 -5 -27 -11 -38c-24 -45 -66 -68 -119 -68z" />
    <glyph glyph-name="ubreve" unicode="&#x16d;" horiz-adv-x="613" 
d="M520 489v-468c0 -14 -10 -25 -24 -25s-25 10 -25 25v74c-34 -60 -91 -107 -184 -107c-129 0 -204 88 -204 210v291c0 15 10 25 24 25s25 -10 25 -25v-282c0 -105 59 -174 162 -174c100 0 177 76 177 182v274c0 15 10 25 24 25s25 -10 25 -25zM301 593
c-53 0 -95 23 -119 68c-6 11 -11 28 -11 38c0 13 7 22 19 22s17 -6 21 -17c13 -34 40 -60 90 -60s77 26 90 60c4 11 9 17 21 17s19 -9 19 -22c0 -10 -5 -27 -11 -38c-24 -45 -66 -68 -119 -68z" />
    <glyph glyph-name="Ucircumflex" unicode="&#xdb;" horiz-adv-x="760" 
d="M380 -11c-168 0 -287 106 -287 302v387c0 14 12 26 26 26s26 -12 26 -26v-382c0 -165 89 -260 237 -260c142 0 233 86 233 255v387c0 14 12 26 26 26s26 -12 26 -26v-381c0 -201 -117 -308 -287 -308zM379 833l-63 -58c-12 -11 -19 -13 -32 -13c-8 0 -13 5 -13 10
c0 4 1 7 5 12l72 88c9 11 16 18 28 18h8c12 0 19 -7 28 -18l72 -88c4 -5 5 -8 5 -12c0 -5 -5 -10 -14 -10c-13 0 -21 2 -33 13z" />
    <glyph glyph-name="ucircumflex" unicode="&#xfb;" horiz-adv-x="613" 
d="M520 489v-468c0 -14 -10 -25 -24 -25s-25 10 -25 25v74c-34 -60 -91 -107 -184 -107c-129 0 -204 88 -204 210v291c0 15 10 25 24 25s25 -10 25 -25v-282c0 -105 59 -174 162 -174c100 0 177 76 177 182v274c0 15 10 25 24 25s25 -10 25 -25zM300 663l-63 -58
c-12 -11 -19 -13 -32 -13c-8 0 -13 5 -13 10c0 4 1 7 5 12l72 88c9 11 16 18 28 18h8c12 0 19 -7 28 -18l72 -88c4 -5 5 -8 5 -12c0 -5 -5 -10 -14 -10c-13 0 -21 2 -33 13z" />
    <glyph glyph-name="Udieresis" unicode="&#xdc;" horiz-adv-x="760" 
d="M380 -11c-168 0 -287 106 -287 302v387c0 14 12 26 26 26s26 -12 26 -26v-382c0 -165 89 -260 237 -260c142 0 233 86 233 255v387c0 14 12 26 26 26s26 -12 26 -26v-381c0 -201 -117 -308 -287 -308zM462 849c20 0 35 -14 35 -34v-20c0 -20 -15 -34 -35 -34
s-35 14 -35 34v20c0 20 15 34 35 34zM298 849c20 0 35 -14 35 -34v-20c0 -20 -15 -34 -35 -34s-35 14 -35 34v20c0 20 15 34 35 34z" />
    <glyph glyph-name="udieresis" unicode="&#xfc;" horiz-adv-x="613" 
d="M520 489v-468c0 -14 -10 -25 -24 -25s-25 10 -25 25v74c-34 -60 -91 -107 -184 -107c-129 0 -204 88 -204 210v291c0 15 10 25 24 25s25 -10 25 -25v-282c0 -105 59 -174 162 -174c100 0 177 76 177 182v274c0 15 10 25 24 25s25 -10 25 -25zM383 679c20 0 35 -14 35 -34
v-20c0 -20 -15 -34 -35 -34s-35 14 -35 34v20c0 20 15 34 35 34zM219 679c20 0 35 -14 35 -34v-20c0 -20 -15 -34 -35 -34s-35 14 -35 34v20c0 20 15 34 35 34z" />
    <glyph glyph-name="Ugrave" unicode="&#xd9;" horiz-adv-x="760" 
d="M380 -11c-168 0 -287 106 -287 302v387c0 14 12 26 26 26s26 -12 26 -26v-382c0 -165 89 -260 237 -260c142 0 233 86 233 255v387c0 14 12 26 26 26s26 -12 26 -26v-381c0 -201 -117 -308 -287 -308zM381 762c-13 0 -20 2 -32 13l-80 77c-6 6 -11 12 -11 18
c0 10 23 23 42 23c12 0 20 -6 28 -18l62 -93c2 -3 4 -7 4 -11c0 -5 -6 -9 -13 -9z" />
    <glyph glyph-name="ugrave" unicode="&#xf9;" horiz-adv-x="613" 
d="M520 489v-468c0 -14 -10 -25 -24 -25s-25 10 -25 25v74c-34 -60 -91 -107 -184 -107c-129 0 -204 88 -204 210v291c0 15 10 25 24 25s25 -10 25 -25v-282c0 -105 59 -174 162 -174c100 0 177 76 177 182v274c0 15 10 25 24 25s25 -10 25 -25zM302 592c-13 0 -20 2 -32 13
l-80 77c-6 6 -11 12 -11 18c0 10 23 23 42 23c12 0 20 -6 28 -18l62 -93c2 -3 4 -7 4 -11c0 -5 -6 -9 -13 -9z" />
    <glyph glyph-name="Uhungarumlaut" unicode="&#x170;" horiz-adv-x="760" 
d="M380 -11c-168 0 -287 106 -287 302v387c0 14 12 26 26 26s26 -12 26 -26v-382c0 -165 89 -260 237 -260c142 0 233 86 233 255v387c0 14 12 26 26 26s26 -12 26 -26v-381c0 -201 -117 -308 -287 -308zM442 762c-7 0 -13 4 -13 9c0 4 2 8 4 11l63 94c8 12 15 17 27 17
c18 0 39 -12 39 -22c0 -6 -4 -11 -10 -17l-78 -79c-12 -11 -19 -13 -32 -13zM290 762c-7 0 -13 4 -13 9c0 4 2 8 4 11l63 94c8 12 15 17 27 17c18 0 39 -12 39 -22c0 -6 -4 -11 -10 -17l-78 -79c-12 -11 -19 -13 -32 -13z" />
    <glyph glyph-name="uhungarumlaut" unicode="&#x171;" horiz-adv-x="613" 
d="M520 489v-468c0 -14 -10 -25 -24 -25s-25 10 -25 25v74c-34 -60 -91 -107 -184 -107c-129 0 -204 88 -204 210v291c0 15 10 25 24 25s25 -10 25 -25v-282c0 -105 59 -174 162 -174c100 0 177 76 177 182v274c0 15 10 25 24 25s25 -10 25 -25zM363 592c-7 0 -13 4 -13 9
c0 4 2 8 4 11l63 94c8 12 15 17 27 17c18 0 39 -12 39 -22c0 -6 -4 -11 -10 -17l-78 -79c-12 -11 -19 -13 -32 -13zM211 592c-7 0 -13 4 -13 9c0 4 2 8 4 11l63 94c8 12 15 17 27 17c18 0 39 -12 39 -22c0 -6 -4 -11 -10 -17l-78 -79c-12 -11 -19 -13 -32 -13z" />
    <glyph glyph-name="Umacron" unicode="&#x16a;" horiz-adv-x="760" 
d="M380 -11c-168 0 -287 106 -287 302v387c0 14 12 26 26 26s26 -12 26 -26v-382c0 -165 89 -260 237 -260c142 0 233 86 233 255v387c0 14 12 26 26 26s26 -12 26 -26v-381c0 -201 -117 -308 -287 -308zM512 791h-264c-13 0 -24 11 -24 24s11 24 24 24h264
c13 0 24 -11 24 -24s-11 -24 -24 -24z" />
    <glyph glyph-name="umacron" unicode="&#x16b;" horiz-adv-x="613" 
d="M520 489v-468c0 -14 -10 -25 -24 -25s-25 10 -25 25v74c-34 -60 -91 -107 -184 -107c-129 0 -204 88 -204 210v291c0 15 10 25 24 25s25 -10 25 -25v-282c0 -105 59 -174 162 -174c100 0 177 76 177 182v274c0 15 10 25 24 25s25 -10 25 -25zM433 621h-264
c-13 0 -24 11 -24 24s11 24 24 24h264c13 0 24 -11 24 -24s-11 -24 -24 -24z" />
    <glyph glyph-name="Uogonek" unicode="&#x172;" horiz-adv-x="760" 
d="M311 -85c0 28 14 51 40 76c-153 11 -258 115 -258 300v387c0 14 12 26 26 26s26 -12 26 -26v-382c0 -165 89 -260 237 -260c142 0 233 86 233 255v387c0 14 12 26 26 26s26 -12 26 -26v-381c0 -191 -106 -297 -262 -307c-30 -26 -44 -44 -44 -69c0 -28 21 -40 53 -46
c21 -4 27 -10 27 -20c0 -11 -8 -18 -20 -18c-19 0 -110 8 -110 78z" />
    <glyph glyph-name="uogonek" unicode="&#x173;" horiz-adv-x="613" 
d="M520 489v-472c0 -11 -3 -17 -14 -26c-31 -26 -46 -44 -46 -70c0 -28 21 -40 53 -46c21 -4 27 -10 27 -20c0 -11 -8 -18 -20 -18c-19 0 -110 8 -110 78c0 35 21 62 61 93v87c-34 -60 -91 -107 -184 -107c-129 0 -204 88 -204 210v291c0 15 10 25 24 25s25 -10 25 -25v-282
c0 -105 59 -174 162 -174c100 0 177 76 177 182v274c0 15 10 25 24 25s25 -10 25 -25z" />
    <glyph glyph-name="Uring" unicode="&#x16e;" horiz-adv-x="760" 
d="M380 -11c-168 0 -287 106 -287 302v387c0 14 12 26 26 26s26 -12 26 -26v-382c0 -165 89 -260 237 -260c142 0 233 86 233 255v387c0 14 12 26 26 26s26 -12 26 -26v-381c0 -201 -117 -308 -287 -308zM380 753c-52 0 -98 42 -98 93v2c0 51 46 93 98 93s98 -42 98 -93v-2
c0 -51 -46 -93 -98 -93zM380 785c33 0 62 28 62 61v2c0 33 -28 61 -62 61s-62 -28 -62 -61v-2c0 -33 29 -61 62 -61z" />
    <glyph glyph-name="uring" unicode="&#x16f;" horiz-adv-x="613" 
d="M520 489v-468c0 -14 -10 -25 -24 -25s-25 10 -25 25v74c-34 -60 -91 -107 -184 -107c-129 0 -204 88 -204 210v291c0 15 10 25 24 25s25 -10 25 -25v-282c0 -105 59 -174 162 -174c100 0 177 76 177 182v274c0 15 10 25 24 25s25 -10 25 -25zM301 588
c-52 0 -98 42 -98 93v2c0 51 46 93 98 93s98 -42 98 -93v-2c0 -51 -46 -93 -98 -93zM301 620c33 0 62 28 62 61v2c0 33 -28 61 -62 61s-62 -28 -62 -61v-2c0 -33 29 -61 62 -61z" />
    <glyph glyph-name="Wacute" unicode="&#x1e82;" horiz-adv-x="1102" 
d="M297 15l-234 649c-2 5 -3 9 -3 13c0 14 13 27 27 27s24 -12 28 -24l213 -603l199 607c4 11 11 20 25 20h2c13 0 21 -9 25 -20l199 -607l214 606c5 13 13 21 25 21c13 0 26 -13 26 -26c0 -4 -2 -9 -4 -14l-234 -649c-5 -13 -13 -23 -27 -23h-2c-14 0 -23 10 -27 23
l-198 588l-198 -588c-4 -13 -13 -23 -27 -23h-2c-14 0 -22 9 -27 23zM550 762c-7 0 -13 4 -13 9c0 4 2 8 4 11l62 93c8 12 16 18 28 18c19 0 42 -13 42 -23c0 -6 -5 -12 -11 -18l-80 -77c-12 -11 -19 -13 -32 -13z" />
    <glyph glyph-name="wacute" unicode="&#x1e83;" horiz-adv-x="861" 
d="M256 -7c-12 0 -22 8 -27 22l-167 459c-2 5 -4 11 -4 16c0 13 12 24 26 24s22 -9 26 -21l148 -431l148 433c4 11 11 19 24 19h2c14 0 21 -8 25 -19l148 -433l149 433c3 10 10 19 24 19s25 -11 25 -23c0 -6 -2 -12 -4 -17l-167 -459c-5 -14 -15 -22 -27 -22h-2
c-13 0 -22 8 -27 23l-145 417l-146 -417c-5 -15 -14 -23 -27 -23h-2zM429 592c-7 0 -13 4 -13 9c0 4 2 8 4 11l62 93c8 12 16 18 28 18c19 0 42 -13 42 -23c0 -6 -5 -12 -11 -18l-80 -77c-12 -11 -19 -13 -32 -13z" />
    <glyph glyph-name="Wcircumflex" unicode="&#x174;" horiz-adv-x="1102" 
d="M297 15l-234 649c-2 5 -3 9 -3 13c0 14 13 27 27 27s24 -12 28 -24l213 -603l199 607c4 11 11 20 25 20h2c13 0 21 -9 25 -20l199 -607l214 606c5 13 13 21 25 21c13 0 26 -13 26 -26c0 -4 -2 -9 -4 -14l-234 -649c-5 -13 -13 -23 -27 -23h-2c-14 0 -23 10 -27 23
l-198 588l-198 -588c-4 -13 -13 -23 -27 -23h-2c-14 0 -22 9 -27 23zM550 833l-63 -58c-12 -11 -19 -13 -32 -13c-8 0 -13 5 -13 10c0 4 1 7 5 12l72 88c9 11 16 18 28 18h8c12 0 19 -7 28 -18l72 -88c4 -5 5 -8 5 -12c0 -5 -5 -10 -14 -10c-13 0 -21 2 -33 13z" />
    <glyph glyph-name="wcircumflex" unicode="&#x175;" horiz-adv-x="861" 
d="M256 -7c-12 0 -22 8 -27 22l-167 459c-2 5 -4 11 -4 16c0 13 12 24 26 24s22 -9 26 -21l148 -431l148 433c4 11 11 19 24 19h2c14 0 21 -8 25 -19l148 -433l149 433c3 10 10 19 24 19s25 -11 25 -23c0 -6 -2 -12 -4 -17l-167 -459c-5 -14 -15 -22 -27 -22h-2
c-13 0 -22 8 -27 23l-145 417l-146 -417c-5 -15 -14 -23 -27 -23h-2zM429 663l-63 -58c-12 -11 -19 -13 -32 -13c-8 0 -13 5 -13 10c0 4 1 7 5 12l72 88c9 11 16 18 28 18h8c12 0 19 -7 28 -18l72 -88c4 -5 5 -8 5 -12c0 -5 -5 -10 -14 -10c-13 0 -21 2 -33 13z" />
    <glyph glyph-name="Wdieresis" unicode="&#x1e84;" horiz-adv-x="1102" 
d="M297 15l-234 649c-2 5 -3 9 -3 13c0 14 13 27 27 27s24 -12 28 -24l213 -603l199 607c4 11 11 20 25 20h2c13 0 21 -9 25 -20l199 -607l214 606c5 13 13 21 25 21c13 0 26 -13 26 -26c0 -4 -2 -9 -4 -14l-234 -649c-5 -13 -13 -23 -27 -23h-2c-14 0 -23 10 -27 23
l-198 588l-198 -588c-4 -13 -13 -23 -27 -23h-2c-14 0 -22 9 -27 23zM633 849c20 0 35 -14 35 -34v-20c0 -20 -15 -34 -35 -34s-35 14 -35 34v20c0 20 15 34 35 34zM469 849c20 0 35 -14 35 -34v-20c0 -20 -15 -34 -35 -34s-35 14 -35 34v20c0 20 15 34 35 34z" />
    <glyph glyph-name="wdieresis" unicode="&#x1e85;" horiz-adv-x="861" 
d="M256 -7c-12 0 -22 8 -27 22l-167 459c-2 5 -4 11 -4 16c0 13 12 24 26 24s22 -9 26 -21l148 -431l148 433c4 11 11 19 24 19h2c14 0 21 -8 25 -19l148 -433l149 433c3 10 10 19 24 19s25 -11 25 -23c0 -6 -2 -12 -4 -17l-167 -459c-5 -14 -15 -22 -27 -22h-2
c-13 0 -22 8 -27 23l-145 417l-146 -417c-5 -15 -14 -23 -27 -23h-2zM512 679c20 0 35 -14 35 -34v-20c0 -20 -15 -34 -35 -34s-35 14 -35 34v20c0 20 15 34 35 34zM348 679c20 0 35 -14 35 -34v-20c0 -20 -15 -34 -35 -34s-35 14 -35 34v20c0 20 15 34 35 34z" />
    <glyph glyph-name="Wgrave" unicode="&#x1e80;" horiz-adv-x="1102" 
d="M297 15l-234 649c-2 5 -3 9 -3 13c0 14 13 27 27 27s24 -12 28 -24l213 -603l199 607c4 11 11 20 25 20h2c13 0 21 -9 25 -20l199 -607l214 606c5 13 13 21 25 21c13 0 26 -13 26 -26c0 -4 -2 -9 -4 -14l-234 -649c-5 -13 -13 -23 -27 -23h-2c-14 0 -23 10 -27 23
l-198 588l-198 -588c-4 -13 -13 -23 -27 -23h-2c-14 0 -22 9 -27 23zM552 762c-13 0 -20 2 -32 13l-80 77c-6 6 -11 12 -11 18c0 10 23 23 42 23c12 0 20 -6 28 -18l62 -93c2 -3 4 -7 4 -11c0 -5 -6 -9 -13 -9z" />
    <glyph glyph-name="wgrave" unicode="&#x1e81;" horiz-adv-x="861" 
d="M256 -7c-12 0 -22 8 -27 22l-167 459c-2 5 -4 11 -4 16c0 13 12 24 26 24s22 -9 26 -21l148 -431l148 433c4 11 11 19 24 19h2c14 0 21 -8 25 -19l148 -433l149 433c3 10 10 19 24 19s25 -11 25 -23c0 -6 -2 -12 -4 -17l-167 -459c-5 -14 -15 -22 -27 -22h-2
c-13 0 -22 8 -27 23l-145 417l-146 -417c-5 -15 -14 -23 -27 -23h-2zM431 592c-13 0 -20 2 -32 13l-80 77c-6 6 -11 12 -11 18c0 10 23 23 42 23c12 0 20 -6 28 -18l62 -93c2 -3 4 -7 4 -11c0 -5 -6 -9 -13 -9z" />
    <glyph glyph-name="Yacute" unicode="&#xdd;" horiz-adv-x="716" 
d="M332 22v255l-273 385c-3 5 -5 11 -5 16c0 14 13 26 27 26c11 0 18 -6 24 -15l254 -365l255 365c6 8 12 15 23 15c13 0 26 -12 26 -25c0 -7 -4 -14 -8 -20l-271 -381v-256c0 -14 -12 -26 -26 -26s-26 12 -26 26zM357 762c-7 0 -13 4 -13 9c0 4 2 8 4 11l62 93
c8 12 16 18 28 18c19 0 42 -13 42 -23c0 -6 -5 -12 -11 -18l-80 -77c-12 -11 -19 -13 -32 -13z" />
    <glyph glyph-name="yacute" unicode="&#xfd;" horiz-adv-x="588" 
d="M155 -163c-34 0 -60 6 -87 16c-8 3 -14 10 -14 21c0 13 10 23 23 23c5 0 10 -2 16 -4c16 -6 34 -10 65 -10c56 0 90 37 123 113l3 7l-228 471c-2 5 -4 10 -4 15c0 14 11 25 26 25s21 -9 26 -20l204 -440l178 442c4 10 11 18 24 18c14 0 25 -11 25 -25c0 -5 -1 -8 -3 -13
l-207 -494c-45 -107 -97 -145 -170 -145zM297 592c-7 0 -13 4 -13 9c0 4 2 8 4 11l62 93c8 12 16 18 28 18c19 0 42 -13 42 -23c0 -6 -5 -12 -11 -18l-80 -77c-12 -11 -19 -13 -32 -13z" />
    <glyph glyph-name="Ycircumflex" unicode="&#x176;" horiz-adv-x="716" 
d="M332 22v255l-273 385c-3 5 -5 11 -5 16c0 14 13 26 27 26c11 0 18 -6 24 -15l254 -365l255 365c6 8 12 15 23 15c13 0 26 -12 26 -25c0 -7 -4 -14 -8 -20l-271 -381v-256c0 -14 -12 -26 -26 -26s-26 12 -26 26zM357 833l-63 -58c-12 -11 -19 -13 -32 -13
c-8 0 -13 5 -13 10c0 4 1 7 5 12l72 88c9 11 16 18 28 18h8c12 0 19 -7 28 -18l72 -88c4 -5 5 -8 5 -12c0 -5 -5 -10 -14 -10c-13 0 -21 2 -33 13z" />
    <glyph glyph-name="ycircumflex" unicode="&#x177;" horiz-adv-x="588" 
d="M155 -163c-34 0 -60 6 -87 16c-8 3 -14 10 -14 21c0 13 10 23 23 23c5 0 10 -2 16 -4c16 -6 34 -10 65 -10c56 0 90 37 123 113l3 7l-228 471c-2 5 -4 10 -4 15c0 14 11 25 26 25s21 -9 26 -20l204 -440l178 442c4 10 11 18 24 18c14 0 25 -11 25 -25c0 -5 -1 -8 -3 -13
l-207 -494c-45 -107 -97 -145 -170 -145zM297 663l-63 -58c-12 -11 -19 -13 -32 -13c-8 0 -13 5 -13 10c0 4 1 7 5 12l72 88c9 11 16 18 28 18h8c12 0 19 -7 28 -18l72 -88c4 -5 5 -8 5 -12c0 -5 -5 -10 -14 -10c-13 0 -21 2 -33 13z" />
    <glyph glyph-name="Ydieresis" unicode="&#x178;" horiz-adv-x="716" 
d="M332 22v255l-273 385c-3 5 -5 11 -5 16c0 14 13 26 27 26c11 0 18 -6 24 -15l254 -365l255 365c6 8 12 15 23 15c13 0 26 -12 26 -25c0 -7 -4 -14 -8 -20l-271 -381v-256c0 -14 -12 -26 -26 -26s-26 12 -26 26zM440 849c20 0 35 -14 35 -34v-20c0 -20 -15 -34 -35 -34
s-35 14 -35 34v20c0 20 15 34 35 34zM276 849c20 0 35 -14 35 -34v-20c0 -20 -15 -34 -35 -34s-35 14 -35 34v20c0 20 15 34 35 34z" />
    <glyph glyph-name="ydieresis" unicode="&#xff;" horiz-adv-x="588" 
d="M155 -163c-34 0 -60 6 -87 16c-8 3 -14 10 -14 21c0 13 10 23 23 23c5 0 10 -2 16 -4c16 -6 34 -10 65 -10c56 0 90 37 123 113l3 7l-228 471c-2 5 -4 10 -4 15c0 14 11 25 26 25s21 -9 26 -20l204 -440l178 442c4 10 11 18 24 18c14 0 25 -11 25 -25c0 -5 -1 -8 -3 -13
l-207 -494c-45 -107 -97 -145 -170 -145zM380 679c20 0 35 -14 35 -34v-20c0 -20 -15 -34 -35 -34s-35 14 -35 34v20c0 20 15 34 35 34zM216 679c20 0 35 -14 35 -34v-20c0 -20 -15 -34 -35 -34s-35 14 -35 34v20c0 20 15 34 35 34z" />
    <glyph glyph-name="Ygrave" unicode="&#x1ef2;" horiz-adv-x="716" 
d="M332 22v255l-273 385c-3 5 -5 11 -5 16c0 14 13 26 27 26c11 0 18 -6 24 -15l254 -365l255 365c6 8 12 15 23 15c13 0 26 -12 26 -25c0 -7 -4 -14 -8 -20l-271 -381v-256c0 -14 -12 -26 -26 -26s-26 12 -26 26zM359 762c-13 0 -20 2 -32 13l-80 77c-6 6 -11 12 -11 18
c0 10 23 23 42 23c12 0 20 -6 28 -18l62 -93c2 -3 4 -7 4 -11c0 -5 -6 -9 -13 -9z" />
    <glyph glyph-name="ygrave" unicode="&#x1ef3;" horiz-adv-x="588" 
d="M155 -163c-34 0 -60 6 -87 16c-8 3 -14 10 -14 21c0 13 10 23 23 23c5 0 10 -2 16 -4c16 -6 34 -10 65 -10c56 0 90 37 123 113l3 7l-228 471c-2 5 -4 10 -4 15c0 14 11 25 26 25s21 -9 26 -20l204 -440l178 442c4 10 11 18 24 18c14 0 25 -11 25 -25c0 -5 -1 -8 -3 -13
l-207 -494c-45 -107 -97 -145 -170 -145zM299 592c-13 0 -20 2 -32 13l-80 77c-6 6 -11 12 -11 18c0 10 23 23 42 23c12 0 20 -6 28 -18l62 -93c2 -3 4 -7 4 -11c0 -5 -6 -9 -13 -9z" />
    <glyph glyph-name="Zacute" unicode="&#x179;" horiz-adv-x="688" 
d="M96 0c-13 0 -25 11 -25 22v1c0 9 3 14 9 22l467 608h-442c-13 0 -24 10 -24 23s11 24 24 24h488c13 0 25 -11 25 -22v-1c0 -9 -3 -14 -9 -22l-467 -608h459c13 0 24 -10 24 -23s-11 -24 -24 -24h-505zM352 762c-7 0 -13 4 -13 9c0 4 2 8 4 11l62 93c8 12 16 18 28 18
c19 0 42 -13 42 -23c0 -6 -5 -12 -11 -18l-80 -77c-12 -11 -19 -13 -32 -13z" />
    <glyph glyph-name="zacute" unicode="&#x17a;" horiz-adv-x="554" 
d="M84 0c-12 0 -23 10 -23 20v1c0 8 3 14 9 21l356 424h-336c-12 0 -22 10 -22 22s10 22 22 22h383c12 0 23 -10 23 -20v-1c0 -8 -3 -14 -9 -21l-356 -424h350c12 0 22 -10 22 -22s-10 -22 -22 -22h-397zM281 592c-7 0 -13 4 -13 9c0 4 2 8 4 11l62 93c8 12 16 18 28 18
c19 0 42 -13 42 -23c0 -6 -5 -12 -11 -18l-80 -77c-12 -11 -19 -13 -32 -13z" />
    <glyph glyph-name="Zcaron" unicode="&#x17d;" horiz-adv-x="688" 
d="M96 0c-13 0 -25 11 -25 22v1c0 9 3 14 9 22l467 608h-442c-13 0 -24 10 -24 23s11 24 24 24h488c13 0 25 -11 25 -22v-1c0 -9 -3 -14 -9 -22l-467 -608h459c13 0 24 -10 24 -23s-11 -24 -24 -24h-505zM354 819l63 58c12 11 19 13 32 13c8 0 13 -5 13 -10
c0 -4 -1 -7 -5 -12l-72 -88c-9 -11 -16 -18 -28 -18h-8c-12 0 -19 7 -28 18l-72 88c-4 5 -5 8 -5 12c0 5 5 10 14 10c13 0 21 -2 33 -13z" />
    <glyph glyph-name="zcaron" unicode="&#x17e;" horiz-adv-x="554" 
d="M84 0c-12 0 -23 10 -23 20v1c0 8 3 14 9 21l356 424h-336c-12 0 -22 10 -22 22s10 22 22 22h383c12 0 23 -10 23 -20v-1c0 -8 -3 -14 -9 -21l-356 -424h350c12 0 22 -10 22 -22s-10 -22 -22 -22h-397zM283 649l63 58c12 11 19 13 32 13c8 0 13 -5 13 -10
c0 -4 -1 -7 -5 -12l-72 -88c-9 -11 -16 -18 -28 -18h-8c-12 0 -19 7 -28 18l-72 88c-4 5 -5 8 -5 12c0 5 5 10 14 10c13 0 21 -2 33 -13z" />
    <glyph glyph-name="Zdotaccent" unicode="&#x17b;" horiz-adv-x="688" 
d="M96 0c-13 0 -25 11 -25 22v1c0 9 3 14 9 22l467 608h-442c-13 0 -24 10 -24 23s11 24 24 24h488c13 0 25 -11 25 -22v-1c0 -9 -3 -14 -9 -22l-467 -608h459c13 0 24 -10 24 -23s-11 -24 -24 -24h-505zM389 815v-19c0 -21 -15 -35 -36 -35s-36 14 -36 35v19
c0 21 15 35 36 35s36 -14 36 -35z" />
    <glyph glyph-name="zdotaccent" unicode="&#x17c;" horiz-adv-x="554" 
d="M84 0c-12 0 -23 10 -23 20v1c0 8 3 14 9 21l356 424h-336c-12 0 -22 10 -22 22s10 22 22 22h383c12 0 23 -10 23 -20v-1c0 -8 -3 -14 -9 -21l-356 -424h350c12 0 22 -10 22 -22s-10 -22 -22 -22h-397zM318 645v-19c0 -21 -15 -35 -36 -35s-36 14 -36 35v19
c0 21 15 35 36 35s36 -14 36 -35z" />
    <glyph glyph-name="schwa" unicode="&#x259;" horiz-adv-x="584" 
d="M474 231h-371c7 -103 66 -198 183 -198c101 0 179 85 188 198zM77 439c50 50 107 83 199 83c134 0 250 -107 250 -266v-2c0 -148 -104 -266 -242 -266c-143 0 -234 118 -234 264c0 12 12 23 24 23h400c-9 127 -100 201 -200 201c-73 0 -124 -30 -165 -70
c-4 -4 -9 -7 -16 -7c-13 0 -24 10 -24 23c0 5 2 11 8 17z" />
    <glyph glyph-name="germandbls" unicode="&#xdf;" horiz-adv-x="620" 
d="M285 20c0 12 10 21 21 22c114 6 198 50 198 145v2c0 91 -87 136 -194 150c-15 2 -25 10 -25 24c0 13 9 21 20 25c86 30 154 82 154 170v2c0 76 -61 131 -149 131c-97 0 -168 -74 -168 -191v-480c0 -14 -11 -24 -25 -24s-24 10 -24 24v480c0 139 85 237 220 237
c120 0 199 -77 199 -175v-2c0 -98 -79 -162 -157 -190c105 -18 202 -72 202 -179v-2c0 -123 -107 -186 -251 -191c-11 0 -21 10 -21 22z" />
    <glyph glyph-name="zero" unicode="0" horiz-adv-x="710" 
d="M354 -12c-178 0 -289 167 -289 360v2c0 193 113 362 291 362s289 -167 289 -360v-2c0 -193 -113 -362 -291 -362zM356 35c145 0 235 151 235 313v2c0 163 -92 315 -237 315s-235 -150 -235 -313v-2c0 -162 92 -315 237 -315z" />
    <glyph glyph-name="one" unicode="1" horiz-adv-x="335" 
d="M179 22v631l-114 -39c-5 -2 -9 -3 -13 -3c-12 0 -22 10 -22 22s8 18 19 22l122 45c11 4 21 7 32 7h2c16 0 25 -12 25 -25v-660c0 -14 -11 -26 -25 -26s-26 12 -26 26z" />
    <glyph glyph-name="two" unicode="2" horiz-adv-x="590" 
d="M44 24c0 9 4 15 12 22l253 229c116 105 155 165 155 239c0 91 -74 150 -158 150c-85 0 -142 -42 -196 -117c-5 -7 -11 -11 -20 -11c-13 0 -24 10 -24 23c0 4 1 9 4 13c59 86 123 138 241 138c119 0 208 -83 208 -192v-2c0 -96 -52 -160 -175 -272l-214 -194h375
c14 0 25 -11 25 -25s-11 -25 -25 -25h-436c-14 0 -25 10 -25 24z" />
    <glyph glyph-name="three" unicode="3" horiz-adv-x="610" 
d="M311 -12c-109 0 -193 48 -249 116c-3 4 -7 11 -7 18c0 14 12 26 26 26c9 0 17 -5 21 -10c55 -66 122 -103 210 -103c94 0 173 63 173 155v2c0 98 -92 152 -218 152h-25c-13 0 -24 10 -24 23c0 6 3 12 9 19l230 265h-346c-14 0 -25 10 -25 24s11 25 25 25h398
c13 0 23 -9 23 -22c0 -7 -4 -15 -9 -21l-232 -265c133 -8 248 -70 248 -198v-2c0 -122 -107 -204 -228 -204z" />
    <glyph glyph-name="three.alt" horiz-adv-x="600" 
d="M303 -12c-104 0 -189 47 -246 114c-5 6 -8 13 -8 20c0 14 12 25 26 25c9 0 16 -4 22 -11c53 -64 120 -101 208 -101c102 0 178 59 178 148v2c0 90 -76 145 -207 145h-51c-13 0 -23 10 -23 23s10 23 23 23h52c106 0 187 54 187 146v2c0 81 -67 141 -168 141
c-81 0 -138 -34 -187 -96c-5 -6 -10 -11 -20 -11c-13 0 -23 10 -23 23c0 5 2 12 6 17c53 68 125 114 226 114c127 0 220 -80 220 -186v-2c0 -96 -68 -144 -133 -166c86 -25 152 -80 152 -172v-2c0 -108 -97 -196 -234 -196z" />
    <glyph glyph-name="four" unicode="4" horiz-adv-x="664" 
d="M445 21v150h-371c-16 0 -27 11 -27 27c0 6 2 13 8 21l386 477c6 8 13 13 25 13c17 0 29 -12 29 -29v-464h95c12 0 23 -11 23 -23s-11 -22 -23 -22h-95v-150c0 -14 -11 -25 -25 -25s-25 11 -25 25zM111 216h334v414z" />
    <glyph glyph-name="five" unicode="5" horiz-adv-x="605" 
d="M302 -12c-89 0 -174 45 -231 100c-8 8 -11 14 -11 23c0 12 11 24 25 24c8 0 17 -4 22 -9c59 -56 127 -91 197 -91c111 0 188 75 188 176v2c0 99 -79 166 -192 166c-91 0 -138 -39 -155 -39c-12 0 -21 4 -29 9c-10 7 -14 20 -13 35l17 288c1 19 13 28 27 28h347
c14 0 25 -11 25 -25s-11 -25 -25 -25h-326l-17 -262c45 22 90 38 155 38c135 0 240 -86 240 -211v-2c0 -129 -103 -225 -244 -225z" />
    <glyph glyph-name="six" unicode="6" horiz-adv-x="642" 
d="M331 -12c-72 0 -136 28 -178 70c-58 58 -89 128 -89 273v2c0 211 111 379 285 379c74 0 131 -25 187 -69c7 -6 11 -12 11 -21c0 -14 -12 -26 -26 -26c-6 0 -11 2 -16 6c-50 41 -99 63 -160 63c-142 0 -234 -149 -229 -363c40 68 105 130 219 130c127 0 241 -87 241 -212
v-2c0 -132 -107 -230 -245 -230zM335 35c113 0 187 82 187 181v2c0 96 -79 168 -190 168c-115 0 -195 -87 -195 -173v-2c0 -100 85 -176 198 -176z" />
    <glyph glyph-name="seven" unicode="7" horiz-adv-x="587" 
d="M169 20c0 4 2 11 4 15l301 615h-385c-14 0 -25 11 -25 25s11 25 25 25h422c14 0 25 -9 25 -23c0 -6 -3 -14 -6 -20l-310 -643c-4 -9 -13 -18 -25 -18c-14 0 -26 10 -26 24z" />
    <glyph glyph-name="eight" unicode="8" horiz-adv-x="630" 
d="M315 -10c-147 0 -260 81 -260 197v2c0 82 67 144 155 173c-69 28 -131 80 -131 163v2c0 109 115 183 236 183s236 -74 236 -183v-2c0 -83 -62 -135 -131 -163c88 -29 155 -91 155 -173v-2c0 -116 -113 -197 -260 -197zM315 381c99 0 182 58 182 144v2
c0 79 -80 136 -182 136s-182 -57 -182 -136v-2c0 -86 83 -144 182 -144zM315 37c129 0 206 69 206 148v2c0 87 -92 150 -206 150s-206 -63 -206 -150v-2c0 -79 77 -148 206 -148z" />
    <glyph glyph-name="nine" unicode="9" horiz-adv-x="642" 
d="M293 -12c-82 0 -146 34 -199 77c-7 6 -11 12 -11 21c0 14 11 26 25 26c6 0 13 -2 19 -7c54 -46 107 -70 167 -70c141 0 240 151 232 361c-40 -72 -108 -135 -218 -135c-141 0 -242 94 -242 214v2c0 129 100 235 246 235c75 0 136 -29 178 -71c54 -54 88 -133 88 -273v-2
c0 -220 -122 -378 -285 -378zM310 307c119 0 195 90 195 178v2c0 99 -83 178 -199 178c-115 0 -186 -89 -186 -186v-2c0 -98 79 -170 190 -170z" />
    <glyph glyph-name="period" unicode="." horiz-adv-x="230" 
d="M82 56c0 19 14 33 33 33s33 -14 33 -33v-27c0 -19 -14 -33 -33 -33s-33 14 -33 33v27z" />
    <glyph glyph-name="comma" unicode="," horiz-adv-x="230" 
d="M54 -90c0 5 3 10 8 13c36 20 50 42 47 77c-15 4 -27 15 -27 35v21c0 19 14 33 33 33s33 -14 33 -33v-25c0 -56 -9 -86 -27 -104s-43 -32 -52 -32c-7 0 -15 5 -15 15z" />
    <glyph glyph-name="colon" unicode=":" horiz-adv-x="240" 
d="M87 481c0 19 14 33 33 33s33 -14 33 -33v-27c0 -19 -14 -33 -33 -33s-33 14 -33 33v27zM87 56c0 19 14 33 33 33s33 -14 33 -33v-27c0 -19 -14 -33 -33 -33s-33 14 -33 33v27z" />
    <glyph glyph-name="semicolon" unicode=";" horiz-adv-x="240" 
d="M87 481c0 19 14 33 33 33s33 -14 33 -33v-27c0 -19 -14 -33 -33 -33s-33 14 -33 33v27zM59 -90c0 5 3 10 8 13c36 20 50 42 47 77c-15 4 -27 15 -27 35v21c0 19 14 33 33 33s33 -14 33 -33v-25c0 -56 -9 -86 -27 -104s-43 -32 -52 -32c-7 0 -15 5 -15 15z" />
    <glyph glyph-name="ellipsis" unicode="&#x2026;" horiz-adv-x="680" 
d="M534 56c0 19 13 33 32 33s32 -14 32 -33v-27c0 -19 -13 -33 -32 -33s-32 14 -32 33v27zM308 56c0 19 13 33 32 33s32 -14 32 -33v-27c0 -19 -13 -33 -32 -33s-32 14 -32 33v27zM82 56c0 19 13 33 32 33s32 -14 32 -33v-27c0 -19 -13 -33 -32 -33s-32 14 -32 33v27z" />
    <glyph glyph-name="periodcentered" unicode="&#xb7;" horiz-adv-x="230" 
d="M82 311c0 19 14 33 33 33s33 -14 33 -33v-27c0 -19 -14 -33 -33 -33s-33 14 -33 33v27z" />
    <glyph glyph-name="bullet" unicode="&#x2022;" horiz-adv-x="470" 
d="M235 228c-68 0 -124 55 -124 123v2c0 68 59 123 124 123c64 0 124 -55 124 -123v-2c0 -68 -56 -123 -124 -123z" />
    <glyph glyph-name="ampersand" unicode="&#x26;" horiz-adv-x="696" 
d="M629 -9c-11 0 -17 5 -24 12l-104 108c-66 -77 -143 -121 -237 -121c-123 0 -215 80 -215 194v2c0 94 67 163 181 205c-53 59 -78 102 -78 160v2c0 90 73 159 175 159c91 0 161 -68 161 -152v-2c0 -87 -65 -144 -172 -181l184 -189c31 44 59 96 84 154c2 5 9 15 23 15
s25 -11 25 -25c0 -3 -1 -9 -3 -13c-29 -63 -60 -119 -95 -166l109 -112c8 -8 12 -13 12 -24c0 -15 -11 -26 -26 -26zM285 409c100 32 151 81 151 147v2c0 62 -48 110 -111 110c-71 0 -121 -50 -121 -113v-2c0 -44 19 -78 81 -144zM265 35c78 0 145 42 203 110l-207 214
c-111 -38 -160 -103 -160 -171v-2c0 -85 68 -151 164 -151z" />
    <glyph glyph-name="exclam" unicode="!" horiz-adv-x="252" 
d="M111 195l-16 483c0 14 11 25 25 25h12c14 0 25 -11 25 -25l-16 -483c0 -8 -7 -15 -15 -15s-15 7 -15 15zM93 56c0 19 14 33 33 33s33 -14 33 -33v-27c0 -19 -14 -33 -33 -33s-33 14 -33 33v27z" />
    <glyph glyph-name="exclamdown" unicode="&#xa1;" horiz-adv-x="252" 
d="M141 505l16 -483c0 -14 -11 -25 -25 -25h-12c-14 0 -25 11 -25 25l16 483c0 8 7 15 15 15s15 -7 15 -15zM159 644c0 -19 -14 -33 -33 -33s-33 14 -33 33v27c0 19 14 33 33 33s33 -14 33 -33v-27z" />
    <glyph glyph-name="question" unicode="?" horiz-adv-x="534" 
d="M246 179h-2c-8 0 -15 6 -16 18l-11 129c-1 13 8 24 23 25c112 7 189 62 189 159v2c0 82 -64 151 -166 151c-76 0 -134 -35 -183 -91c-5 -6 -12 -10 -20 -10c-13 0 -23 9 -23 22c0 6 2 12 6 17c53 63 121 108 222 108c132 0 217 -88 217 -195v-2
c0 -124 -96 -190 -212 -204l-8 -111c-1 -12 -8 -18 -16 -18zM212 56c0 19 14 33 33 33s33 -14 33 -33v-27c0 -19 -14 -33 -33 -33s-33 14 -33 33v27z" />
    <glyph glyph-name="questiondown" unicode="&#xbf;" horiz-adv-x="534" 
d="M288 521h2c8 0 15 -6 16 -18l11 -129c1 -13 -8 -24 -23 -25c-112 -7 -189 -62 -189 -159v-2c0 -82 64 -151 166 -151c76 0 134 35 183 91c5 6 12 10 20 10c13 0 23 -9 23 -22c0 -6 -2 -12 -6 -17c-53 -63 -121 -108 -222 -108c-132 0 -217 88 -217 195v2
c0 124 96 190 212 204l8 111c1 12 8 18 16 18zM322 644c0 -19 -14 -33 -33 -33s-33 14 -33 33v27c0 19 14 33 33 33s33 -14 33 -33v-27z" />
    <glyph glyph-name="quotedblleft" unicode="&#x201c;" horiz-adv-x="410" 
d="M351 688c0 -5 -3 -10 -8 -13c-36 -20 -50 -42 -47 -77c15 -4 27 -15 27 -35v-21c0 -18 -15 -33 -33 -33s-33 15 -33 33v25c0 56 9 86 27 104s43 32 52 32c7 0 15 -5 15 -15zM171 688c0 -5 -3 -10 -8 -13c-36 -20 -50 -42 -47 -77c15 -4 27 -15 27 -35v-21
c0 -18 -15 -33 -33 -33s-33 15 -33 33v25c0 56 9 86 27 104s43 32 52 32c7 0 15 -5 15 -15z" />
    <glyph glyph-name="quotedblright" unicode="&#x201d;" horiz-adv-x="410" 
d="M59 525c0 5 3 10 8 13c36 20 50 42 47 77c-15 4 -27 15 -27 35v21c0 18 15 33 33 33s33 -15 33 -33v-25c0 -56 -9 -86 -27 -104s-43 -32 -52 -32c-7 0 -15 5 -15 15zM239 525c0 5 3 10 8 13c36 20 50 42 47 77c-15 4 -27 15 -27 35v21c0 18 15 33 33 33s33 -15 33 -33
v-25c0 -56 -9 -86 -27 -104s-43 -32 -52 -32c-7 0 -15 5 -15 15z" />
    <glyph glyph-name="quoteleft" unicode="&#x2018;" horiz-adv-x="230" 
d="M171 688c0 -5 -3 -10 -8 -13c-36 -20 -50 -42 -47 -77c15 -4 27 -15 27 -35v-21c0 -18 -15 -33 -33 -33s-33 15 -33 33v25c0 56 9 86 27 104s43 32 52 32c7 0 15 -5 15 -15z" />
    <glyph glyph-name="quoteright" unicode="&#x2019;" horiz-adv-x="230" 
d="M59 525c0 5 3 10 8 13c36 20 50 42 47 77c-15 4 -27 15 -27 35v21c0 18 15 33 33 33s33 -15 33 -33v-25c0 -56 -9 -86 -27 -104s-43 -32 -52 -32c-7 0 -15 5 -15 15z" />
    <glyph glyph-name="quotedblbase" unicode="&#x201e;" horiz-adv-x="410" 
d="M54 -90c0 5 3 10 8 13c36 20 50 42 47 77c-15 4 -27 15 -27 35v21c0 19 14 33 33 33s33 -14 33 -33v-25c0 -56 -9 -86 -27 -104s-43 -32 -52 -32c-7 0 -15 5 -15 15zM234 -90c0 5 3 10 8 13c36 20 50 42 47 77c-15 4 -27 15 -27 35v21c0 18 15 33 33 33s33 -15 33 -33
v-25c0 -56 -9 -86 -27 -104s-43 -32 -52 -32c-7 0 -15 5 -15 15z" />
    <glyph glyph-name="quotesinglbase" unicode="&#x201a;" horiz-adv-x="230" 
d="M54 -90c0 5 3 10 8 13c36 20 50 42 47 77c-15 4 -27 15 -27 35v21c0 19 14 33 33 33s33 -14 33 -33v-25c0 -56 -9 -86 -27 -104s-43 -32 -52 -32c-7 0 -15 5 -15 15z" />
    <glyph glyph-name="guillemotleft" unicode="&#xab;" horiz-adv-x="515" 
d="M425 43c-9 0 -14 4 -19 11l-137 179c-7 9 -10 15 -10 22s3 13 10 22l137 179c5 7 11 11 19 11c12 0 22 -9 22 -21c0 -6 -2 -12 -6 -17l-126 -173l126 -175c4 -6 6 -10 6 -17c-1 -12 -10 -21 -22 -21zM221 43c-8 0 -14 4 -19 11l-137 179c-7 9 -10 15 -10 22s3 13 10 22
l137 179c5 7 11 11 19 11c12 0 22 -9 22 -21c0 -6 -2 -12 -6 -17l-126 -173l126 -175c4 -5 6 -11 6 -17c0 -12 -10 -21 -22 -21z" />
    <glyph glyph-name="guillemotright" unicode="&#xbb;" horiz-adv-x="515" 
d="M294 467c8 0 14 -4 19 -11l137 -179c7 -9 10 -15 10 -22s-3 -13 -10 -22l-137 -179c-5 -7 -11 -11 -19 -11c-12 0 -22 9 -22 21c0 6 2 12 6 17l126 173l-126 175c-4 5 -6 11 -6 17c0 12 10 21 22 21zM90 467c9 0 14 -4 19 -11l137 -179c7 -9 10 -15 10 -22
s-3 -13 -10 -22l-137 -179c-5 -7 -11 -11 -19 -11c-12 0 -22 9 -22 21c0 6 2 12 6 17l126 173l-126 175c-4 6 -7 10 -6 17c1 12 10 21 22 21z" />
    <glyph glyph-name="guilsinglleft" unicode="&#x2039;" horiz-adv-x="311" 
d="M221 43c-8 0 -14 4 -19 11l-137 179c-7 9 -10 15 -10 22s3 13 10 22l137 179c5 7 11 11 19 11c12 0 22 -9 22 -21c0 -6 -2 -12 -6 -17l-126 -173l126 -175c4 -5 6 -11 6 -17c0 -12 -10 -21 -22 -21z" />
    <glyph glyph-name="guilsinglright" unicode="&#x203a;" horiz-adv-x="311" 
d="M90 467c9 0 14 -4 19 -11l137 -179c7 -9 10 -15 10 -22s-3 -13 -10 -22l-137 -179c-5 -7 -11 -11 -19 -11c-12 0 -22 9 -22 21c0 6 2 12 6 17l126 173l-126 175c-4 6 -7 10 -6 17c1 12 10 21 22 21z" />
    <glyph glyph-name="hyphen" unicode="-" horiz-adv-x="408" 
d="M94 269c-15 0 -28 13 -28 28s13 28 28 28h220c15 0 28 -13 28 -28s-13 -28 -28 -28h-220z" />
    <glyph glyph-name="endash" unicode="&#x2013;" horiz-adv-x="528" 
d="M92 271c-14 0 -26 12 -26 26s12 26 26 26h344c14 0 26 -12 26 -26s-12 -26 -26 -26h-344z" />
    <glyph glyph-name="emdash" unicode="&#x2014;" horiz-adv-x="898" 
d="M92 271c-14 0 -26 12 -26 26s12 26 26 26h714c14 0 26 -12 26 -26s-12 -26 -26 -26h-714z" />
    <glyph glyph-name="underscore" unicode="_" horiz-adv-x="600" 
d="M-2 -160c-12 0 -22 10 -22 22s10 22 22 22h604c12 0 22 -10 22 -22s-10 -22 -22 -22h-604z" />
    <glyph glyph-name="slash" unicode="/" horiz-adv-x="500" 
d="M-6 -111c0 4 1 9 3 13l452 886c4 8 11 14 21 14c12 0 21 -9 21 -21c0 -4 -1 -9 -3 -13l-452 -886c-4 -8 -11 -14 -21 -14c-12 0 -21 9 -21 21z" />
    <glyph glyph-name="backslash" unicode="\" horiz-adv-x="500" 
d="M506 -111c0 -12 -9 -21 -21 -21c-10 0 -17 6 -21 14l-452 886c-2 4 -3 9 -3 13c0 12 9 21 21 21c10 0 17 -6 21 -14l452 -886c2 -4 3 -9 3 -13z" />
    <glyph glyph-name="bar" unicode="|" horiz-adv-x="286" 
d="M121 -110v890c0 12 10 22 22 22s22 -10 22 -22v-890c0 -12 -10 -22 -22 -22s-22 10 -22 22z" />
    <glyph glyph-name="parenleft" unicode="(" horiz-adv-x="430" 
d="M351 -139c-5 0 -10 2 -12 3c-169 99 -268 244 -268 423s99 324 268 423c2 1 7 3 12 3c11 0 19 -8 19 -19c0 -8 -4 -14 -11 -18c-151 -96 -236 -225 -236 -389s85 -293 236 -389c7 -4 11 -10 11 -18c0 -11 -8 -19 -19 -19z" />
    <glyph glyph-name="parenright" unicode=")" horiz-adv-x="430" 
d="M79 -139c-11 0 -19 8 -19 19c0 8 4 14 11 18c151 96 236 225 236 389s-85 293 -236 389c-7 4 -11 10 -11 18c0 11 8 19 19 19c5 0 10 -2 12 -3c169 -99 268 -244 268 -423s-99 -324 -268 -423c-2 -1 -7 -3 -12 -3z" />
    <glyph glyph-name="bracketleft" unicode="[" horiz-adv-x="430" 
d="M98 -104v778c0 14 12 26 26 26h232c10 0 19 -9 19 -19s-9 -19 -19 -19h-212v-754h212c10 0 19 -9 19 -19s-9 -19 -19 -19h-232c-14 0 -26 12 -26 26z" />
    <glyph glyph-name="bracketright" unicode="]" horiz-adv-x="430" 
d="M332 674v-778c0 -14 -12 -26 -26 -26h-232c-10 0 -19 9 -19 19s9 19 19 19h212v754h-212c-10 0 -19 9 -19 19s9 19 19 19h232c14 0 26 -12 26 -26z" />
    <glyph glyph-name="braceleft" unicode="{" horiz-adv-x="480" 
d="M406 -139c-169 34 -201 98 -201 201v79c0 78 -23 127 -126 127c-16 0 -24 8 -24 19s8 19 24 19c103 0 126 49 126 127v79c0 103 32 167 201 201c11 2 21 -4 21 -16c0 -8 -6 -14 -12 -16c-145 -38 -161 -76 -161 -175v-75c0 -89 -41 -125 -104 -144
c67 -22 104 -55 104 -144v-75c0 -99 16 -137 161 -175c6 -2 12 -8 12 -16c0 -12 -10 -18 -21 -16z" />
    <glyph glyph-name="braceright" unicode="}" horiz-adv-x="480" 
d="M74 713c169 -34 201 -98 201 -201v-79c0 -78 23 -127 126 -127c16 0 24 -8 24 -19s-8 -19 -24 -19c-103 0 -126 -49 -126 -127v-79c0 -103 -32 -167 -201 -201c-11 -2 -21 4 -21 16c0 8 6 14 12 16c145 38 161 76 161 175v75c0 89 41 125 104 144
c-67 22 -104 55 -104 144v75c0 99 -16 137 -161 175c-6 2 -12 8 -12 16c0 12 10 18 21 16z" />
    <glyph glyph-name="at" unicode="@" horiz-adv-x="980" 
d="M499 -162c-256 0 -446 197 -446 436s193 438 438 438s436 -185 436 -396c0 -171 -97 -243 -182 -243c-70 0 -119 36 -136 93c-41 -51 -92 -93 -171 -93c-97 0 -177 72 -177 178c0 143 121 249 233 249c81 0 126 -45 149 -89l11 59c3 15 12 24 25 24c16 0 26 -15 23 -31
l-34 -194c-6 -35 -9 -60 -9 -72c0 -57 33 -88 90 -88c70 0 144 62 144 207c0 183 -172 364 -402 364c-231 0 -404 -183 -404 -406c0 -224 171 -404 412 -404c98 0 169 22 243 64c2 1 7 2 10 2c7 0 13 -7 13 -14s-4 -11 -7 -13c-74 -44 -158 -71 -259 -71zM446 120
c94 0 180 95 180 193c0 79 -56 139 -132 139c-91 0 -181 -85 -181 -197c0 -85 55 -135 133 -135z" />
    <glyph glyph-name="copyright" unicode="&#xa9;" horiz-adv-x="830" 
d="M414 -12c-203 0 -361 163 -361 360v2c0 197 160 362 363 362s361 -163 361 -360v-2c0 -197 -160 -362 -363 -362zM414 16c190 0 333 151 333 334v2c0 183 -142 332 -331 332c-190 0 -333 -151 -333 -334v-2c0 -183 142 -332 331 -332zM419 166c-103 0 -182 85 -182 188v2
c0 102 80 189 183 189c59 0 97 -22 129 -50c5 -4 9 -11 9 -18c0 -12 -10 -21 -22 -21c-6 0 -11 3 -16 7c-27 23 -59 42 -101 42c-79 0 -138 -67 -138 -148v-2c0 -81 62 -149 139 -149c45 0 75 16 106 44c3 2 8 5 14 5c11 0 20 -9 20 -20c0 -6 -3 -12 -7 -15
c-37 -32 -74 -54 -134 -54z" />
    <glyph glyph-name="published" unicode="&#x2117;" horiz-adv-x="830" 
d="M414 -12c-203 0 -361 163 -361 360v2c0 197 160 362 363 362s361 -163 361 -360v-2c0 -197 -160 -362 -363 -362zM414 16c190 0 333 151 333 334v2c0 183 -142 332 -331 332c-190 0 -333 -151 -333 -334v-2c0 -183 142 -332 331 -332zM296 193v326c0 12 10 22 22 22h119
c86 0 143 -41 143 -115v-2c0 -82 -71 -121 -150 -121h-90v-110c0 -12 -10 -22 -22 -22s-22 10 -22 22zM340 344h91c63 0 104 28 104 78v2c0 52 -39 76 -101 76h-94v-156z" />
    <glyph glyph-name="registered.alt" horiz-adv-x="830" 
d="M414 -12c-203 0 -361 163 -361 360v2c0 197 160 362 363 362s361 -163 361 -360v-2c0 -197 -160 -362 -363 -362zM414 16c190 0 333 151 333 334v2c0 183 -142 332 -331 332c-190 0 -333 -151 -333 -334v-2c0 -183 142 -332 331 -332zM276 194v328c0 12 9 21 21 21h143
c45 0 84 -14 107 -37c16 -16 28 -39 28 -68v-2c0 -57 -41 -94 -100 -105l96 -121c4 -5 6 -10 6 -16c0 -12 -10 -21 -22 -21c-9 0 -14 4 -19 10l-111 141h-106v-130c0 -12 -10 -21 -22 -21s-21 9 -21 21zM319 364h114c55 0 97 24 97 70v2c0 40 -35 66 -92 66h-119v-138z" />
    <glyph glyph-name="registered" unicode="&#xae;" horiz-adv-x="416" 
d="M208 360c-98 0 -174 79 -174 174v1c0 95 77 175 174 175c98 0 174 -79 174 -174v-1c0 -95 -77 -175 -174 -175zM208 379c87 0 154 71 154 156v1c0 85 -66 155 -154 155c-87 0 -154 -71 -154 -156v-1c0 -85 66 -155 154 -155zM143 462v150c0 8 6 14 14 14h64
c36 0 65 -19 65 -54c0 -27 -17 -46 -42 -54l38 -45c4 -5 5 -8 5 -12c0 -7 -5 -13 -13 -13c-6 0 -10 3 -14 8l-49 59h-40v-53c0 -8 -6 -14 -14 -14s-14 6 -14 14zM171 538h47c25 0 39 13 39 32c0 21 -15 31 -39 31h-47v-63z" />
    <glyph glyph-name="servicemark" unicode="&#x2120;" horiz-adv-x="708" 
d="M351 405v278c0 10 7 17 17 17h5c8 0 12 -3 16 -9l119 -181l119 181c4 6 9 9 16 9h4c9 0 17 -8 17 -17v-278c0 -10 -8 -17 -18 -17s-17 7 -17 17v226l-105 -157c-4 -6 -9 -10 -16 -10c-8 0 -13 4 -17 10l-105 157v-226c0 -10 -8 -17 -18 -17c-9 0 -17 7 -17 17zM36 444
c0 9 7 16 16 16c5 0 9 -2 13 -5c32 -25 62 -36 100 -36c43 0 72 23 72 54v1c0 29 -19 44 -83 58c-71 15 -106 37 -106 88v1c0 48 46 84 107 84c37 0 70 -10 99 -30c6 -4 9 -9 9 -15c0 -9 -7 -17 -16 -17c-5 0 -9 2 -13 5c-24 17 -51 25 -80 25c-43 0 -70 -22 -70 -50v-1
c0 -28 16 -44 85 -59c68 -15 104 -39 104 -87v-1c0 -53 -49 -88 -109 -88c-44 0 -87 15 -119 41c-6 5 -9 10 -9 16z" />
    <glyph glyph-name="trademark" unicode="&#x2122;" horiz-adv-x="690" 
d="M127 405v261h-88c-9 0 -17 8 -17 17s8 17 17 17h211c9 0 17 -8 17 -17s-8 -17 -17 -17h-88v-261c0 -10 -8 -17 -18 -17s-17 7 -17 17zM333 405v278c0 10 7 17 17 17h5c8 0 12 -3 16 -9l119 -181l119 181c4 6 9 9 16 9h4c9 0 17 -8 17 -17v-278c0 -10 -8 -17 -18 -17
s-17 7 -17 17v226l-105 -157c-4 -6 -9 -10 -16 -10c-8 0 -13 4 -17 10l-105 157v-226c0 -10 -8 -17 -18 -17c-9 0 -17 7 -17 17z" />
    <glyph glyph-name="asterisk" unicode="*" horiz-adv-x="430" 
d="M195 424l8 109l-91 -62c-6 -4 -10 -6 -16 -6c-11 0 -20 10 -20 21c0 9 7 16 14 19l103 49l-103 49c-8 4 -14 10 -14 19c0 11 9 20 20 21c7 0 10 -2 16 -6l91 -62l-8 109c-1 12 8 22 20 22s21 -10 20 -22l-8 -109l91 62c6 4 10 6 16 6c11 0 20 -10 20 -21s-7 -16 -14 -19
l-103 -49l103 -49c7 -3 14 -8 14 -19s-9 -21 -20 -21c-6 0 -10 2 -16 6l-91 62l8 -109c1 -12 -8 -22 -20 -22s-21 10 -20 22z" />
    <glyph glyph-name="dagger" unicode="&#x2020;" horiz-adv-x="410" 
d="M183 257l5 267l-106 -6c-12 -1 -23 9 -23 21s11 23 23 22l105 -6l-6 123c-1 15 9 26 24 26s25 -11 24 -26l-6 -123l105 6c12 1 23 -10 23 -22s-11 -22 -23 -21l-106 6l5 -267c0 -14 -10 -23 -22 -23s-22 9 -22 23z" />
    <glyph glyph-name="daggerdbl" unicode="&#x2021;" horiz-adv-x="430" 
d="M191 22l6 123l-105 -6c-12 -1 -23 10 -23 22s11 22 23 21l106 -6l-5 174l5 174l-106 -6c-12 -1 -23 9 -23 21s11 23 23 22l105 -6l-6 123c-1 15 9 26 24 26s25 -11 24 -26l-6 -123l105 6c12 1 23 -10 23 -22s-11 -22 -23 -21l-106 6l5 -174l-5 -174l106 6
c12 1 23 -9 23 -21s-11 -23 -23 -22l-105 6l6 -123c1 -15 -9 -26 -24 -26s-25 11 -24 26z" />
    <glyph glyph-name="dollar" unicode="$" horiz-adv-x="632" 
d="M297 738c0 13 11 24 24 24s24 -11 24 -24v-40c72 -6 124 -30 178 -70c9 -7 14 -13 14 -23c0 -14 -12 -25 -26 -25c-6 0 -11 1 -18 7c-49 39 -97 59 -150 65v-280c152 -32 216 -89 216 -187c0 -106 -89 -181 -214 -185v-78c0 -13 -11 -24 -24 -24s-24 11 -24 24v79
c-87 7 -158 39 -225 97c-7 6 -11 12 -11 21c0 13 12 25 25 25c9 0 15 -4 18 -7c56 -52 117 -83 195 -91v285c-150 33 -212 88 -212 188c0 101 88 178 210 181v38zM508 181c0 69 -35 111 -165 140v-276c100 2 165 60 165 136zM138 523c0 -68 32 -110 161 -141v273
c-97 -2 -161 -60 -161 -132z" />
    <glyph glyph-name="sterling" unicode="&#xa3;" horiz-adv-x="644" 
d="M66 13c0 7 4 12 12 14l78 18v260h-66c-13 0 -24 11 -24 24s11 24 24 24h66v118c0 75 23 139 65 181c37 37 89 58 150 58c98 0 156 -41 200 -93c4 -5 7 -12 7 -19c0 -14 -11 -24 -25 -24c-9 0 -15 4 -20 9c-40 46 -84 80 -163 80c-48 0 -85 -15 -113 -43
c-33 -33 -50 -84 -50 -148v-119h278c13 0 24 -11 24 -24s-11 -24 -24 -24h-278v-258h354c13 0 24 -11 24 -24s-11 -23 -24 -23h-482c-7 0 -13 6 -13 13z" />
    <glyph glyph-name="Euro" unicode="&#x20ac;" horiz-adv-x="720" 
d="M658 136c0 -5 -2 -10 -5 -14c-52 -75 -120 -134 -225 -134c-138 0 -245 104 -278 257h-71c-13 0 -24 11 -24 24s11 24 24 24h63c-2 18 -3 37 -3 56c0 23 1 45 4 67h-64c-13 0 -24 11 -24 24s11 24 24 24h74c36 143 138 248 268 248c110 0 178 -53 230 -125
c3 -4 6 -10 6 -16c0 -13 -11 -24 -24 -24c-9 0 -17 5 -21 11c-52 69 -103 108 -193 108c-101 0 -183 -84 -215 -202h264c13 0 24 -11 24 -24s-11 -24 -24 -24h-273c-3 -21 -5 -43 -5 -65c0 -20 1 -40 3 -58h275c13 0 24 -11 24 -24s-11 -24 -24 -24h-266
c31 -126 116 -211 229 -211c82 0 139 47 184 113c5 7 11 11 20 11c13 0 23 -9 23 -22z" />
    <glyph glyph-name="yen" unicode="&#xa5;" horiz-adv-x="686" 
d="M368 268v-98h194c12 0 23 -10 23 -23c0 -12 -11 -22 -23 -22h-194v-104c0 -14 -11 -25 -25 -25s-25 11 -25 25v104h-194c-12 0 -23 10 -23 22c0 13 11 23 23 23h194v98h-194c-12 0 -23 10 -23 22s11 23 23 23h176l-241 348c-4 6 -6 13 -6 18c0 14 12 25 26 25
c11 0 17 -6 24 -16l241 -361l243 363c6 9 14 14 24 14c13 0 23 -11 23 -24c0 -6 -3 -13 -7 -19l-242 -348h177c12 0 23 -11 23 -23s-11 -22 -23 -22h-194z" />
    <glyph glyph-name="cent" unicode="&#xa2;" horiz-adv-x="581" 
d="M219 21l17 82c-103 36 -174 136 -174 250v2c0 143 114 267 260 267h15l13 68c2 10 11 20 24 20c16 0 28 -13 24 -31l-13 -64c55 -13 95 -43 129 -75c6 -6 9 -12 9 -20c0 -14 -10 -25 -24 -25c-9 0 -14 3 -19 8c-30 29 -64 55 -107 66l-84 -432c12 -2 24 -3 36 -3
c64 0 116 29 160 73c5 5 11 9 19 9c12 0 22 -11 22 -23c0 -7 -3 -12 -7 -16c-49 -52 -109 -89 -197 -89c-13 0 -26 0 -39 2l-16 -80c-2 -10 -11 -20 -24 -20c-16 0 -28 13 -24 31zM115 355c0 -94 55 -174 133 -206l82 427h-9c-116 0 -206 -97 -206 -219v-2z" />
    <glyph glyph-name="florin" unicode="&#x192;" horiz-adv-x="506" 
d="M94 -5c-26 0 -38 9 -38 22c0 15 12 22 31 22c43 0 72 26 82 82l49 263h-90c-12 0 -23 10 -23 22c0 13 11 23 23 23h98l26 136c19 99 63 140 143 140c23 0 39 -1 59 -6c13 -3 20 -11 20 -23s-10 -21 -22 -21c-7 0 -26 6 -52 6c-55 0 -82 -28 -95 -99l-25 -133h136
c12 0 23 -11 23 -23s-11 -22 -23 -22h-144l-50 -266c-16 -83 -58 -123 -128 -123z" />
    <glyph glyph-name="numbersign" unicode="#" horiz-adv-x="700" 
d="M142 25l28 162h-101c-13 0 -24 10 -24 23s11 24 24 24h109l41 236h-110c-13 0 -24 10 -24 23s11 24 24 24h118l28 165c2 13 12 22 25 22c17 0 24 -15 22 -29l-27 -158h207l28 165c2 13 12 22 25 22c17 0 24 -15 22 -29l-27 -158h100c13 0 24 -10 24 -23s-11 -24 -24 -24
h-108l-41 -236h109c13 0 24 -10 24 -23s-11 -24 -24 -24h-117l-29 -169c-2 -13 -12 -22 -25 -22c-17 0 -24 15 -22 29l28 162h-207l-29 -169c-2 -13 -12 -22 -25 -22c-17 0 -24 15 -22 29zM226 234h207l41 236h-207z" />
    <glyph glyph-name="paragraph" unicode="&#xb6;" horiz-adv-x="480" 
d="M333 22v255h-6c-154 0 -274 76 -274 211v2c0 131 108 210 259 210h47c15 0 27 -12 27 -27v-651c0 -15 -11 -26 -26 -26s-27 11 -27 26z" />
    <glyph glyph-name="section" unicode="&#xa7;" horiz-adv-x="632" 
d="M329 -10c-82 0 -161 34 -214 82c-5 5 -9 12 -9 20c0 15 12 26 27 26c8 0 13 -3 20 -9c43 -40 108 -70 181 -70c79 0 116 34 116 77v2c0 43 -46 73 -183 106c-149 36 -202 74 -202 139v2c0 59 58 102 148 113c-52 23 -86 59 -86 105v2c0 75 70 125 176 125
c82 0 161 -34 214 -82c5 -5 9 -12 9 -20c0 -15 -12 -26 -27 -26c-8 0 -13 3 -20 9c-43 40 -108 70 -181 70c-79 0 -116 -34 -116 -77v-2c0 -43 46 -73 183 -106c149 -36 202 -74 202 -139v-2c0 -59 -58 -102 -148 -113c52 -23 86 -59 86 -105v-2c0 -75 -70 -125 -176 -125z
M386 253c78 0 129 38 129 78v2c0 36 -32 67 -157 98c-48 12 -84 16 -112 16c-78 0 -129 -38 -129 -78v-2c0 -36 32 -67 157 -98c47 -12 84 -16 112 -16z" />
    <glyph glyph-name="ordfeminine" unicode="&#xaa;" horiz-adv-x="390" 
d="M174 411c-53 0 -109 30 -109 90v2c0 59 51 93 124 93c36 0 60 -5 83 -11v5c0 51 -32 77 -83 77c-28 0 -55 -9 -75 -18c-4 -2 -8 -3 -11 -3c-10 0 -18 8 -18 18c0 8 5 14 12 17c31 14 58 22 94 22c38 0 68 -10 90 -32c18 -18 28 -45 28 -80v-160c0 -10 -9 -18 -19 -18
s-18 8 -18 18v27c-22 -29 -56 -47 -98 -47zM176 447c51 0 96 31 96 77v27c-23 7 -48 11 -85 11c-51 0 -82 -24 -82 -57v-2c0 -36 33 -56 71 -56zM78 293c-11 0 -20 9 -20 20s9 20 20 20h220c11 0 20 -9 20 -20s-9 -20 -20 -20h-220z" />
    <glyph glyph-name="ordmasculine" unicode="&#xba;" horiz-adv-x="390" 
d="M194 411c-83 0 -143 67 -143 145v2c0 79 61 147 145 147c83 0 143 -67 143 -145v-2c0 -79 -61 -147 -145 -147zM67 293c-11 0 -20 9 -20 20s9 20 20 20h256c11 0 20 -9 20 -20s-9 -20 -20 -20h-256zM196 450c59 0 100 48 100 106v2c0 60 -44 108 -102 108
c-59 0 -100 -48 -100 -106v-2c0 -60 44 -108 102 -108z" />
    <glyph glyph-name="degree" unicode="&#xb0;" horiz-adv-x="450" 
d="M225 412c-79 0 -151 68 -151 146v2c0 78 72 146 151 146s151 -68 151 -146v-2c0 -78 -72 -146 -151 -146zM225 456c58 0 101 49 101 102v2c0 53 -43 102 -101 102s-101 -49 -101 -102v-2c0 -53 43 -102 101 -102z" />
    <glyph glyph-name="percent" unicode="%" horiz-adv-x="824" 
d="M208 350c-92 0 -153 84 -153 177v2c0 94 62 179 155 179c92 0 153 -85 153 -177v-2c0 -94 -62 -179 -155 -179zM146 17c0 5 1 9 4 13l487 663c5 7 11 11 19 11c12 0 22 -9 22 -21c0 -5 -1 -9 -4 -13l-487 -663c-5 -7 -11 -11 -19 -11c-12 0 -22 9 -22 21zM614 -8
c-92 0 -153 84 -153 177v2c0 94 62 179 155 179c92 0 153 -85 153 -177v-2c0 -94 -62 -179 -155 -179zM210 393c59 0 101 59 101 134v2c0 78 -47 136 -103 136c-59 0 -101 -61 -101 -134v-2c0 -79 47 -136 103 -136zM616 35c59 0 101 59 101 134v2c0 78 -47 136 -103 136
c-59 0 -101 -61 -101 -134v-2c0 -79 47 -136 103 -136z" />
    <glyph glyph-name="quotedbl" unicode="&#x22;" horiz-adv-x="410" 
d="M250 461l30 215c3 18 12 26 28 26h19c9 0 16 -5 16 -17c0 -6 -3 -15 -5 -24l-57 -201c-4 -13 -8 -18 -17 -18s-16 4 -14 19zM70 461l30 215c3 18 12 26 28 26h19c9 0 16 -5 16 -17c0 -6 -3 -15 -5 -24l-57 -201c-4 -13 -8 -18 -17 -18s-16 4 -14 19z" />
    <glyph glyph-name="quotesingle" unicode="'" horiz-adv-x="230" 
d="M70 461l30 215c3 18 12 26 28 26h19c9 0 16 -5 16 -17c0 -6 -3 -15 -5 -24l-57 -201c-4 -13 -8 -18 -17 -18s-16 4 -14 19z" />
    <glyph glyph-name="plus" unicode="+" horiz-adv-x="620" 
d="M285 134v194h-197c-13 0 -24 11 -24 24s11 24 24 24h197v194c0 14 11 25 25 25s25 -11 25 -25v-194h197c13 0 24 -11 24 -24s-11 -24 -24 -24h-197v-194c0 -14 -11 -25 -25 -25s-25 11 -25 25z" />
    <glyph glyph-name="minus" unicode="&#x2212;" horiz-adv-x="620" 
d="M531 327h-442c-14 0 -25 11 -25 25s11 25 25 25h442c14 0 25 -11 25 -25s-11 -25 -25 -25z" />
    <glyph glyph-name="divide" unicode="&#xf7;" horiz-adv-x="620" 
d="M88 328h444c13 0 24 11 24 24s-11 24 -24 24h-444c-13 0 -24 -11 -24 -24s11 -24 24 -24zM310 593c22 0 40 -18 40 -40v-17c0 -22 -18 -40 -40 -40s-40 18 -40 40v17c0 22 18 40 40 40zM310 208c22 0 40 -18 40 -40v-17c0 -22 -18 -40 -40 -40s-40 18 -40 40v17
c0 22 18 40 40 40z" />
    <glyph glyph-name="equal" unicode="=" horiz-adv-x="620" 
d="M105 439c-14 0 -26 11 -26 25s12 26 26 26h410c14 0 26 -12 26 -26s-12 -25 -26 -25h-410zM105 214c-14 0 -26 11 -26 25s12 26 26 26h410c14 0 26 -12 26 -26s-12 -25 -26 -25h-410z" />
    <glyph glyph-name="multiply" unicode="&#xd7;" horiz-adv-x="620" 
d="M512 520l-169 -167l168 -166c5 -5 9 -12 9 -20c0 -14 -11 -25 -25 -25c-8 0 -15 4 -20 9l-166 168l-167 -169c-5 -5 -11 -8 -18 -8c-13 0 -24 11 -24 24c0 7 3 13 8 18l169 167l-168 166c-5 5 -9 12 -9 20c0 14 11 25 25 25c8 0 15 -4 20 -9l166 -168l167 169
c5 5 11 8 18 8c13 0 24 -11 24 -24c0 -7 -3 -13 -8 -18z" />
    <glyph glyph-name="less" unicode="&#x3c;" horiz-adv-x="620" 
d="M509 104c-5 0 -11 2 -15 4l-416 216c-13 7 -18 16 -18 27v2c0 11 5 20 18 27l416 216c4 2 10 4 15 4c13 0 22 -11 22 -24c0 -11 -7 -18 -16 -23l-391 -200l391 -202c9 -5 16 -12 16 -23c0 -13 -9 -24 -22 -24z" />
    <glyph glyph-name="greater" unicode="&#x3e;" horiz-adv-x="620" 
d="M111 600c5 0 11 -2 15 -4l416 -216c13 -7 18 -16 18 -27v-2c0 -11 -5 -20 -18 -27l-416 -216c-4 -2 -10 -4 -15 -4c-13 0 -22 11 -22 24c0 11 7 18 16 23l391 200l-391 202c-9 5 -16 12 -16 23c0 13 9 24 22 24z" />
    <glyph glyph-name="plusminus" unicode="&#xb1;" horiz-adv-x="620" 
d="M285 176v182h-187c-13 0 -24 11 -24 24s11 24 24 24h187v182c0 14 11 25 25 25s25 -11 25 -25v-182h187c13 0 24 -11 24 -24s-11 -24 -24 -24h-187v-182c0 -14 -11 -25 -25 -25s-25 11 -25 25zM98 0c-13 0 -24 11 -24 24s11 24 24 24h424c13 0 24 -11 24 -24
s-11 -24 -24 -24h-424z" />
    <glyph glyph-name="space" unicode=" " horiz-adv-x="300" 
 />
    <glyph glyph-name="uni00A0" unicode="&#xa0;" horiz-adv-x="300" 
 />
    <glyph glyph-name="emspace" unicode="&#x2003;" horiz-adv-x="1000" 
 />
    <glyph glyph-name="enspace" unicode="&#x2002;" horiz-adv-x="500" 
 />
    <glyph glyph-name="threeperemspace" unicode="&#x2004;" horiz-adv-x="333" 
 />
    <glyph glyph-name="fourperemspace" unicode="&#x2005;" horiz-adv-x="250" 
 />
    <glyph glyph-name="thinspace" unicode="&#x2009;" horiz-adv-x="133" 
 />
    <glyph glyph-name="hairspace" unicode="&#x200a;" horiz-adv-x="75" 
 />
    <glyph glyph-name="NUL" horiz-adv-x="0" 
 />
    <glyph glyph-name="hfjslug" horiz-adv-x="694" 
d="M644 -200h-208l-8 14h-163l-8 -14h-207v303c18 0 32 14 32 32c0 17 -14 32 -32 32v554h100l30 79h334l29 -79h101v-921zM400 563v-172h15v78h38v14h-38v66h43v14h-58zM184 563v-172h15v79h47v-79h15v172h-15v-79h-47v79h-15zM460 394c5 -2 14 -4 21 -4c20 0 31 11 31 36
v137h-16v-137c0 -16 -5 -22 -16 -22c-6 0 -15 3 -20 5v-15zM371 465l-13 3c-2 -9 -5 -21 -8 -30h-1l-16 31c13 12 23 26 23 42c0 17 -9 31 -27 31c-17 0 -28 -14 -28 -31c0 -15 6 -24 14 -39c-15 -12 -23 -28 -23 -47c0 -22 12 -37 29 -37c13 0 23 9 29 24h1l12 -24l12 6
l-17 32c5 12 9 25 13 39zM523 323v-46h8v12l8 8l15 -20h10l-20 26l18 20h-10l-20 -24h-1v24h-8zM488 292l10 -15h9l-12 17c5 2 10 6 10 14c0 9 -7 15 -17 15h-20v-46h8v15h12zM426 276c14 0 24 11 24 24c0 12 -10 24 -24 24s-24 -12 -24 -24c0 -13 10 -24 24 -24zM370 301
l-13 22h-9l18 -29v-17h8v17l18 29h-9zM193 323v-46h34v7h-26v13h23v7h-23v12h26v7h-34zM132 323v-46h8v32l25 -32h7v46h-8v-32l-25 32h-7zM241 323l14 -47h8l11 34h1l11 -34h8l14 47h-8l-10 -35h-1l-11 35h-7l-11 -35h-1l-10 35h-8zM327 479c-7 13 -12 22 -12 32
c0 11 6 19 14 19s13 -8 13 -19c0 -12 -5 -21 -15 -32zM342 423c-5 -13 -12 -21 -20 -21c-9 0 -16 10 -16 25c0 13 7 26 16 35zM487 299h-11v17h11c6 0 10 -3 10 -8s-4 -9 -10 -9zM426 283c-10 0 -16 8 -16 17c0 8 6 17 16 17s16 -9 16 -17c0 -9 -6 -17 -16 -17z" />
    <glyph glyph-name="i.dot" horiz-adv-x="249" 
d="M94 668v17c0 17 13 30 30 30s31 -13 31 -30v-17c0 -17 -14 -30 -31 -30s-30 13 -30 30zM100 21v468c0 14 10 25 24 25s25 -10 25 -25v-468c0 -15 -10 -25 -24 -25s-25 10 -25 25z" />
    <glyph glyph-name="acute" unicode="&#xb4;" horiz-adv-x="500" 
d="M214 592c-7 0 -13 4 -13 9c0 4 2 8 4 11l62 93c8 12 16 18 28 18c19 0 42 -13 42 -23c0 -6 -5 -12 -11 -18l-80 -77c-12 -11 -19 -13 -32 -13z" />
    <glyph glyph-name="hungarumlaut" unicode="&#x2dd;" horiz-adv-x="500" 
d="M274 592c-7 0 -13 4 -13 9c0 4 2 8 4 11l63 94c8 12 15 17 27 17c18 0 39 -12 39 -22c0 -6 -4 -11 -10 -17l-78 -79c-12 -11 -19 -13 -32 -13zM122 592c-7 0 -13 4 -13 9c0 4 2 8 4 11l63 94c8 12 15 17 27 17c18 0 39 -12 39 -22c0 -6 -4 -11 -10 -17l-78 -79
c-12 -11 -19 -13 -32 -13z" />
    <glyph glyph-name="caron.alt" horiz-adv-x="500" 
d="M213 596l12 111c3 18 12 26 28 26h13c10 0 17 -5 17 -17c0 -6 -3 -15 -6 -24l-33 -97c-4 -13 -8 -18 -17 -18s-16 4 -14 19z" />
    <glyph glyph-name="grave" unicode="`" horiz-adv-x="500" 
d="M286 592c-13 0 -20 2 -32 13l-80 77c-6 6 -11 12 -11 18c0 10 23 23 42 23c12 0 20 -6 28 -18l62 -93c2 -3 4 -7 4 -11c0 -5 -6 -9 -13 -9z" />
    <glyph glyph-name="circumflex" unicode="&#x2c6;" horiz-adv-x="500" 
d="M249 663l-63 -58c-12 -11 -19 -13 -32 -13c-8 0 -13 5 -13 10c0 4 1 7 5 12l72 88c9 11 16 18 28 18h8c12 0 19 -7 28 -18l72 -88c4 -5 5 -8 5 -12c0 -5 -5 -10 -14 -10c-13 0 -21 2 -33 13z" />
    <glyph glyph-name="caron" unicode="&#x2c7;" horiz-adv-x="500" 
d="M251 649l63 58c12 11 19 13 32 13c8 0 13 -5 13 -10c0 -4 -1 -7 -5 -12l-72 -88c-9 -11 -16 -18 -28 -18h-8c-12 0 -19 7 -28 18l-72 88c-4 5 -5 8 -5 12c0 5 5 10 14 10c13 0 21 -2 33 -13z" />
    <glyph glyph-name="breve" unicode="&#x2d8;" horiz-adv-x="500" 
d="M250 593c-53 0 -95 23 -119 68c-6 11 -11 28 -11 38c0 13 7 22 19 22s17 -6 21 -17c13 -34 40 -60 90 -60s77 26 90 60c4 11 9 17 21 17s19 -9 19 -22c0 -10 -5 -27 -11 -38c-24 -45 -66 -68 -119 -68z" />
    <glyph glyph-name="tilde" unicode="&#x2dc;" horiz-adv-x="500" 
d="M141 598c-3 -6 -8 -14 -18 -14s-18 7 -18 17c0 3 1 9 2 12c19 58 43 75 79 75c38 0 94 -41 128 -41c22 0 33 11 45 38c3 6 9 14 18 14c10 0 18 -7 18 -17c0 -3 -1 -9 -2 -12c-19 -58 -43 -75 -79 -75c-38 0 -94 41 -128 41c-22 0 -33 -11 -45 -38z" />
    <glyph glyph-name="macron" unicode="&#xaf;" horiz-adv-x="500" 
d="M382 621h-264c-13 0 -24 11 -24 24s11 24 24 24h264c13 0 24 -11 24 -24s-11 -24 -24 -24z" />
    <glyph glyph-name="dieresis" unicode="&#xa8;" horiz-adv-x="500" 
d="M332 679c20 0 35 -14 35 -34v-20c0 -20 -15 -34 -35 -34s-35 14 -35 34v20c0 20 15 34 35 34zM168 679c20 0 35 -14 35 -34v-20c0 -20 -15 -34 -35 -34s-35 14 -35 34v20c0 20 15 34 35 34z" />
    <glyph glyph-name="dotaccent" unicode="&#x2d9;" horiz-adv-x="500" 
d="M286 645v-19c0 -21 -15 -35 -36 -35s-36 14 -36 35v19c0 21 15 35 36 35s36 -14 36 -35z" />
    <glyph glyph-name="ring" unicode="&#x2da;" horiz-adv-x="500" 
d="M250 593c-52 0 -98 42 -98 93v2c0 51 46 93 98 93s98 -42 98 -93v-2c0 -51 -46 -93 -98 -93zM250 625c33 0 62 28 62 61v2c0 33 -28 61 -62 61s-62 -28 -62 -61v-2c0 -33 29 -61 62 -61z" />
    <glyph glyph-name="asciicircum" unicode="^" horiz-adv-x="500" 
d="M249 660l-120 -157c-8 -11 -20 -14 -35 -14c-9 0 -14 6 -14 11c0 4 1 7 5 13l133 176c9 11 16 18 28 18h8c12 0 19 -7 28 -18l133 -176c4 -6 5 -9 5 -13c0 -5 -5 -11 -15 -11c-16 0 -28 3 -36 14z" />
    <glyph glyph-name="asciitilde" unicode="~" horiz-adv-x="460" 
d="M121 254c-3 -6 -8 -14 -18 -14s-18 7 -18 17c0 3 1 9 2 12c19 58 43 75 79 75c38 0 94 -41 128 -41c22 0 33 11 45 38c3 6 9 14 18 14c10 0 18 -7 18 -17c0 -3 -1 -9 -2 -12c-19 -58 -43 -75 -79 -75c-38 0 -94 41 -128 41c-22 0 -33 -11 -45 -38z" />
    <glyph glyph-name="commaaccent" unicode="&#x326;" horiz-adv-x="500" 
d="M246 -147c-18 4 -32 15 -32 35v6c0 20 16 36 36 36s36 -15 36 -40v-6c0 -41 -6 -62 -24 -80c-17 -17 -49 -28 -64 -28c-8 0 -13 5 -13 11s3 11 13 14c36 10 48 23 48 52z" />
    <glyph glyph-name="cedilla" unicode="&#xb8;" horiz-adv-x="500" 
d="M295 10l-65 -132c-6 -12 -11 -20 -26 -20c-16 0 -34 13 -34 24c0 4 1 8 5 15l77 113h43z" />
    <glyph glyph-name="ogonek" unicode="&#x2db;" horiz-adv-x="500" 
d="M195 -85c0 38 26 67 73 103l35 -17c-40 -32 -58 -52 -58 -80s21 -40 53 -46c21 -4 27 -10 27 -20c0 -11 -8 -18 -20 -18c-19 0 -110 8 -110 78z" />
    <glyph glyph-name="fraction" unicode="&#x2044;" horiz-adv-x="410" 
d="M-53 -80c0 6 2 11 4 15l444 812c5 9 11 15 22 15c13 0 24 -9 24 -22c0 -6 -2 -11 -4 -15l-444 -812c-5 -9 -11 -15 -22 -15c-13 0 -24 9 -24 22z" />
    <glyph glyph-name="perthousand" unicode="&#x2030;" horiz-adv-x="1200" 
d="M208 350c-92 0 -153 84 -153 177v2c0 94 62 179 155 179c92 0 153 -85 153 -177v-2c0 -94 -62 -179 -155 -179zM146 17c0 5 1 9 4 13l487 663c5 7 11 11 19 11c12 0 22 -9 22 -21c0 -5 -1 -9 -4 -13l-487 -663c-5 -7 -11 -11 -19 -11c-12 0 -22 9 -22 21zM990 -8
c-92 0 -153 84 -153 177v2c0 94 62 179 155 179c92 0 153 -85 153 -177v-2c0 -94 -62 -179 -155 -179zM614 -8c-92 0 -153 84 -153 177v2c0 94 62 179 155 179c92 0 153 -85 153 -177v-2c0 -94 -62 -179 -155 -179zM210 393c59 0 101 59 101 134v2c0 78 -47 136 -103 136
c-59 0 -101 -61 -101 -134v-2c0 -79 47 -136 103 -136zM992 35c59 0 101 59 101 134v2c0 78 -47 136 -103 136c-59 0 -101 -61 -101 -134v-2c0 -79 47 -136 103 -136zM616 35c59 0 101 59 101 134v2c0 78 -47 136 -103 136c-59 0 -101 -61 -101 -134v-2
c0 -79 47 -136 103 -136z" />
    </font>
</defs>
</svg>
